  0
SECTION
  2
HEADER
  9
$ACADVER
  1
AC1014
  9
$ACADMAINTVER
 70
     9
  9
$DWGCODEPAGE
  3
ANSI_1250
  9
$INSBASE
 10
0.0
 20
0.0
 30
0.0
  9
$EXTMIN
 10
-569.6165537142857
 20
-1511.671108
 30
0.0
  9
$EXTMAX
 10
1670.839604953493
 20
475.8726227692732
 30
0.0
  9
$LIMMIN
 10
0.0
 20
0.0
  9
$LIMMAX
 10
0.0
 20
0.0
  9
$ORTHOMODE
 70
     1
  9
$REGENMODE
 70
     1
  9
$FILLMODE
 70
     1
  9
$QTEXTMODE
 70
     0
  9
$MIRRTEXT
 70
     1
  9
$DRAGMODE
 70
     2
  9
$LTSCALE
 40
1.0
  9
$OSMODE
 70
    37
  9
$ATTMODE
 70
     1
  9
$TEXTSIZE
 40
0.2
  9
$TRACEWID
 40
0.05
  9
$TEXTSTYLE
  7
ED40
  9
$CLAYER
  8
V0-OBRYS
  9
$CELTYPE
  6
CONTINUOUS
  9
$CECOLOR
 62
    90
  9
$CELTSCALE
 40
1.0
  9
$DELOBJ
 70
     1
  9
$DISPSILH
 70
     0
  9
$DIMSCALE
 40
1.0
  9
$DIMASZ
 40
35.0
  9
$DIMEXO
 40
1.0
  9
$DIMDLI
 40
0.38
  9
$DIMRND
 40
0.0
  9
$DIMDLE
 40
0.0
  9
$DIMEXE
 40
1.25
  9
$DIMTP
 40
0.0
  9
$DIMTM
 40
0.0
  9
$DIMTXT
 40
40.0
  9
$DIMCEN
 40
0.09
  9
$DIMTSZ
 40
0.0
  9
$DIMTOL
 70
     0
  9
$DIMLIM
 70
     0
  9
$DIMTIH
 70
     0
  9
$DIMTOH
 70
     0
  9
$DIMSE1
 70
     0
  9
$DIMSE2
 70
     0
  9
$DIMTAD
 70
     1
  9
$DIMZIN
 70
     0
  9
$DIMBLK
  1
OPEN
  9
$DIMASO
 70
     1
  9
$DIMSHO
 70
     1
  9
$DIMPOST
  1

  9
$DIMAPOST
  1

  9
$DIMALT
 70
     0
  9
$DIMALTD
 70
     2
  9
$DIMALTF
 40
25.4
  9
$DIMLFAC
 40
1.0
  9
$DIMTOFL
 70
     1
  9
$DIMTVP
 40
0.0
  9
$DIMTIX
 70
     1
  9
$DIMSOXD
 70
     0
  9
$DIMSAH
 70
     0
  9
$DIMBLK1
  1

  9
$DIMBLK2
  1

  9
$DIMSTYLE
  2
ED40
  9
$DIMCLRD
 70
     0
  9
$DIMCLRE
 70
     0
  9
$DIMCLRT
 70
     0
  9
$DIMTFAC
 40
1.0
  9
$DIMGAP
 40
4.0
  9
$DIMJUST
 70
     0
  9
$DIMSD1
 70
     0
  9
$DIMSD2
 70
     0
  9
$DIMTOLJ
 70
     1
  9
$DIMTZIN
 70
     0
  9
$DIMALTZ
 70
     0
  9
$DIMALTTZ
 70
     0
  9
$DIMFIT
 70
     3
  9
$DIMUPT
 70
     1
  9
$DIMUNIT
 70
     2
  9
$DIMDEC
 70
     0
  9
$DIMTDEC
 70
     4
  9
$DIMALTU
 70
     2
  9
$DIMALTTD
 70
     2
  9
$DIMTXSTY
  7
ED40
  9
$DIMAUNIT
 70
     0
  9
$LUNITS
 70
     2
  9
$LUPREC
 70
     4
  9
$SKETCHINC
 40
0.1
  9
$FILLETRAD
 40
0.5
  9
$AUNITS
 70
     0
  9
$AUPREC
 70
     0
  9
$MENU
  1
.
  9
$ELEVATION
 40
0.0
  9
$PELEVATION
 40
0.0
  9
$THICKNESS
 40
0.0
  9
$LIMCHECK
 70
     0
  9
$BLIPMODE
 70
     0
  9
$CHAMFERA
 40
0.5
  9
$CHAMFERB
 40
0.5
  9
$CHAMFERC
 40
1.0
  9
$CHAMFERD
 40
0.0
  9
$SKPOLY
 70
     0
  9
$TDCREATE
 40
2455645.561603912
  9
$TDUPDATE
 40
2455645.561603924
  9
$TDINDWG
 40
0.0000000116
  9
$TDUSRTIMER
 40
0.0000000116
  9
$USRTIMER
 70
     1
  9
$ANGBASE
 50
0.0
  9
$ANGDIR
 70
     0
  9
$PDMODE
 70
     3
  9
$PDSIZE
 40
20.0
  9
$PLINEWID
 40
0.0
  9
$COORDS
 70
     1
  9
$SPLFRAME
 70
     0
  9
$SPLINETYPE
 70
     6
  9
$SPLINESEGS
 70
     8
  9
$ATTDIA
 70
     0
  9
$ATTREQ
 70
     1
  9
$HANDLING
 70
     1
  9
$HANDSEED
  5
1EBE
  9
$SURFTAB1
 70
     6
  9
$SURFTAB2
 70
     6
  9
$SURFTYPE
 70
     6
  9
$SURFU
 70
     6
  9
$SURFV
 70
     6
  9
$UCSNAME
  2

  9
$UCSORG
 10
0.0
 20
0.0
 30
0.0
  9
$UCSXDIR
 10
1.0
 20
0.0
 30
0.0
  9
$UCSYDIR
 10
0.0
 20
1.0
 30
0.0
  9
$PUCSNAME
  2

  9
$PUCSORG
 10
0.0
 20
0.0
 30
0.0
  9
$PUCSXDIR
 10
1.0
 20
0.0
 30
0.0
  9
$PUCSYDIR
 10
0.0
 20
1.0
 30
0.0
  9
$USERI1
 70
     0
  9
$USERI2
 70
     0
  9
$USERI3
 70
     0
  9
$USERI4
 70
     0
  9
$USERI5
 70
     0
  9
$USERR1
 40
0.0
  9
$USERR2
 40
0.0
  9
$USERR3
 40
0.0
  9
$USERR4
 40
0.0
  9
$USERR5
 40
0.0
  9
$WORLDVIEW
 70
     1
  9
$SHADEDGE
 70
     3
  9
$SHADEDIF
 70
    70
  9
$TILEMODE
 70
     1
  9
$MAXACTVP
 70
    64
  9
$PINSBASE
 10
0.0
 20
0.0
 30
0.0
  9
$PLIMCHECK
 70
     0
  9
$PEXTMIN
 10
1.000000000000000E+20
 20
1.000000000000000E+20
 30
1.000000000000000E+20
  9
$PEXTMAX
 10
-1.000000000000000E+20
 20
-1.000000000000000E+20
 30
-1.000000000000000E+20
  9
$PLIMMIN
 10
0.0
 20
0.0
  9
$PLIMMAX
 10
0.0
 20
0.0
  9
$UNITMODE
 70
     0
  9
$VISRETAIN
 70
     1
  9
$PLINEGEN
 70
     0
  9
$PSLTSCALE
 70
     1
  9
$TREEDEPTH
 70
  3020
  9
$PICKSTYLE
 70
     1
  9
$CMLSTYLE
  2
STANDARD
  9
$CMLJUST
 70
     0
  9
$CMLSCALE
 40
1.0
  9
$PROXYGRAPHICS
 70
     1
  9
$MEASUREMENT
 70
     0
  0
ENDSEC
  0
SECTION
  2
CLASSES
  0
CLASS
  1
ACDBDICTIONARYWDFLT
  2
AcDbDictionaryWithDefault
  3
ObjectDBX Classes
 90
        0
280
     0
281
     0
  0
CLASS
  1
XRECORD
  2
AcDbXrecord
  3
AutoCAD 2000
 90
        0
280
     0
281
     0
  0
CLASS
  1
LWPOLYLINE
  2
AcDbPolyline
  3
AutoCAD 2000
 90
        0
280
     0
281
     1
  0
CLASS
  1
HATCH
  2
AcDbHatch
  3
AutoCAD 2000
 90
        0
280
     0
281
     1
  0
CLASS
  1
ACDBPLACEHOLDER
  2
AcDbPlaceHolder
  3
ObjectDBX Classes
 90
        0
280
     0
281
     0
  0
CLASS
  1
LAYOUT
  2
AcDbLayout
  3
ObjectDBX Classes
 90
        0
280
     0
281
     0
  0
ENDSEC
  0
SECTION
  2
TABLES
  0
TABLE
  2
VPORT
  5
1E10
330
0
100
AcDbSymbolTable
 70
     2
  0
VPORT
  5
1E31
102
{ACAD_XDICTIONARY
360
1EBC
102
}
330
1E10
100
AcDbSymbolTableRecord
100
AcDbViewportTableRecord
  2
*ACTIVE
 70
     0
 10
0.0
 20
0.0
 11
1.0
 21
1.0
 12
506.293447
 22
-455.041253
 13
0.0
 23
0.0
 14
10.0
 24
10.0
 15
10.0
 25
10.0
 16
0.0
 26
0.0
 36
1.0
 17
0.0
 27
0.0
 37
0.0
 40
2041.395114
 41
0.0086983439089651
 42
50.0
 43
0.0
 44
0.0
 50
0.0
 51
0.0000000000007958
 71
     0
 72
   100
 73
     1
 74
     3
 75
     0
 76
     0
 77
     0
 78
     0
  0
ENDTAB
  0
TABLE
  2
LTYPE
  5
1E0D
330
0
100
AcDbSymbolTable
 70
    25
  0
LTYPE
  5
1E1C
330
1E0D
100
AcDbSymbolTableRecord
100
AcDbLinetypeTableRecord
  2
BYBLOCK
 70
     0
  3

 72
    65
 73
     0
 40
0.0
  0
LTYPE
  5
1E1D
330
1E0D
100
AcDbSymbolTableRecord
100
AcDbLinetypeTableRecord
  2
BYLAYER
 70
     0
  3

 72
    65
 73
     0
 40
0.0
  0
LTYPE
  5
1E1E
330
1E0D
100
AcDbSymbolTableRecord
100
AcDbLinetypeTableRecord
  2
CONTINUOUS
 70
     0
  3
Solid line
 72
    65
 73
     0
 40
0.0
  0
LTYPE
  5
1E39
330
1E0D
100
AcDbSymbolTableRecord
100
AcDbLinetypeTableRecord
  2
CENTER
 70
     0
  3
Center ____ _ ____ _ ____ _ ____ _ ____ _ ____
 72
    65
 73
     4
 40
2.0
 49
1.25
 74
     0
 49
-0.25
 74
     0
 49
0.25
 74
     0
 49
-0.25
 74
     0
  0
LTYPE
  5
1E3A
330
1E0D
100
AcDbSymbolTableRecord
100
AcDbLinetypeTableRecord
  2
DASHDOT
 70
     0
  3
Dashdot __ . __ . __ . __ . __ . __ . __ . __
 72
    65
 73
     4
 40
1.0
 49
0.5
 74
     0
 49
-0.25
 74
     0
 49
0.0
 74
     0
 49
-0.25
 74
     0
  0
LTYPE
  5
1E3B
330
1E0D
100
AcDbSymbolTableRecord
100
AcDbLinetypeTableRecord
  2
DASHED
 70
     0
  3
Dashed __ __ __ __ __ __ __ __ __ __ __ __ __ _
 72
    65
 73
     2
 40
0.75
 49
0.5
 74
     0
 49
-0.25
 74
     0
  0
LTYPE
  5
1E3C
330
1E0D
100
AcDbSymbolTableRecord
100
AcDbLinetypeTableRecord
  2
HIDDEN
 70
     0
  3
Hidden __ __ __ __ __ __ __ __ __ __ __ __ __ __
 72
    65
 73
     2
 40
0.375
 49
0.25
 74
     0
 49
-0.125
 74
     0
  0
LTYPE
  5
1E3D
330
1E0D
100
AcDbSymbolTableRecord
100
AcDbLinetypeTableRecord
  2
HIDDEN2
 70
     0
  3
Hidden2 _ _ _ _ _ _ _ _ _ _ _ _ _ _ _ _ _ 
 72
    65
 73
     2
 40
0.1875
 49
0.125
 74
     0
 49
-0.0625
 74
     0
  0
LTYPE
  5
1E3E
330
1E0D
100
AcDbSymbolTableRecord
100
AcDbLinetypeTableRecord
  2
BORDER
 70
     0
  3
Border __ __ . __ __ . __ __ . __ __ . __ __ .
 72
    65
 73
     6
 40
1.75
 49
0.5
 74
     0
 49
-0.25
 74
     0
 49
0.5
 74
     0
 49
-0.25
 74
     0
 49
0.0
 74
     0
 49
-0.25
 74
     0
  0
LTYPE
  5
1E3F
330
1E0D
100
AcDbSymbolTableRecord
100
AcDbLinetypeTableRecord
  2
BORDER2
 70
     0
  3
Border2 __.__.__.__.__.__.__.__.__.__.__.
 72
    65
 73
     6
 40
0.875
 49
0.25
 74
     0
 49
-0.125
 74
     0
 49
0.25
 74
     0
 49
-0.125
 74
     0
 49
0.0
 74
     0
 49
-0.125
 74
     0
  0
LTYPE
  5
1E40
330
1E0D
100
AcDbSymbolTableRecord
100
AcDbLinetypeTableRecord
  2
BORDERX2
 70
     0
  3
Borderx2  ____  ____  .  ____  ____  .  ___
 72
    65
 73
     6
 40
3.5
 49
1.0
 74
     0
 49
-0.5
 74
     0
 49
1.0
 74
     0
 49
-0.5
 74
     0
 49
0.0
 74
     0
 49
-0.5
 74
     0
  0
LTYPE
  5
1E41
330
1E0D
100
AcDbSymbolTableRecord
100
AcDbLinetypeTableRecord
  2
CENTER2
 70
     0
  3
Center2  ___ _ ___ _ ___ _ ___ _ ___ _ ___
 72
    65
 73
     4
 40
1.125
 49
0.75
 74
     0
 49
-0.125
 74
     0
 49
0.125
 74
     0
 49
-0.125
 74
     0
  0
LTYPE
  5
1E42
330
1E0D
100
AcDbSymbolTableRecord
100
AcDbLinetypeTableRecord
  2
CENTERX2
 70
     0
  3
Centerx2  ________  __  ________  __  _____
 72
    65
 73
     4
 40
4.0
 49
2.5
 74
     0
 49
-0.5
 74
     0
 49
0.5
 74
     0
 49
-0.5
 74
     0
  0
LTYPE
  5
1E43
330
1E0D
100
AcDbSymbolTableRecord
100
AcDbLinetypeTableRecord
  2
DASHDOT2
 70
     0
  3
Dashdot2  _._._._._._._._._._._._._._._.
 72
    65
 73
     4
 40
0.5
 49
0.25
 74
     0
 49
-0.125
 74
     0
 49
0.0
 74
     0
 49
-0.125
 74
     0
  0
LTYPE
  5
1E44
330
1E0D
100
AcDbSymbolTableRecord
100
AcDbLinetypeTableRecord
  2
DASHDOTX2
 70
     0
  3
Dashdotx2 ____  .  ____  .  ____  .  ___
 72
    65
 73
     4
 40
2.0
 49
1.0
 74
     0
 49
-0.5
 74
     0
 49
0.0
 74
     0
 49
-0.5
 74
     0
  0
LTYPE
  5
1E45
330
1E0D
100
AcDbSymbolTableRecord
100
AcDbLinetypeTableRecord
  2
DASHED2
 70
     0
  3
Dashed2 _ _ _ _ _ _ _ _ _ _ _ _ _ _ _ _ _ 
 72
    65
 73
     2
 40
0.375
 49
0.25
 74
     0
 49
-0.125
 74
     0
  0
LTYPE
  5
1E46
330
1E0D
100
AcDbSymbolTableRecord
100
AcDbLinetypeTableRecord
  2
DASHEDX2
 70
     0
  3
Dashedx2 ____  ____  ____  ____  ____  ___
 72
    65
 73
     2
 40
1.5
 49
1.0
 74
     0
 49
-0.5
 74
     0
  0
LTYPE
  5
1E47
330
1E0D
100
AcDbSymbolTableRecord
100
AcDbLinetypeTableRecord
  2
DIVIDE
 70
     0
  3
Divide ____ . . ____ . . ____ . . ____ . . ____
 72
    65
 73
     6
 40
1.25
 49
0.5
 74
     0
 49
-0.25
 74
     0
 49
0.0
 74
     0
 49
-0.25
 74
     0
 49
0.0
 74
     0
 49
-0.25
 74
     0
  0
LTYPE
  5
1E48
330
1E0D
100
AcDbSymbolTableRecord
100
AcDbLinetypeTableRecord
  2
DIVIDE2
 70
     0
  3
Divide2 __..__..__..__..__..__..__..__.._
 72
    65
 73
     6
 40
0.625
 49
0.25
 74
     0
 49
-0.125
 74
     0
 49
0.0
 74
     0
 49
-0.125
 74
     0
 49
0.0
 74
     0
 49
-0.125
 74
     0
  0
LTYPE
  5
1E49
330
1E0D
100
AcDbSymbolTableRecord
100
AcDbLinetypeTableRecord
  2
DIVIDEX2
 70
     0
  3
Dividex2 ________  .  .  ________  .  .  _
 72
    65
 73
     6
 40
2.5
 49
1.0
 74
     0
 49
-0.5
 74
     0
 49
0.0
 74
     0
 49
-0.5
 74
     0
 49
0.0
 74
     0
 49
-0.5
 74
     0
  0
LTYPE
  5
1E4A
330
1E0D
100
AcDbSymbolTableRecord
100
AcDbLinetypeTableRecord
  2
DOT
 70
     0
  3
Dot . . . . . . . . . . . . . . . . . . . . . . . .
 72
    65
 73
     2
 40
0.25
 49
0.0
 74
     0
 49
-0.25
 74
     0
  0
LTYPE
  5
1E4B
330
1E0D
100
AcDbSymbolTableRecord
100
AcDbLinetypeTableRecord
  2
DOT2
 70
     0
  3
Dot2 ........................................
 72
    65
 73
     2
 40
0.125
 49
0.0
 74
     0
 49
-0.125
 74
     0
  0
LTYPE
  5
1E4C
330
1E0D
100
AcDbSymbolTableRecord
100
AcDbLinetypeTableRecord
  2
DOTX2
 70
     0
  3
Dotx2 .  .  .  .  .  .  .  .  .  .  .  .  .  .
 72
    65
 73
     2
 40
0.5
 49
0.0
 74
     0
 49
-0.5
 74
     0
  0
LTYPE
  5
1E4D
330
1E0D
100
AcDbSymbolTableRecord
100
AcDbLinetypeTableRecord
  2
HIDDENX2
 70
     0
  3
Hiddenx2 ____ ____ ____ ____ ____ ____ ____ 
 72
    65
 73
     2
 40
0.75
 49
0.5
 74
     0
 49
-0.25
 74
     0
  0
LTYPE
  5
1E4E
330
1E0D
100
AcDbSymbolTableRecord
100
AcDbLinetypeTableRecord
  2
PHANTOM
 70
     0
  3
Phantom ______  __  __  ______  __  __  ______ 
 72
    65
 73
     6
 40
2.5
 49
1.25
 74
     0
 49
-0.25
 74
     0
 49
0.25
 74
     0
 49
-0.25
 74
     0
 49
0.25
 74
     0
 49
-0.25
 74
     0
  0
LTYPE
  5
1E4F
330
1E0D
100
AcDbSymbolTableRecord
100
AcDbLinetypeTableRecord
  2
PHANTOM2
 70
     0
  3
Phantom2 ___ _ _ ___ _ _ ___ _ _ ___ _ _
 72
    65
 73
     6
 40
1.25
 49
0.625
 74
     0
 49
-0.125
 74
     0
 49
0.125
 74
     0
 49
-0.125
 74
     0
 49
0.125
 74
     0
 49
-0.125
 74
     0
  0
LTYPE
  5
1E50
330
1E0D
100
AcDbSymbolTableRecord
100
AcDbLinetypeTableRecord
  2
PHANTOMX2
 70
     0
  3
Phantomx2 ____________    ____    ____   _
 72
    65
 73
     6
 40
5.0
 49
2.5
 74
     0
 49
-0.5
 74
     0
 49
0.5
 74
     0
 49
-0.5
 74
     0
 49
0.5
 74
     0
 49
-0.5
 74
     0
  0
ENDTAB
  0
TABLE
  2
LAYER
  5
1E0A
330
0
100
AcDbSymbolTable
 70
     6
  0
LAYER
  5
1E18
330
1E0A
100
AcDbSymbolTableRecord
100
AcDbLayerTableRecord
  2
0
 70
     0
 62
     7
  6
CONTINUOUS
  0
LAYER
  5
9E
330
1E0A
100
AcDbSymbolTableRecord
100
AcDbLayerTableRecord
  2
DEFPOINTS
 70
     0
 62
     7
  6
CONTINUOUS
  0
LAYER
  5
377
330
1E0A
100
AcDbSymbolTableRecord
100
AcDbLayerTableRecord
  2
V0-OBRYS
 70
     0
 62
    90
  6
CONTINUOUS
  0
LAYER
  5
378
330
1E0A
100
AcDbSymbolTableRecord
100
AcDbLayerTableRecord
  2
V0-VYPLNE
 70
     0
 62
    63
  6
DASHDOT
  0
LAYER
  5
37A
330
1E0A
100
AcDbSymbolTableRecord
100
AcDbLayerTableRecord
  2
V0-NAZVY
 70
     0
 62
   210
  6
CONTINUOUS
  0
LAYER
  5
559
330
1E0A
100
AcDbSymbolTableRecord
100
AcDbLayerTableRecord
  2
V0-ZBYTEK
 70
     0
 62
    51
  6
CONTINUOUS
  0
ENDTAB
  0
TABLE
  2
STYLE
  5
1E0B
330
0
100
AcDbSymbolTable
 70
     5
  0
STYLE
  5
1E19
330
1E0B
100
AcDbSymbolTableRecord
100
AcDbTextStyleTableRecord
  2
STANDARD
 70
     0
 40
0.0
 41
1.0
 50
0.0
 71
     0
 42
0.2
  3
ISOCP.shx
  4

1001
ACAD
1000
ISOCP.shx
1071
        0
  0
STYLE
  5
331
330
1E0B
100
AcDbSymbolTableRecord
100
AcDbTextStyleTableRecord
  2
ED20
 70
     0
 40
25.0
 41
1.0
 50
0.0
 71
     0
 42
0.2
  3
ISOCP.shx
  4

1001
ACAD
1000
ISOCP.shx
1071
        0
  0
STYLE
  5
648
330
1E0B
100
AcDbSymbolTableRecord
100
AcDbTextStyleTableRecord
  2
ED10
 70
     0
 40
10.0
 41
1.0
 50
0.0
 71
     0
 42
0.2
  3
ISOCP.shx
  4

1001
ACAD
1000
ISOCP.shx
1071
        0
  0
STYLE
  5
F38
330
1E0B
100
AcDbSymbolTableRecord
100
AcDbTextStyleTableRecord
  2
ED30
 70
     0
 40
30.0
 41
1.0
 50
0.0
 71
     0
 42
0.2
  3
ISOCP.shx
  4

1001
ACAD
1000
ISOCP.shx
1071
        0
  0
STYLE
  5
F39
330
1E0B
100
AcDbSymbolTableRecord
100
AcDbTextStyleTableRecord
  2
ED40
 70
     0
 40
40.0
 41
1.0
 50
0.0
 71
     0
 42
0.2
  3
ISOCP.shx
  4

1001
ACAD
1000
ISOCP.shx
1071
        0
  0
ENDTAB
  0
TABLE
  2
VIEW
  5
1E0E
330
0
100
AcDbSymbolTable
 70
     0
  0
ENDTAB
  0
TABLE
  2
UCS
  5
1E0F
330
0
100
AcDbSymbolTable
 70
     0
  0
ENDTAB
  0
TABLE
  2
APPID
  5
1E11
330
0
100
AcDbSymbolTable
 70
     6
  0
APPID
  5
1E1A
330
1E11
100
AcDbSymbolTableRecord
100
AcDbRegAppTableRecord
  2
ACAD
 70
     0
  0
APPID
  5
1E32
330
1E11
100
AcDbSymbolTableRecord
100
AcDbRegAppTableRecord
  2
VD_INVISIBLE_NOT_FOR_READ
 70
     0
  0
APPID
  5
1E33
330
1E11
100
AcDbSymbolTableRecord
100
AcDbRegAppTableRecord
  2
VD_TEMPHATCH
 70
     0
  0
APPID
  5
1E34
330
1E11
100
AcDbSymbolTableRecord
100
AcDbRegAppTableRecord
  2
VDEXTRAPARAM
 70
     0
  0
APPID
  5
1E35
330
1E11
100
AcDbSymbolTableRecord
100
AcDbRegAppTableRecord
  2
PE_URL
 70
     0
  0
APPID
  5
1E36
330
1E11
100
AcDbSymbolTableRecord
100
AcDbRegAppTableRecord
  2
VD_UNKNOWN
 70
     0
  0
ENDTAB
  0
TABLE
  2
DIMSTYLE
  5
1E12
330
0
100
AcDbSymbolTable
 70
     5
  0
DIMSTYLE
105
1E2F
330
1E12
100
AcDbSymbolTableRecord
100
AcDbDimStyleTableRecord
  2
STANDARD
 70
     0
  3

  4

  5
OPEN
  6

  7

 40
1.0
 41
15.0
 42
0.625
 43
0.38
 44
1.25
 45
0.0
 46
0.0
 47
0.0
 48
0.0
140
15.0
141
0.09
142
0.0
143
25.4
144
1.0
145
0.0
146
1.0
147
3.0
 71
     0
 72
     0
 73
     0
 74
     0
 75
     0
 76
     0
 77
     1
 78
     0
170
     0
171
     2
172
     1
173
     0
174
     1
175
     0
176
     0
177
     0
178
     0
270
     2
271
     0
272
     4
273
     2
274
     2
340
331
275
     0
280
     0
281
     0
282
     0
283
     1
284
     0
285
     0
286
     0
287
     3
288
     1
  0
DIMSTYLE
105
397
102
{ACAD_REACTORS
330
1469
330
1483
330
1BAE
330
1CC5
330
1CEC
102
}
330
1E12
100
AcDbSymbolTableRecord
100
AcDbDimStyleTableRecord
  2
ED40
 70
     0
  3

  4

  5
OPEN
  6

  7

 40
1.0
 41
35.0
 42
1.0
 43
0.38
 44
1.25
 45
0.0
 46
0.0
 47
0.0
 48
0.0
140
40.0
141
0.09
142
0.0
143
25.4
144
1.0
145
0.0
146
1.0
147
4.0
 71
     0
 72
     0
 73
     0
 74
     0
 75
     0
 76
     0
 77
     1
 78
     0
170
     0
171
     2
172
     1
173
     0
174
     1
175
     0
176
     0
177
     0
178
     0
270
     2
271
     0
272
     4
273
     2
274
     2
340
F39
275
     0
280
     0
281
     0
282
     0
283
     1
284
     0
285
     0
286
     0
287
     3
288
     1
  0
DIMSTYLE
105
FEA
330
1E12
100
AcDbSymbolTableRecord
100
AcDbDimStyleTableRecord
  2
ED30
 70
     0
  3

  4

  5
OPEN
  6

  7

 40
1.0
 41
25.0
 42
1.0
 43
0.38
 44
1.25
 45
0.0
 46
0.0
 47
0.0
 48
0.0
140
30.0
141
0.09
142
0.0
143
25.4
144
1.0
145
0.0
146
1.0
147
4.0
 71
     0
 72
     0
 73
     0
 74
     0
 75
     0
 76
     0
 77
     1
 78
     0
170
     0
171
     2
172
     1
173
     0
174
     1
175
     0
176
     0
177
     0
178
     0
270
     2
271
     0
272
     4
273
     2
274
     2
340
F38
275
     0
280
     0
281
     0
282
     0
283
     1
284
     0
285
     0
286
     0
287
     3
288
     1
  0
DIMSTYLE
105
1457
330
1E12
100
AcDbSymbolTableRecord
100
AcDbDimStyleTableRecord
  2
ED20
 70
     0
  3

  4

  5
OPEN
  6

  7

 40
1.0
 41
20.0
 42
1.0
 43
0.38
 44
1.25
 45
0.0
 46
0.0
 47
0.0
 48
0.0
140
20.0
141
0.09
142
0.0
143
25.4
144
1.0
145
0.0
146
1.0
147
1.5
 71
     0
 72
     0
 73
     0
 74
     0
 75
     0
 76
     0
 77
     1
 78
     0
170
     0
171
     2
172
     1
173
     0
174
     1
175
     0
176
     0
177
     0
178
     0
270
     2
271
     0
272
     4
273
     2
274
     2
340
331
275
     0
280
     0
281
     0
282
     0
283
     1
284
     0
285
     0
286
     0
287
     3
288
     1
  0
DIMSTYLE
105
1458
330
1E12
100
AcDbSymbolTableRecord
100
AcDbDimStyleTableRecord
  2
ED10
 70
     0
  3

  4

  5
OPEN
  6

  7

 40
1.0
 41
15.0
 42
1.0
 43
0.38
 44
1.25
 45
0.0
 46
0.0
 47
0.0
 48
0.0
140
10.0
141
0.09
142
0.0
143
25.4
144
1.0
145
0.0
146
1.0
147
1.5
 71
     0
 72
     0
 73
     0
 74
     0
 75
     0
 76
     0
 77
     1
 78
     0
170
     0
171
     2
172
     1
173
     0
174
     1
175
     0
176
     0
177
     0
178
     0
270
     2
271
     0
272
     4
273
     2
274
     2
340
331
275
     0
280
     0
281
     0
282
     0
283
     1
284
     0
285
     0
286
     0
287
     3
288
     1
  0
ENDTAB
  0
TABLE
  2
BLOCK_RECORD
  5
1E09
330
0
100
AcDbSymbolTable
 70
    10
  0
BLOCK_RECORD
  5
1E27
330
1E09
100
AcDbSymbolTableRecord
100
AcDbBlockTableRecord
  2
*MODEL_SPACE
  0
BLOCK_RECORD
  5
1E23
330
1E09
100
AcDbSymbolTableRecord
100
AcDbBlockTableRecord
  2
*PAPER_SPACE
  0
BLOCK_RECORD
  5
90
330
1E09
100
AcDbSymbolTableRecord
100
AcDbBlockTableRecord
  2
_OPEN
  0
BLOCK_RECORD
  5
1459
330
1E09
100
AcDbSymbolTableRecord
100
AcDbBlockTableRecord
  2
A10_100
  0
BLOCK_RECORD
  5
1E05
330
1E09
100
AcDbSymbolTableRecord
100
AcDbBlockTableRecord
  2
VDDIM_DEFAULT
  0
BLOCK_RECORD
  5
1E07
330
1E09
100
AcDbSymbolTableRecord
100
AcDbBlockTableRecord
  2
VDDIM_NONE
  0
BLOCK_RECORD
  5
1E5A
330
1E09
100
AcDbSymbolTableRecord
100
AcDbBlockTableRecord
  2
*D5
  0
BLOCK_RECORD
  5
1E67
330
1E09
100
AcDbSymbolTableRecord
100
AcDbBlockTableRecord
  2
*D6
  0
BLOCK_RECORD
  5
1E74
330
1E09
100
AcDbSymbolTableRecord
100
AcDbBlockTableRecord
  2
*D7
  0
BLOCK_RECORD
  5
1E81
330
1E09
100
AcDbSymbolTableRecord
100
AcDbBlockTableRecord
  2
*D8
  0
BLOCK_RECORD
  5
1E8D
330
1E09
100
AcDbSymbolTableRecord
100
AcDbBlockTableRecord
  2
*D9
  0
ENDTAB
  0
ENDSEC
  0
SECTION
  2
BLOCKS
  0
BLOCK
  5
1E28
330
1E27
100
AcDbEntity
  8
0
100
AcDbBlockBegin
  2
*MODEL_SPACE
 70
     0
 71
     0
 10
0.0
 20
0.0
 30
0.0
  3
*MODEL_SPACE
  1

  0
ENDBLK
  5
1E29
330
1E27
100
AcDbEntity
  8
0
100
AcDbBlockEnd
  0
BLOCK
  5
1E24
330
1E23
100
AcDbEntity
 67
     1
  8
0
100
AcDbBlockBegin
  2
*PAPER_SPACE
 70
     0
 71
     0
 10
0.0
 20
0.0
 30
0.0
  3
*PAPER_SPACE
  1

  0
ENDBLK
  5
1E25
330
1E23
100
AcDbEntity
 67
     1
  8
0
100
AcDbBlockEnd
  0
BLOCK
  5
1E51
330
90
100
AcDbEntity
  8
0
100
AcDbBlockBegin
  2
_OPEN
 70
     0
 71
     0
 10
0.0
 20
0.0
 30
0.0
  3
_OPEN
  1

  0
LINE
  5
92
330
90
100
AcDbEntity
  8
0
  6
BYBLOCK
 62
     0
100
AcDbLine
 10
-1.0
 20
0.166667
 30
0.0
 11
0.0
 21
0.0
 31
0.0
  0
LINE
  5
93
330
90
100
AcDbEntity
  8
0
  6
BYBLOCK
 62
     0
100
AcDbLine
 10
0.0
 20
0.0
 30
0.0
 11
-1.0
 21
-0.166667
 31
0.0
  0
LINE
  5
94
330
90
100
AcDbEntity
  8
0
  6
BYBLOCK
 62
     0
100
AcDbLine
 10
0.0
 20
0.0
 30
0.0
 11
-1.0
 21
0.0
 31
0.0
  0
ENDBLK
  5
1E52
330
90
100
AcDbEntity
  8
0
100
AcDbBlockEnd
  0
BLOCK
  5
1E53
330
1459
100
AcDbEntity
  8
0
100
AcDbBlockBegin
  2
A10_100
 70
     0
 71
     0
 10
0.0
 20
0.0
 30
0.0
  3
A10_100
  1

  0
ENDBLK
  5
1E54
330
1459
100
AcDbEntity
  8
0
100
AcDbBlockEnd
  0
BLOCK
  5
1E55
330
1E05
100
AcDbEntity
  8
0
100
AcDbBlockBegin
  2
VDDIM_DEFAULT
 70
     0
 71
     0
 10
0.0
 20
0.0
 30
0.0
  3
VDDIM_DEFAULT
  1

  0
LWPOLYLINE
  5
1E06
330
1E05
100
AcDbEntity
  8
0
  6
CONTINUOUS
 62
     0
100
AcDbPolyline
 90
        4
 70
     0
 43
0.0
 10
0.0
 20
0.0
 10
-1.0
 20
-0.1665
 10
-1.0
 20
0.1665
 10
0.0
 20
0.0
1001
VDEXTRAPARAM
1071
        1
1071
        0
1071
        0
1040
1.0
1000

1000

1040
0.0
1040
0.0
  0
HATCH
  5
1E59
330
1E05
100
AcDbEntity
  8
0
  6
CONTINUOUS
 62
     0
100
AcDbHatch
 10
0.0
 20
0.0
 30
0.0
210
0.0
220
0.0
230
1.0
  2
SOLID
 70
     1
 71
     0
 91
        1
 92
        2
 72
     0
 73
     1
 93
        3
 10
0.0
 20
0.0
 10
-1.0
 20
-0.1665
 10
-1.0
 20
0.1665
 97
        0
 75
     0
 76
     1
 98
        1
 10
0.0
 20
0.0
1001
VDEXTRAPARAM
1071
        1
1071
        0
1071
        0
1040
1.0
1000

1000

1040
0.0
1040
0.0
1001
VD_TEMPHATCH
1000
VD_TEMPHATCH
  0
ENDBLK
  5
1E56
330
1E05
100
AcDbEntity
  8
0
100
AcDbBlockEnd
  0
BLOCK
  5
1E57
330
1E07
100
AcDbEntity
  8
0
100
AcDbBlockBegin
  2
VDDIM_NONE
 70
     0
 71
     0
 10
0.0
 20
0.0
 30
0.0
  3
VDDIM_NONE
  1

  0
ENDBLK
  5
1E58
330
1E07
100
AcDbEntity
  8
0
100
AcDbBlockEnd
  0
BLOCK
  5
1E65
330
1E5A
100
AcDbEntity
  8
0
100
AcDbBlockBegin
  2
*D5
 70
     1
 71
     0
 10
0.0
 20
0.0
 30
0.0
  3
*D5
  1

  0
LINE
  5
1E5B
330
1E5A
100
AcDbEntity
  8
V0-VYPLNE
 62
     0
100
AcDbLine
 10
6.141238999999999
 20
-277.166006
 30
0.0
 11
6.141238999999927
 21
-364.4386980000127
 31
0.0
  0
LINE
  5
1E5C
330
1E5A
100
AcDbEntity
  8
V0-VYPLNE
 62
     0
100
AcDbLine
 10
406.141239
 20
-277.166006
 30
0.0
 11
406.141239
 21
-364.4386980000127
 31
0.0
  0
LINE
  5
1E5D
330
1E5A
100
AcDbEntity
  8
V0-VYPLNE
 62
     0
100
AcDbLine
 10
41.14123899999993
 20
-363.1886980000127
 30
0.0
 11
116.2530324761905
 21
-363.1886980000127
 31
0.0
  0
LINE
  5
1E5E
330
1E5A
100
AcDbEntity
  8
V0-VYPLNE
 62
     0
100
AcDbLine
 10
371.141239
 20
-363.1886980000127
 30
0.0
 11
263.3006515238095
 21
-363.1886980000127
 31
0.0
  0
INSERT
  5
1E5F
330
1E5A
100
AcDbEntity
  8
V0-VYPLNE
 62
     0
100
AcDbBlockReference
  2
_OPEN
 10
6.141238999999928
 20
-363.1886980000127
 30
0.0
 41
35.0
 42
35.0
 43
35.0
 50
180.0
  0
INSERT
  5
1E60
330
1E5A
100
AcDbEntity
  8
V0-VYPLNE
 62
     0
100
AcDbBlockReference
  2
_OPEN
 10
406.141239
 20
-363.1886980000127
 30
0.0
 41
35.0
 42
35.0
 43
35.0
  0
MTEXT
  5
1E61
330
1E5A
100
AcDbEntity
  8
V0-VYPLNE
 62
     0
100
AcDbMText
 10
189.776842
 20
-363.188698
 30
0.0
 40
40.0
 41
0.0
 71
     5
 72
     1
  1
%%c\A1;400
  7
ED40
  0
POINT
  5
1E62
330
1E5A
100
AcDbEntity
  8
DEFPOINTS
 62
     0
100
AcDbPoint
 10
6.141239
 20
-276.166006
 30
0.0
  0
POINT
  5
1E63
330
1E5A
100
AcDbEntity
  8
DEFPOINTS
 62
     0
100
AcDbPoint
 10
406.141239
 20
-276.166006
 30
0.0
  0
POINT
  5
1E64
330
1E5A
100
AcDbEntity
  8
DEFPOINTS
 62
     0
100
AcDbPoint
 10
406.141239
 20
-363.1886980000127
 30
0.0
  0
ENDBLK
  5
1E66
330
1E5A
100
AcDbEntity
  8
0
100
AcDbBlockEnd
  0
BLOCK
  5
1E72
330
1E67
100
AcDbEntity
  8
0
100
AcDbBlockBegin
  2
*D6
 70
     1
 71
     0
 10
0.0
 20
0.0
 30
0.0
  3
*D6
  1

  0
LINE
  5
1E68
330
1E67
100
AcDbEntity
  8
V0-VYPLNE
 62
     0
100
AcDbLine
 10
-108.858761
 20
-277.166006
 30
0.0
 11
-108.858761
 21
-491.3193230000033
 31
0.0
  0
LINE
  5
1E69
330
1E67
100
AcDbEntity
  8
V0-VYPLNE
 62
     0
100
AcDbLine
 10
521.141239
 20
-277.166006
 30
0.0
 11
521.141239
 21
-491.3193230000034
 31
0.0
  0
LINE
  5
1E6A
330
1E67
100
AcDbEntity
  8
V0-VYPLNE
 62
     0
100
AcDbLine
 10
-73.85876099999996
 20
-490.0693230000033
 30
0.0
 11
144.8254715238095
 21
-490.0693230000033
 31
0.0
  0
LINE
  5
1E6B
330
1E67
100
AcDbEntity
  8
V0-VYPLNE
 62
     0
100
AcDbLine
 10
486.141239
 20
-490.0693230000034
 30
0.0
 11
253.7778524761905
 21
-490.0693230000033
 31
0.0
  0
INSERT
  5
1E6C
330
1E67
100
AcDbEntity
  8
V0-VYPLNE
 62
     0
100
AcDbBlockReference
  2
_OPEN
 10
-108.858761
 20
-490.0693230000033
 30
0.0
 41
35.0
 42
35.0
 43
35.0
 50
180.0
  0
INSERT
  5
1E6D
330
1E67
100
AcDbEntity
  8
V0-VYPLNE
 62
     0
100
AcDbBlockReference
  2
_OPEN
 10
521.141239
 20
-490.0693230000034
 30
0.0
 41
35.0
 42
35.0
 43
35.0
  0
MTEXT
  5
1E6E
330
1E67
100
AcDbEntity
  8
V0-VYPLNE
 62
     0
100
AcDbMText
 10
199.301662
 20
-490.069323
 30
0.0
 40
40.0
 41
0.0
 71
     5
 72
     1
  1
\A1;630
  7
ED40
  0
POINT
  5
1E6F
330
1E67
100
AcDbEntity
  8
DEFPOINTS
 62
     0
100
AcDbPoint
 10
-108.858761
 20
-276.166006
 30
0.0
  0
POINT
  5
1E70
330
1E67
100
AcDbEntity
  8
DEFPOINTS
 62
     0
100
AcDbPoint
 10
521.141239
 20
-276.166006
 30
0.0
  0
POINT
  5
1E71
330
1E67
100
AcDbEntity
  8
DEFPOINTS
 62
     0
100
AcDbPoint
 10
521.141239
 20
-490.0693230000034
 30
0.0
  0
ENDBLK
  5
1E73
330
1E67
100
AcDbEntity
  8
0
100
AcDbBlockEnd
  0
BLOCK
  5
1E7F
330
1E74
100
AcDbEntity
  8
0
100
AcDbBlockBegin
  2
*D7
 70
     1
 71
     0
 10
0.0
 20
0.0
 30
0.0
  3
*D7
  1

  0
LINE
  5
1E75
330
1E74
100
AcDbEntity
  8
V0-VYPLNE
 62
     0
100
AcDbLine
 10
-61.358761
 20
-287.166006
 30
0.0
 11
-61.35876100000002
 21
-431.0510270000087
 31
0.0
  0
LINE
  5
1E76
330
1E74
100
AcDbEntity
  8
V0-VYPLNE
 62
     0
100
AcDbLine
 10
473.641239
 20
-277.166006
 30
0.0
 11
473.641239
 21
-431.0510270000087
 31
0.0
  0
LINE
  5
1E77
330
1E74
100
AcDbEntity
  8
V0-VYPLNE
 62
     0
100
AcDbLine
 10
-26.35876100000002
 20
-429.8010270000087
 30
0.0
 11
137.5232105714286
 21
-429.8010270000087
 31
0.0
  0
LINE
  5
1E78
330
1E74
100
AcDbEntity
  8
V0-VYPLNE
 62
     0
100
AcDbLine
 10
438.641239
 20
-429.8010270000087
 30
0.0
 11
248.3803534285714
 21
-429.8010270000087
 31
0.0
  0
INSERT
  5
1E79
330
1E74
100
AcDbEntity
  8
V0-VYPLNE
 62
     0
100
AcDbBlockReference
  2
_OPEN
 10
-61.35876100000002
 20
-429.8010270000087
 30
0.0
 41
35.0
 42
35.0
 43
35.0
 50
180.0
  0
INSERT
  5
1E7A
330
1E74
100
AcDbEntity
  8
V0-VYPLNE
 62
     0
100
AcDbBlockReference
  2
_OPEN
 10
473.641239
 20
-429.8010270000087
 30
0.0
 41
35.0
 42
35.0
 43
35.0
  0
MTEXT
  5
1E7B
330
1E74
100
AcDbEntity
  8
V0-VYPLNE
 62
     0
100
AcDbMText
 10
192.951782
 20
-429.801027
 30
0.0
 40
40.0
 41
0.0
 71
     5
 72
     1
  1
\A1;535
  7
ED40
  0
POINT
  5
1E7C
330
1E74
100
AcDbEntity
  8
DEFPOINTS
 62
     0
100
AcDbPoint
 10
-61.358761
 20
-286.166006
 30
0.0
  0
POINT
  5
1E7D
330
1E74
100
AcDbEntity
  8
DEFPOINTS
 62
     0
100
AcDbPoint
 10
473.641239
 20
-276.166006
 30
0.0
  0
POINT
  5
1E7E
330
1E74
100
AcDbEntity
  8
DEFPOINTS
 62
     0
100
AcDbPoint
 10
473.641239
 20
-429.8010270000087
 30
0.0
  0
ENDBLK
  5
1E80
330
1E74
100
AcDbEntity
  8
0
100
AcDbBlockEnd
  0
BLOCK
  5
1E8B
330
1E81
100
AcDbEntity
  8
0
100
AcDbBlockBegin
  2
*D8
 70
     1
 71
     0
 10
0.0
 20
0.0
 30
0.0
  3
*D8
  1

  0
LINE
  5
1E82
330
1E81
100
AcDbEntity
  8
V0-VYPLNE
 62
     0
100
AcDbLine
 10
-218.858761
 20
294.833994
 30
0.0
 11
-218.858761
 21
420.7533920000424
 31
0.0
  0
LINE
  5
1E83
330
1E81
100
AcDbEntity
  8
V0-VYPLNE
 62
     0
100
AcDbLine
 10
631.141239
 20
294.833994
 30
0.0
 11
631.141239
 21
420.7533920000424
 31
0.0
  0
LINE
  5
1E84
330
1E81
100
AcDbEntity
  8
V0-VYPLNE
 62
     0
100
AcDbLine
 10
-183.858761
 20
419.5033920000424
 30
0.0
 11
596.141239
 21
419.5033920000424
 31
0.0
  0
INSERT
  5
1E85
330
1E81
100
AcDbEntity
  8
V0-VYPLNE
 62
     0
100
AcDbBlockReference
  2
_OPEN
 10
-218.858761
 20
419.5033920000424
 30
0.0
 41
35.0
 42
35.0
 43
35.0
 50
180.0
  0
INSERT
  5
1E86
330
1E81
100
AcDbEntity
  8
V0-VYPLNE
 62
     0
100
AcDbBlockReference
  2
_OPEN
 10
631.141239
 20
419.5033920000424
 30
0.0
 41
35.0
 42
35.0
 43
35.0
 50
360.0
  0
MTEXT
  5
1E87
330
1E81
100
AcDbEntity
  8
V0-VYPLNE
 62
     0
100
AcDbMText
 10
206.1412390000001
 20
443.5033920000424
 30
0.0
 40
40.0
 41
0.0
 71
     5
 72
     1
  1
\A1;850
  7
ED40
  0
POINT
  5
1E88
330
1E81
100
AcDbEntity
  8
DEFPOINTS
 62
     0
100
AcDbPoint
 10
-218.858761
 20
293.833994
 30
0.0
  0
POINT
  5
1E89
330
1E81
100
AcDbEntity
  8
DEFPOINTS
 62
     0
100
AcDbPoint
 10
631.141239
 20
293.833994
 30
0.0
  0
POINT
  5
1E8A
330
1E81
100
AcDbEntity
  8
DEFPOINTS
 62
     0
100
AcDbPoint
 10
631.141239
 20
419.5033920000424
 30
0.0
  0
ENDBLK
  5
1E8C
330
1E81
100
AcDbEntity
  8
0
100
AcDbBlockEnd
  0
BLOCK
  5
1E98
330
1E8D
100
AcDbEntity
  8
0
100
AcDbBlockBegin
  2
*D9
 70
     1
 71
     0
 10
0.0
 20
0.0
 30
0.0
  3
*D9
  1

  0
LINE
  5
1E8E
330
1E8D
100
AcDbEntity
  8
V0-VYPLNE
 62
     0
100
AcDbLine
 10
522.141239
 20
-276.166006
 30
0.0
 11
726.8802849999921
 21
-276.166006
 31
0.0
  0
LINE
  5
1E8F
330
1E8D
100
AcDbEntity
  8
V0-VYPLNE
 62
     0
100
AcDbLine
 10
387.141239
 20
331.833994
 30
0.0
 11
726.8802849999921
 21
331.833994
 31
0.0
  0
LINE
  5
1E90
330
1E8D
100
AcDbEntity
  8
V0-VYPLNE
 62
     0
100
AcDbLine
 10
725.6302849999921
 20
-241.1660059999999
 30
0.0
 11
725.6302849999922
 21
-26.64219647619049
 31
0.0
  0
LINE
  5
1E91
330
1E8D
100
AcDbEntity
  8
V0-VYPLNE
 62
     0
100
AcDbLine
 10
725.6302849999922
 20
296.8339940000002
 30
0.0
 11
725.6302849999922
 21
82.3101844761905
 31
0.0
  0
INSERT
  5
1E92
330
1E8D
100
AcDbEntity
  8
V0-VYPLNE
 62
     0
100
AcDbBlockReference
  2
_OPEN
 10
725.6302849999921
 20
-276.1660059999999
 30
0.0
 41
35.0
 42
35.0
 43
35.0
 50
270.0
  0
INSERT
  5
1E93
330
1E8D
100
AcDbEntity
  8
V0-VYPLNE
 62
     0
100
AcDbBlockReference
  2
_OPEN
 10
725.6302849999922
 20
331.8339940000002
 30
0.0
 41
35.0
 42
35.0
 43
35.0
 50
89.99999999999997
  0
MTEXT
  5
1E94
330
1E8D
100
AcDbEntity
  8
V0-VYPLNE
 62
     0
100
AcDbMText
 10
725.630285
 20
27.833994
 30
0.0
 40
40.0
 41
0.0
 71
     5
 72
     1
  1
\A1;608
  7
ED40
 11
0.0
 21
-1.0
 31
0.0
  0
POINT
  5
1E95
330
1E8D
100
AcDbEntity
  8
DEFPOINTS
 62
     0
100
AcDbPoint
 10
521.141239
 20
-276.166006
 30
0.0
  0
POINT
  5
1E96
330
1E8D
100
AcDbEntity
  8
DEFPOINTS
 62
     0
100
AcDbPoint
 10
386.141239
 20
331.833994
 30
0.0
  0
POINT
  5
1E97
330
1E8D
100
AcDbEntity
  8
DEFPOINTS
 62
     0
100
AcDbPoint
 10
725.6302849999921
 20
331.833994
 30
0.0
  0
ENDBLK
  5
1E99
330
1E8D
100
AcDbEntity
  8
0
100
AcDbBlockEnd
  0
ENDSEC
  0
SECTION
  2
ENTITIES
  0
LINE
  5
1127
330
1E27
100
AcDbEntity
  8
V0-VYPLNE
  6
DASHDOT
 62
    63
100
AcDbLine
 10
206.141239
 20
373.727346
 30
0.0
 11
206.141239
 21
-299.628124
 31
0.0
  0
CIRCLE
  5
11B0
330
1E27
100
AcDbEntity
  8
V0-VYPLNE
  6
DASHED
 62
    56
100
AcDbCircle
 10
474.171971
 20
-771.04151
 30
0.0
 40
7.658021
  0
LINE
  5
11B1
330
1E27
100
AcDbEntity
  8
V0-VYPLNE
 62
    63
100
AcDbLine
 10
474.171971
 20
-803.861599
 30
0.0
 11
474.171971
 21
-738.22142
 31
0.0
  0
LINE
  5
11BE
330
1E27
100
AcDbEntity
  8
V0-VYPLNE
100
AcDbLine
 10
-61.358761
 20
-286.166006
 30
0.0
 11
-61.358761
 21
-236.166006
 31
0.0
  0
LINE
  5
11BF
330
1E27
100
AcDbEntity
  8
V0-VYPLNE
100
AcDbLine
 10
473.641239
 20
-286.166006
 30
0.0
 11
473.641239
 21
-236.166006
 31
0.0
  0
POINT
  5
12BC
330
1E27
100
AcDbEntity
  8
V0-VYPLNE
  6
CONTINUOUS
 62
    41
100
AcDbPoint
 10
206.141239
 20
-1039.072242
 30
0.0
  0
POINT
  5
12BD
330
1E27
100
AcDbEntity
  8
V0-VYPLNE
  6
CONTINUOUS
 62
    41
100
AcDbPoint
 10
206.141239
 20
-276.166006
 30
0.0
  0
LINE
  5
13BB
330
1E27
100
AcDbEntity
  8
V0-VYPLNE
  6
DASHDOT
 62
    63
100
AcDbLine
 10
-266.457627
 20
-1039.072242
 30
0.0
 11
678.740104
 21
-1039.072242
 31
0.0
  0
CIRCLE
  5
13BE
330
1E27
100
AcDbEntity
  8
V0-OBRYS
  6
CONTINUOUS
 62
    90
100
AcDbCircle
 10
206.141239
 20
-1039.072242
 30
0.0
 40
424.78155
  0
CIRCLE
  5
13C0
330
1E27
100
AcDbEntity
  8
V0-OBRYS
  6
DASHED
 62
    90
100
AcDbCircle
 10
206.141239
 20
-1039.072242
 30
0.0
 40
199.952381
  0
LINE
  5
13C2
330
1E27
100
AcDbEntity
  8
V0-VYPLNE
 62
    63
100
AcDbLine
 10
506.992061
 20
-771.04151
 30
0.0
 11
441.351881
 21
-771.04151
 31
0.0
  0
LINE
  5
13C5
330
1E27
100
AcDbEntity
  8
V0-VYPLNE
 62
    63
100
AcDbLine
 10
-29.069404
 20
-771.04151
 30
0.0
 11
-94.70958299999998
 21
-771.04151
 31
0.0
  0
LINE
  5
13C6
330
1E27
100
AcDbEntity
  8
V0-VYPLNE
 62
    63
100
AcDbLine
 10
-61.889494
 20
-738.22142
 30
0.0
 11
-61.889494
 21
-803.861599
 31
0.0
  0
CIRCLE
  5
13C7
330
1E27
100
AcDbEntity
  8
V0-VYPLNE
  6
DASHED
 62
    56
100
AcDbCircle
 10
-61.889494
 20
-771.04151
 30
0.0
 40
7.658021
  0
LINE
  5
13C8
330
1E27
100
AcDbEntity
  8
V0-VYPLNE
 62
    63
100
AcDbLine
 10
-61.889494
 20
-1274.282884
 30
0.0
 11
-61.889494
 21
-1339.923064
 31
0.0
  0
LINE
  5
13C9
330
1E27
100
AcDbEntity
  8
V0-VYPLNE
 62
    63
100
AcDbLine
 10
-94.709583
 20
-1307.102974
 30
0.0
 11
-29.06940400000001
 21
-1307.102974
 31
0.0
  0
CIRCLE
  5
13CA
330
1E27
100
AcDbEntity
  8
V0-VYPLNE
  6
DASHED
 62
    56
100
AcDbCircle
 10
-61.889494
 20
-1307.102974
 30
0.0
 40
7.658021
  0
LINE
  5
13CB
330
1E27
100
AcDbEntity
  8
V0-VYPLNE
 62
    63
100
AcDbLine
 10
441.351881
 20
-1307.102974
 30
0.0
 11
506.992061
 21
-1307.102974
 31
0.0
  0
LINE
  5
13CC
330
1E27
100
AcDbEntity
  8
V0-VYPLNE
 62
    63
100
AcDbLine
 10
474.171971
 20
-1339.923064
 30
0.0
 11
474.171971
 21
-1274.282884
 31
0.0
  0
CIRCLE
  5
13CD
330
1E27
100
AcDbEntity
  8
V0-VYPLNE
  6
DASHED
 62
    56
100
AcDbCircle
 10
474.171971
 20
-1307.102974
 30
0.0
 40
7.658021
  0
LINE
  5
13CE
330
1E27
100
AcDbEntity
  8
V0-VYPLNE
  6
DASHED
 62
    52
100
AcDbLine
 10
518.118239
 20
-728.210242
 30
0.0
 11
-105.8357610000001
 21
-728.210242
 31
0.0
  0
LINE
  5
13CF
330
1E27
100
AcDbEntity
  8
V0-VYPLNE
  6
DASHED
 62
    52
100
AcDbLine
 10
-105.835761
 20
-728.210242
 30
0.0
 11
-105.835761
 21
-1351.049242
 31
0.0
  0
LINE
  5
13D0
330
1E27
100
AcDbEntity
  8
V0-VYPLNE
  6
DASHED
 62
    52
100
AcDbLine
 10
-105.835761
 20
-1351.049242
 30
0.0
 11
518.118239
 21
-1351.049242
 31
0.0
  0
LINE
  5
13D1
330
1E27
100
AcDbEntity
  8
V0-VYPLNE
  6
DASHED
 62
    52
100
AcDbLine
 10
518.118239
 20
-1351.049242
 30
0.0
 11
518.118239
 21
-728.210242
 31
0.0
  0
LINE
  5
13D2
330
1E27
100
AcDbEntity
  8
V0-OBRYS
  6
CONTINUOUS
 62
    90
100
AcDbLine
 10
-108.858761
 20
-276.166006
 30
0.0
 11
521.141239
 21
-276.166006
 31
0.0
  0
LINE
  5
13D3
330
1E27
100
AcDbEntity
  8
V0-OBRYS
  6
CONTINUOUS
 62
    90
100
AcDbLine
 10
521.141239
 20
-276.166006
 30
0.0
 11
521.141239
 21
-261.166006
 31
0.0
  0
LINE
  5
13D4
330
1E27
100
AcDbEntity
  8
V0-OBRYS
  6
CONTINUOUS
 62
    90
100
AcDbLine
 10
521.141239
 20
-261.166006
 30
0.0
 11
-108.858761
 21
-261.166006
 31
0.0
  0
LINE
  5
13D5
330
1E27
100
AcDbEntity
  8
V0-OBRYS
  6
CONTINUOUS
 62
    90
100
AcDbLine
 10
-108.858761
 20
-261.166006
 30
0.0
 11
-108.858761
 21
-276.166006
 31
0.0
  0
LINE
  5
13D6
330
1E27
100
AcDbEntity
  8
V0-OBRYS
  6
CONTINUOUS
 62
    90
100
AcDbLine
 10
-73.858761
 20
-261.166006
 30
0.0
 11
-73.858761
 21
-258.166006
 31
0.0
  0
LINE
  5
13D7
330
1E27
100
AcDbEntity
  8
V0-OBRYS
  6
CONTINUOUS
 62
    90
100
AcDbLine
 10
-73.858761
 20
-258.166006
 30
0.0
 11
486.141239
 21
-258.166006
 31
0.0
  0
LINE
  5
13D8
330
1E27
100
AcDbEntity
  8
V0-OBRYS
  6
CONTINUOUS
 62
    90
100
AcDbLine
 10
486.141239
 20
-258.166006
 30
0.0
 11
486.141239
 21
-261.166006
 31
0.0
  0
LINE
  5
13EA
330
1E27
100
AcDbEntity
  8
V0-OBRYS
  6
CONTINUOUS
 62
    90
100
AcDbLine
 10
406.141239
 20
-256.166006
 30
0.0
 11
406.141239
 21
-276.166006
 31
0.0
  0
LINE
  5
1416
330
1E27
100
AcDbEntity
  8
V0-VYPLNE
  6
CONTINUOUS
 62
    52
100
AcDbLine
 10
401.141239
 20
-258.166006
 30
0.0
 11
11.14123899999999
 21
-258.166006
 31
0.0
  0
LINE
  5
1456
330
1E27
100
AcDbEntity
  8
V0-OBRYS
  6
CONTINUOUS
 62
    90
100
AcDbLine
 10
6.141239
 20
-256.166006
 30
0.0
 11
6.141239
 21
-276.166006
 31
0.0
  0
INSERT
  5
145C
330
1E27
100
AcDbEntity
  8
V0-VYPLNE
  6
CONTINUOUS
 62
    52
100
AcDbBlockReference
  2
A10_100
 10
1091.344077
 20
-456.786598
 30
0.0
  0
DIMENSION
  5
1469
330
1E27
100
AcDbEntity
  8
V0-VYPLNE
  6
CONTINUOUS
 62
    41
100
AcDbDimension
  2
*D5
 10
406.141239
 20
-363.1886980000127
 30
0.0
 11
189.776842
 21
-363.188698
 31
0.0
 70
   160
  1
%%c<>
  3
ED40
100
AcDbAlignedDimension
 13
6.141239
 23
-276.166006
 33
0.0
 14
406.141239
 24
-276.166006
 34
0.0
100
AcDbRotatedDimension
  0
DIMENSION
  5
1483
330
1E27
100
AcDbEntity
  8
V0-VYPLNE
  6
CONTINUOUS
 62
    41
100
AcDbDimension
  2
*D6
 10
521.141239
 20
-490.0693230000034
 30
0.0
 11
199.301662
 21
-490.069323
 31
0.0
 70
   160
  3
ED40
100
AcDbAlignedDimension
 13
-108.858761
 23
-276.166006
 33
0.0
 14
521.141239
 24
-276.166006
 34
0.0
100
AcDbRotatedDimension
  0
LINE
  5
14A6
330
1E27
100
AcDbEntity
  8
V0-VYPLNE
  6
CONTINUOUS
 62
    41
100
AcDbLine
 10
127.702892
 20
-482.330712
 30
0.0
 11
143.394651
 21
-454.35747
 31
0.0
  0
LWPOLYLINE
  5
14A7
330
1E27
100
AcDbEntity
  8
V0-VYPLNE
  6
CONTINUOUS
 62
    41
100
AcDbPolyline
 90
        4
 70
     1
 43
0.0
 10
127.819869
 20
-476.63672
 10
144.507127
 20
-476.63672
 10
144.507127
 20
-459.964831
 10
127.819869
 20
-459.964831
  0
LWPOLYLINE
  5
14A8
330
1E27
100
AcDbEntity
  8
V0-VYPLNE
  6
CONTINUOUS
 62
    41
100
AcDbPolyline
 90
        4
 70
     1
 43
0.0
 10
130.078666
 20
-420.663826
 10
146.765924
 20
-420.663826
 10
146.765924
 20
-403.991937
 10
130.078666
 20
-403.991937
  0
LINE
  5
14A9
330
1E27
100
AcDbEntity
  8
V0-VYPLNE
  6
CONTINUOUS
 62
    41
100
AcDbLine
 10
129.961688
 20
-426.357818
 30
0.0
 11
145.653448
 21
-398.384576
 31
0.0
  0
LINE
  5
19B4
330
1E27
100
AcDbEntity
  8
V0-OBRYS
  6
CONTINUOUS
 62
    90
100
AcDbLine
 10
-83.348281
 20
-728.210242
 30
0.0
 11
-105.835761
 21
-728.210242
 31
0.0
  0
LINE
  5
19B5
330
1E27
100
AcDbEntity
  8
V0-OBRYS
  6
CONTINUOUS
 62
    90
100
AcDbLine
 10
-105.835761
 20
-728.210242
 30
0.0
 11
-105.835761
 21
-750.784683
 31
0.0
  0
LINE
  5
19B6
330
1E27
100
AcDbEntity
  8
V0-OBRYS
  6
CONTINUOUS
 62
    90
100
AcDbLine
 10
495.630759
 20
-728.210242
 30
0.0
 11
518.118239
 21
-728.210242
 31
0.0
  0
LINE
  5
19B7
330
1E27
100
AcDbEntity
  8
V0-OBRYS
  6
CONTINUOUS
 62
    90
100
AcDbLine
 10
518.118239
 20
-728.210242
 30
0.0
 11
518.118239
 21
-750.784683
 31
0.0
  0
LINE
  5
19B8
330
1E27
100
AcDbEntity
  8
V0-OBRYS
  6
CONTINUOUS
 62
    90
100
AcDbLine
 10
494.428798
 20
-1351.049242
 30
0.0
 11
518.118239
 21
-1351.049242
 31
0.0
  0
LINE
  5
19B9
330
1E27
100
AcDbEntity
  8
V0-OBRYS
  6
CONTINUOUS
 62
    90
100
AcDbLine
 10
518.118239
 20
-1351.049242
 30
0.0
 11
518.118239
 21
-1327.359801
 31
0.0
  0
LINE
  5
19BA
330
1E27
100
AcDbEntity
  8
V0-OBRYS
  6
CONTINUOUS
 62
    90
100
AcDbLine
 10
-105.835761
 20
-1327.359801
 30
0.0
 11
-105.835761
 21
-1351.049242
 31
0.0
  0
LINE
  5
19BB
330
1E27
100
AcDbEntity
  8
V0-OBRYS
  6
CONTINUOUS
 62
    90
100
AcDbLine
 10
-105.835761
 20
-1351.049242
 30
0.0
 11
-82.14632
 21
-1351.049242
 31
0.0
  0
DIMENSION
  5
1BAE
330
1E27
100
AcDbEntity
  8
V0-VYPLNE
  6
CONTINUOUS
 62
    41
100
AcDbDimension
  2
*D7
 10
473.641239
 20
-429.8010270000087
 30
0.0
 11
192.951782
 21
-429.801027
 31
0.0
 70
   160
  3
ED40
100
AcDbAlignedDimension
 13
-61.358761
 23
-286.166006
 33
0.0
 14
473.641239
 24
-276.166006
 34
0.0
100
AcDbRotatedDimension
  0
LINE
  5
1CA8
330
1E27
100
AcDbEntity
  8
V0-VYPLNE
  6
DASHDOT
 62
    63
100
AcDbLine
 10
206.141239
 20
-566.473376
 30
0.0
 11
206.141239
 21
-1511.671108
 31
0.0
  0
LINE
  5
1CA9
330
1E27
100
AcDbEntity
  8
V0-OBRYS
  6
CONTINUOUS
 62
    90
100
AcDbLine
 10
6.141239
 20
311.833994
 30
0.0
 11
6.141239
 21
293.833994
 31
0.0
  0
LINE
  5
1CAA
330
1E27
100
AcDbEntity
  8
V0-OBRYS
  6
CONTINUOUS
 62
    90
100
AcDbLine
 10
26.141239
 20
331.833994
 30
0.0
 11
206.141239
 21
331.833994
 31
0.0
  0
LINE
  5
1CAB
330
1E27
100
AcDbEntity
  8
V0-OBRYS
  6
CONTINUOUS
 62
    90
100
AcDbLine
 10
-218.858761
 20
293.833994
 30
0.0
 11
206.141239
 21
293.833994
 31
0.0
  0
LINE
  5
1CAC
330
1E27
100
AcDbEntity
  8
V0-OBRYS
  6
CONTINUOUS
 62
    90
100
AcDbLine
 10
-218.858761
 20
293.833994
 30
0.0
 11
-218.858761
 21
174.640419
 31
0.0
  0
ARC
  5
1CAD
330
1E27
100
AcDbEntity
  8
V0-OBRYS
  6
CONTINUOUS
 62
    90
100
AcDbCircle
 10
425.157306
 20
207.643439
 30
0.0
 40
644.861144
100
AcDbArc
 50
182.933593
 51
226.106112
  0
ARC
  5
1CAE
330
1E27
100
AcDbEntity
  8
V0-OBRYS
  6
CONTINUOUS
 62
    90
100
AcDbCircle
 10
26.141239
 20
311.833994
 30
0.0
 40
20.0
100
AcDbArc
 50
90.0
 51
180.0
  0
LINE
  5
1CAF
330
1E27
100
AcDbEntity
  8
V0-OBRYS
  6
CONTINUOUS
 62
    90
100
AcDbLine
 10
631.141239
 20
293.833994
 30
0.0
 11
206.141239
 21
293.833994
 31
0.0
  0
ARC
  5
1CB0
330
1E27
100
AcDbEntity
  8
V0-OBRYS
  6
CONTINUOUS
 62
    90
100
AcDbCircle
 10
-12.874829
 20
207.643439
 30
0.0
 40
644.861144
100
AcDbArc
 50
313.893888
 51
357.066407
  0
LINE
  5
1CB1
330
1E27
100
AcDbEntity
  8
V0-OBRYS
  6
CONTINUOUS
 62
    90
100
AcDbLine
 10
631.141239
 20
293.833994
 30
0.0
 11
631.141239
 21
174.640419
 31
0.0
  0
LINE
  5
1CB2
330
1E27
100
AcDbEntity
  8
V0-OBRYS
  6
CONTINUOUS
 62
    90
100
AcDbLine
 10
386.141239
 20
331.833994
 30
0.0
 11
206.141239
 21
331.833994
 31
0.0
  0
LINE
  5
1CB3
330
1E27
100
AcDbEntity
  8
V0-OBRYS
  6
CONTINUOUS
 62
    90
100
AcDbLine
 10
406.141239
 20
311.833994
 30
0.0
 11
406.141239
 21
293.833994
 31
0.0
  0
ARC
  5
1CB4
330
1E27
100
AcDbEntity
  8
V0-OBRYS
  6
CONTINUOUS
 62
    90
100
AcDbCircle
 10
386.141239
 20
311.833994
 30
0.0
 40
20.0
100
AcDbArc
 50
0.0
 51
90.0
  0
LINE
  5
1CB5
330
1E27
100
AcDbEntity
  8
V0-OBRYS
  6
CONTINUOUS
 62
    90
100
AcDbLine
 10
632.66805
 20
273.111013
 30
0.0
 11
644.288333
 21
273.111013
 31
0.0
  0
LINE
  5
1CB6
330
1E27
100
AcDbEntity
  8
V0-OBRYS
  6
CONTINUOUS
 62
    90
100
AcDbLine
 10
644.288333
 20
273.111013
 30
0.0
 11
644.288333
 21
187.974113
 31
0.0
  0
LINE
  5
1CB7
330
1E27
100
AcDbEntity
  8
V0-OBRYS
  6
CONTINUOUS
 62
    90
100
AcDbLine
 10
644.288333
 20
187.974113
 30
0.0
 11
632.66805
 21
187.974113
 31
0.0
  0
DIMENSION
  5
1CC5
330
1E27
100
AcDbEntity
  8
V0-VYPLNE
  6
CONTINUOUS
 62
    41
100
AcDbDimension
  2
*D8
 10
631.141239
 20
419.5033920000424
 30
0.0
 11
206.1412390000001
 21
443.5033920000424
 31
0.0
 70
    32
  3
ED40
100
AcDbAlignedDimension
 13
-218.858761
 23
293.833994
 33
0.0
 14
631.141239
 24
293.833994
 34
0.0
100
AcDbRotatedDimension
  0
DIMENSION
  5
1CEC
330
1E27
100
AcDbEntity
  8
V0-VYPLNE
  6
CONTINUOUS
 62
    41
100
AcDbDimension
  2
*D9
 10
725.6302849999921
 20
331.833994
 30
0.0
 11
725.630285
 21
27.833994
 31
0.0
 70
   160
  3
ED40
100
AcDbAlignedDimension
 13
521.141239
 23
-276.166006
 33
0.0
 14
386.141239
 24
331.833994
 34
0.0
 50
90.0
100
AcDbRotatedDimension
  0
LINE
  5
1CF8
330
1E27
100
AcDbEntity
  8
V0-OBRYS
  6
CONTINUOUS
 62
    90
100
AcDbLine
 10
393.187786
 20
-968.400156
 30
0.0
 11
625.002578
 21
-968.400156
 31
0.0
  0
LINE
  5
1CF9
330
1E27
100
AcDbEntity
  8
V0-OBRYS
  6
CONTINUOUS
 62
    90
100
AcDbLine
 10
393.187786
 20
-1109.744328
 30
0.0
 11
625.002578
 21
-1109.744328
 31
0.0
  0
LINE
  5
1D04
330
1E27
100
AcDbEntity
  8
V0-OBRYS
  6
CONTINUOUS
 62
    90
100
AcDbLine
 10
1670.839604
 20
293.833994
 30
0.0
 11
1670.839604
 21
174.640419
 31
0.0
  0
ARC
  5
1D05
330
1E27
100
AcDbEntity
  8
V0-OBRYS
  6
CONTINUOUS
 62
    90
100
AcDbCircle
 10
1425.839604
 20
311.833994
 30
0.0
 40
20.0
100
AcDbArc
 50
0.0
 51
90.0
  0
LINE
  5
1D06
330
1E27
100
AcDbEntity
  8
V0-OBRYS
  6
CONTINUOUS
 62
    90
100
AcDbLine
 10
1445.839604
 20
311.833994
 30
0.0
 11
1445.839604
 21
293.833994
 31
0.0
  0
ARC
  5
1D07
330
1E27
100
AcDbEntity
  8
V0-OBRYS
  6
CONTINUOUS
 62
    90
100
AcDbCircle
 10
1065.839604
 20
311.833994
 30
0.0
 40
20.0
100
AcDbArc
 50
90.0
 51
180.0
  0
LINE
  5
1D08
330
1E27
100
AcDbEntity
  8
V0-OBRYS
  6
CONTINUOUS
 62
    90
100
AcDbLine
 10
1045.839604
 20
311.833994
 30
0.0
 11
1045.839604
 21
293.833994
 31
0.0
  0
LINE
  5
1D09
330
1E27
100
AcDbEntity
  8
V0-OBRYS
  6
CONTINUOUS
 62
    90
100
AcDbLine
 10
1065.839604
 20
331.833994
 30
0.0
 11
1245.839604
 21
331.833994
 31
0.0
  0
LINE
  5
1D0A
330
1E27
100
AcDbEntity
  8
V0-OBRYS
  6
CONTINUOUS
 62
    90
100
AcDbLine
 10
1425.839604
 20
331.833994
 30
0.0
 11
1245.839604
 21
331.833994
 31
0.0
  0
LINE
  5
1D0B
330
1E27
100
AcDbEntity
  8
V0-OBRYS
  6
CONTINUOUS
 62
    90
100
AcDbLine
 10
1560.839604
 20
-276.166006
 30
0.0
 11
1560.839604
 21
-261.166006
 31
0.0
  0
LINE
  5
1D0C
330
1E27
100
AcDbEntity
  8
V0-OBRYS
  6
CONTINUOUS
 62
    90
100
AcDbLine
 10
1525.839604
 20
-258.166006
 30
0.0
 11
1525.839604
 21
-261.166006
 31
0.0
  0
LINE
  5
1D0D
330
1E27
100
AcDbEntity
  8
V0-OBRYS
  6
CONTINUOUS
 62
    90
100
AcDbLine
 10
1445.839604
 20
-256.166006
 30
0.0
 11
1445.839604
 21
-276.166006
 31
0.0
  0
LINE
  5
1D0E
330
1E27
100
AcDbEntity
  8
V0-VYPLNE
100
AcDbLine
 10
1513.339604
 20
-286.166006
 30
0.0
 11
1513.339604
 21
-236.166006
 31
0.0
  0
POINT
  5
1D0F
330
1E27
100
AcDbEntity
  8
V0-VYPLNE
  6
CONTINUOUS
 62
    41
100
AcDbPoint
 10
1245.839604
 20
-276.166006
 30
0.0
  0
LINE
  5
1D10
330
1E27
100
AcDbEntity
  8
V0-OBRYS
  6
CONTINUOUS
 62
    90
100
AcDbLine
 10
1045.839604
 20
-256.166006
 30
0.0
 11
1045.839604
 21
-276.166006
 31
0.0
  0
LINE
  5
1D11
330
1E27
100
AcDbEntity
  8
V0-VYPLNE
  6
CONTINUOUS
 62
    52
100
AcDbLine
 10
1440.839604
 20
-258.166006
 30
0.0
 11
1050.839604
 21
-258.166006
 31
0.0
  0
LINE
  5
1D12
330
1E27
100
AcDbEntity
  8
V0-VYPLNE
  6
DASHDOT
 62
    63
100
AcDbLine
 10
1245.839604
 20
373.727346
 30
0.0
 11
1245.839604
 21
-299.628124
 31
0.0
  0
LINE
  5
1D13
330
1E27
100
AcDbEntity
  8
V0-OBRYS
  6
CONTINUOUS
 62
    90
100
AcDbLine
 10
820.839604
 20
293.833994
 30
0.0
 11
820.839604
 21
174.640419
 31
0.0
  0
LINE
  5
1D14
330
1E27
100
AcDbEntity
  8
V0-OBRYS
  6
CONTINUOUS
 62
    90
100
AcDbLine
 10
965.839604
 20
-261.166006
 30
0.0
 11
965.839604
 21
-258.166006
 31
0.0
  0
LINE
  5
1D15
330
1E27
100
AcDbEntity
  8
V0-OBRYS
  6
CONTINUOUS
 62
    90
100
AcDbLine
 10
930.839604
 20
-261.166006
 30
0.0
 11
930.839604
 21
-276.166006
 31
0.0
  0
LINE
  5
1D16
330
1E27
100
AcDbEntity
  8
V0-VYPLNE
100
AcDbLine
 10
978.339604
 20
-286.166006
 30
0.0
 11
978.339604
 21
-236.166006
 31
0.0
  0
ARC
  5
1D17
330
1E27
100
AcDbEntity
  8
V0-OBRYS
  6
CONTINUOUS
 62
    90
100
AcDbCircle
 10
1464.855672
 20
207.643439
 30
0.0
 40
644.861144
100
AcDbArc
 50
182.933593
 51
226.106112
  0
LINE
  5
1D18
330
1E27
100
AcDbEntity
  8
V0-OBRYS
  6
CONTINUOUS
 62
    90
100
AcDbLine
 10
820.839604
 20
293.833994
 30
0.0
 11
1245.839604
 21
293.833994
 31
0.0
  0
LINE
  5
1D19
330
1E27
100
AcDbEntity
  8
V0-OBRYS
  6
CONTINUOUS
 62
    90
100
AcDbLine
 10
1560.839604
 20
-261.166006
 30
0.0
 11
930.839604
 21
-261.166006
 31
0.0
  0
LINE
  5
1D1A
330
1E27
100
AcDbEntity
  8
V0-OBRYS
  6
CONTINUOUS
 62
    90
100
AcDbLine
 10
930.839604
 20
-276.166006
 30
0.0
 11
1560.839604
 21
-276.166006
 31
0.0
  0
LINE
  5
1D1B
330
1E27
100
AcDbEntity
  8
V0-OBRYS
  6
CONTINUOUS
 62
    90
100
AcDbLine
 10
965.839604
 20
-258.166006
 30
0.0
 11
1525.839604
 21
-258.166006
 31
0.0
  0
ARC
  5
1D1C
330
1E27
100
AcDbEntity
  8
V0-OBRYS
  6
CONTINUOUS
 62
    90
100
AcDbCircle
 10
1026.823537
 20
207.643439
 30
0.0
 40
644.861144
100
AcDbArc
 50
313.893888
 51
357.066407
  0
LINE
  5
1D1D
330
1E27
100
AcDbEntity
  8
V0-OBRYS
  6
CONTINUOUS
 62
    90
100
AcDbLine
 10
1670.839604
 20
293.833994
 30
0.0
 11
1245.839604
 21
293.833994
 31
0.0
  0
TEXT
  5
1DF8
330
1E27
100
AcDbEntity
  8
V0-NAZVY
  6
CONTINUOUS
100
AcDbText
 10
881.7643340391805
 20
-904.4472510000924
 30
0.0
 40
60.0
  1
CTVB/CTVT 400
  7
ED40
100
AcDbText
  0
LWPOLYLINE
  5
1DFB
330
1E27
100
AcDbEntity
  8
V0-VYPLNE
  6
CONTINUOUS
 62
    41
100
AcDbPolyline
 90
        3
 70
     0
 43
0.0
 10
-58.301572
 20
-259.600553
 10
-96.90226799999999
 20
-216.007083
 10
-454.864394
 20
-216.007083
  0
TEXT
  5
1E00
330
1E27
100
AcDbEntity
  8
V0-VYPLNE
  6
CONTINUOUS
 62
    41
100
AcDbText
 10
-569.6165537142856
 20
-212.00354
 30
0.0
 40
36.0
  1
4 OTVORY %%c 12
  7
ED40
100
AcDbText
  0
VIEWPORT
  5
1E9A
330
1E23
100
AcDbEntity
 67
     1
  8
0
 60
     1
100
AcDbViewport
 10
261.517699
 20
148.5
 30
0.0
 40
297.0
 41
297.0
 68
     0
 69
     1
1001
VD_INVISIBLE_NOT_FOR_READ
1000
VD_INVISIBLE_NOT_FOR_READ
1001
ACAD
1000
MVIEW
1002
{
1070
    16
1010
0.0
1020
0.0
1030
0.0
1010
0.0
1020
0.0
1030
1.0
1040
6.2831853071796
1040
297.0
1040
261.517699
1040
148.5
1040
0.0
1040
0.0
1040
0.0
1070
     0
1070
   100
1070
     0
1070
     1
1070
     0
1070
     0
1070
     0
1070
     0
1040
0.0
1040
0.0
1040
0.0
1040
1.0
1040
1.0
1040
0.0
1040
0.0
1070
     0
1002
{
1002
}
1002
}
  0
VIEWPORT
  5
1E9B
330
1E23
100
AcDbEntity
 67
     1
  8
0
 60
     1
100
AcDbViewport
 10
261.517699
 20
148.5
 30
0.0
 40
297.0
 41
297.0
 68
     0
 69
     2
1001
VD_INVISIBLE_NOT_FOR_READ
1000
VD_INVISIBLE_NOT_FOR_READ
1001
ACAD
1000
MVIEW
1002
{
1070
    16
1010
0.0
1020
0.0
1030
0.0
1010
0.0
1020
0.0
1030
1.0
1040
6.2831853071796
1040
297.0
1040
261.517699
1040
148.5
1040
0.0
1040
0.0
1040
0.0
1070
     0
1070
   100
1070
     0
1070
     1
1070
     0
1070
     0
1070
     0
1070
     0
1040
0.0
1040
0.0
1040
0.0
1040
1.0
1040
1.0
1040
0.0
1040
0.0
1070
     0
1002
{
1002
}
1002
}
  0
ENDSEC
  0
SECTION
  2
OBJECTS
  0
DICTIONARY
  5
1E14
330
0
100
AcDbDictionary
  3
ACAD_GROUP
350
1E15
  3
ACAD_LAYOUT
350
1E22
  3
ACAD_MLINESTYLE
350
1E1F
  3
ACAD_PLOTSETTINGS
350
1E21
  3
ACDBHEADERROUNDTRIPXREC
350
1E9C
  3
VECTORDRAW_OBJECTS
350
1E37
  0
DICTIONARY
  5
1EBC
330
1E31
100
AcDbDictionary
280
     1
  3
ACAD_XREC_ROUNDTRIP
360
1EBD
  0
DICTIONARY
  5
1E15
102
{ACAD_REACTORS
330
1E14
102
}
330
1E14
100
AcDbDictionary
  0
DICTIONARY
  5
1E22
102
{ACAD_REACTORS
330
1E14
102
}
330
1E14
100
AcDbDictionary
  0
DICTIONARY
  5
1E1F
102
{ACAD_REACTORS
330
1E14
102
}
330
1E14
100
AcDbDictionary
  3
STANDARD
350
1E20
  0
DICTIONARY
  5
1E21
102
{ACAD_REACTORS
330
1E14
102
}
330
1E14
100
AcDbDictionary
  0
DICTIONARY
  5
1E9C
102
{ACAD_REACTORS
330
1E14
102
}
330
1E14
100
AcDbDictionary
  3
CEPSNTYPE
350
1EA5
  3
DIMSTYLEDATA
350
1EBB
  3
FINGERPRINTGUID
350
1EA6
  3
HYPERLINKBASE
350
1E9F
  3
INSUNITS
350
1EA4
  3
LAYOUTDICT
350
1EA1
  3
LWETCUNION
350
1EA3
  3
PLOTSETDICT
350
1EA2
  3
PSVPSCALE
350
1EA8
  3
PUCSBASE
350
1EAB
  3
PUCSORGBACK
350
1EB1
  3
PUCSORGBOTTOM
350
1EAD
  3
PUCSORGFRONT
350
1EB0
  3
PUCSORGLEFT
350
1EAE
  3
PUCSORGRIGHT
350
1EAF
  3
PUCSORGTOP
350
1EAC
  3
PUCSORTHOREF
350
1EA9
  3
PUCSORTHOVIEW
350
1EAA
  3
STYLESHEET
350
1EA0
  3
TSTACKALIGN
350
1E9D
  3
TSTACKSIZE
350
1E9E
  3
UCSBASE
350
1EB4
  3
UCSORGBACK
350
1EBA
  3
UCSORGBOTTOM
350
1EB6
  3
UCSORGFRONT
350
1EB9
  3
UCSORGLEFT
350
1EB7
  3
UCSORGRIGHT
350
1EB8
  3
UCSORGTOP
350
1EB5
  3
UCSORTHOREF
350
1EB2
  3
UCSORTHOVIEW
350
1EB3
  3
VERSIONGUID
350
1EA7
  0
DICTIONARY
  5
1E37
102
{ACAD_REACTORS
330
1E14
102
}
330
1E14
100
AcDbDictionary
  3
SERIALNO
350
1E38
  0
XRECORD
  5
1EBD
102
{ACAD_REACTORS
330
1EBC
102
}
330
1EBC
100
AcDbXrecord
102
UCS
 74
     0
 71
     1
 10
0.0
 20
0.0
 30
0.0
 10
1.0
 20
0.0
 30
0.0
 10
0.0
 20
1.0
 30
0.0
146
0.0
 79
     0
102
VIEW
281
     0
  0
MLINESTYLE
  5
1E20
102
{ACAD_REACTORS
330
1E1F
102
}
330
1E1F
100
AcDbMlineStyle
  2
Standard
 70
     0
  3

 62
   256
 51
90.0
 52
90.0
 71
     2
 49
0.5
 62
   256
  6
BYLAYER
 49
-0.5
 62
   256
  6
BYLAYER
  0
XRECORD
  5
1EA5
102
{ACAD_REACTORS
330
1E9C
102
}
330
1E9C
100
AcDbXrecord
 90
        0
  0
XRECORD
  5
1EBB
102
{ACAD_REACTORS
330
1E9C
102
}
330
1E9C
100
AcDbXrecord
1000
DSTYLE
1002
{
1070
    41
 40
35.0
1070
   342
340
90
1070
   271
 70
     0
1070
    44
 40
1.25
1070
    42
 40
1.0
1070
   147
 40
4.0
1070
    77
 70
     1
1070
    73
 70
     0
1070
   174
 70
     1
1070
   172
 70
     1
1070
    74
 70
     0
1070
   340
340
F39
1070
   140
 40
40.0
1070
   288
 70
     1
1002
}
  0
XRECORD
  5
1EA6
102
{ACAD_REACTORS
330
1E9C
102
}
330
1E9C
100
AcDbXrecord
  1
{FAEB1C30-E019-11D5-929B-00C0DF256EC4}
  0
XRECORD
  5
1E9F
102
{ACAD_REACTORS
330
1E9C
102
}
330
1E9C
100
AcDbXrecord
  1

  0
XRECORD
  5
1EA4
102
{ACAD_REACTORS
330
1E9C
102
}
330
1E9C
100
AcDbXrecord
 90
        1
  0
XRECORD
  5
1EA1
102
{ACAD_REACTORS
330
1E9C
102
}
330
1E9C
100
AcDbXrecord
340
1E22
  0
XRECORD
  5
1EA3
102
{ACAD_REACTORS
330
1E9C
102
}
330
1E9C
100
AcDbXrecord
 90
     2560
  0
XRECORD
  5
1EA2
102
{ACAD_REACTORS
330
1E9C
102
}
330
1E9C
100
AcDbXrecord
340
1E21
  0
XRECORD
  5
1EA8
102
{ACAD_REACTORS
330
1E9C
102
}
330
1E9C
100
AcDbXrecord
 40
0.0
  0
XRECORD
  5
1EAB
102
{ACAD_REACTORS
330
1E9C
102
}
330
1E9C
100
AcDbXrecord
340
0
  0
XRECORD
  5
1EB1
102
{ACAD_REACTORS
330
1E9C
102
}
330
1E9C
100
AcDbXrecord
 10
0.0
 20
0.0
 30
0.0
  0
XRECORD
  5
1EAD
102
{ACAD_REACTORS
330
1E9C
102
}
330
1E9C
100
AcDbXrecord
 10
0.0
 20
0.0
 30
0.0
  0
XRECORD
  5
1EB0
102
{ACAD_REACTORS
330
1E9C
102
}
330
1E9C
100
AcDbXrecord
 10
0.0
 20
0.0
 30
0.0
  0
XRECORD
  5
1EAE
102
{ACAD_REACTORS
330
1E9C
102
}
330
1E9C
100
AcDbXrecord
 10
0.0
 20
0.0
 30
0.0
  0
XRECORD
  5
1EAF
102
{ACAD_REACTORS
330
1E9C
102
}
330
1E9C
100
AcDbXrecord
 10
0.0
 20
0.0
 30
0.0
  0
XRECORD
  5
1EAC
102
{ACAD_REACTORS
330
1E9C
102
}
330
1E9C
100
AcDbXrecord
 10
0.0
 20
0.0
 30
0.0
  0
XRECORD
  5
1EA9
102
{ACAD_REACTORS
330
1E9C
102
}
330
1E9C
100
AcDbXrecord
340
0
  0
XRECORD
  5
1EAA
102
{ACAD_REACTORS
330
1E9C
102
}
330
1E9C
100
AcDbXrecord
 70
     0
  0
XRECORD
  5
1EA0
102
{ACAD_REACTORS
330
1E9C
102
}
330
1E9C
100
AcDbXrecord
  1

  0
XRECORD
  5
1E9D
102
{ACAD_REACTORS
330
1E9C
102
}
330
1E9C
100
AcDbXrecord
 90
        1
  0
XRECORD
  5
1E9E
102
{ACAD_REACTORS
330
1E9C
102
}
330
1E9C
100
AcDbXrecord
 90
       70
  0
XRECORD
  5
1EB4
102
{ACAD_REACTORS
330
1E9C
102
}
330
1E9C
100
AcDbXrecord
340
0
  0
XRECORD
  5
1EBA
102
{ACAD_REACTORS
330
1E9C
102
}
330
1E9C
100
AcDbXrecord
 10
0.0
 20
0.0
 30
0.0
  0
XRECORD
  5
1EB6
102
{ACAD_REACTORS
330
1E9C
102
}
330
1E9C
100
AcDbXrecord
 10
0.0
 20
0.0
 30
0.0
  0
XRECORD
  5
1EB9
102
{ACAD_REACTORS
330
1E9C
102
}
330
1E9C
100
AcDbXrecord
 10
0.0
 20
0.0
 30
0.0
  0
XRECORD
  5
1EB7
102
{ACAD_REACTORS
330
1E9C
102
}
330
1E9C
100
AcDbXrecord
 10
0.0
 20
0.0
 30
0.0
  0
XRECORD
  5
1EB8
102
{ACAD_REACTORS
330
1E9C
102
}
330
1E9C
100
AcDbXrecord
 10
0.0
 20
0.0
 30
0.0
  0
XRECORD
  5
1EB5
102
{ACAD_REACTORS
330
1E9C
102
}
330
1E9C
100
AcDbXrecord
 10
0.0
 20
0.0
 30
0.0
  0
XRECORD
  5
1EB2
102
{ACAD_REACTORS
330
1E9C
102
}
330
1E9C
100
AcDbXrecord
340
0
  0
XRECORD
  5
1EB3
102
{ACAD_REACTORS
330
1E9C
102
}
330
1E9C
100
AcDbXrecord
 70
     0
  0
XRECORD
  5
1EA7
102
{ACAD_REACTORS
330
1E9C
102
}
330
1E9C
100
AcDbXrecord
  1
{FAEB1C32-E019-11D5-929B-00C0DF256EC4}
  0
XRECORD
  5
1E38
102
{ACAD_REACTORS
330
1E37
102
}
330
1E37
100
AcDbXrecord
1000
rInJVR9YY4Q8hfPWdUq5j5319
1070
     4
1070
     6
  0
ENDSEC
  0
EOF
