  0
SECTION
  2
HEADER
  9
$ACADVER
  1
AC1015
  9
$ACADMAINTVER
 70
    13
  9
$DWGCODEPAGE
  3
ANSI_1250
  9
$INSBASE
 10
0.0
 20
0.0
 30
0.0
  9
$EXTMIN
 10
-296.7379564557623
 20
0.0
 30
-123.226935978497
  9
$EXTMAX
 10
399.6967169361171
 20
0.0
 30
265.0372468261819
  9
$LIMMIN
 10
0.0
 20
0.0
  9
$LIMMAX
 10
420.0
 20
297.0
  9
$ORTHOMODE
 70
     0
  9
$REGENMODE
 70
     1
  9
$FILLMODE
 70
     1
  9
$QTEXTMODE
 70
     0
  9
$MIRRTEXT
 70
     1
  9
$LTSCALE
 40
1.0
  9
$ATTMODE
 70
     1
  9
$TEXTSIZE
 40
25.0
  9
$TRACEWID
 40
1.0
  9
$TEXTSTYLE
  7
Standard
  9
$CLAYER
  8
koty
  9
$CELTYPE
  6
ByLayer
  9
$CECOLOR
 62
   256
  9
$CELTSCALE
 40
1.0
  9
$DISPSILH
 70
     0
  9
$DIMSCALE
 40
10.0
  9
$DIMASZ
 40
2.0
  9
$DIMEXO
 40
0.625
  9
$DIMDLI
 40
3.75
  9
$DIMRND
 40
0.0
  9
$DIMDLE
 40
0.0
  9
$DIMEXE
 40
1.25
  9
$DIMTP
 40
0.0
  9
$DIMTM
 40
0.0
  9
$DIMTXT
 40
2.0
  9
$DIMCEN
 40
2.5
  9
$DIMTSZ
 40
0.0
  9
$DIMTOL
 70
     0
  9
$DIMLIM
 70
     0
  9
$DIMTIH
 70
     0
  9
$DIMTOH
 70
     0
  9
$DIMSE1
 70
     0
  9
$DIMSE2
 70
     0
  9
$DIMTAD
 70
     1
  9
$DIMZIN
 70
     8
  9
$DIMBLK
  1

  9
$DIMASO
 70
     1
  9
$DIMSHO
 70
     1
  9
$DIMPOST
  1

  9
$DIMAPOST
  1

  9
$DIMALT
 70
     0
  9
$DIMALTD
 70
     3
  9
$DIMALTF
 40
0.03937007874016
  9
$DIMLFAC
 40
1.0
  9
$DIMTOFL
 70
     1
  9
$DIMTVP
 40
0.0
  9
$DIMTIX
 70
     0
  9
$DIMSOXD
 70
     0
  9
$DIMSAH
 70
     0
  9
$DIMBLK1
  1

  9
$DIMBLK2
  1

  9
$DIMSTYLE
  2
ISO-25
  9
$DIMCLRD
 70
     0
  9
$DIMCLRE
 70
     0
  9
$DIMCLRT
 70
     0
  9
$DIMTFAC
 40
1.0
  9
$DIMGAP
 40
0.625
  9
$DIMJUST
 70
     0
  9
$DIMSD1
 70
     0
  9
$DIMSD2
 70
     0
  9
$DIMTOLJ
 70
     0
  9
$DIMTZIN
 70
     8
  9
$DIMALTZ
 70
     0
  9
$DIMALTTZ
 70
     0
  9
$DIMUPT
 70
     0
  9
$DIMDEC
 70
     2
  9
$DIMTDEC
 70
     2
  9
$DIMALTU
 70
     2
  9
$DIMALTTD
 70
     3
  9
$DIMTXSTY
  7
Standard
  9
$DIMAUNIT
 70
     0
  9
$DIMADEC
 70
     0
  9
$DIMALTRND
 40
0.0
  9
$DIMAZIN
 70
     0
  9
$DIMDSEP
 70
    44
  9
$DIMATFIT
 70
     3
  9
$DIMFRAC
 70
     0
  9
$DIMLDRBLK
  1

  9
$DIMLUNIT
 70
     2
  9
$DIMLWD
 70
    -2
  9
$DIMLWE
 70
    -2
  9
$DIMTMOVE
 70
     0
  9
$LUNITS
 70
     2
  9
$LUPREC
 70
     4
  9
$SKETCHINC
 40
1.0
  9
$FILLETRAD
 40
5.0
  9
$AUNITS
 70
     0
  9
$AUPREC
 70
     0
  9
$MENU
  1
.
  9
$ELEVATION
 40
0.0
  9
$PELEVATION
 40
0.0
  9
$THICKNESS
 40
0.0
  9
$LIMCHECK
 70
     0
  9
$CHAMFERA
 40
10.0
  9
$CHAMFERB
 40
10.0
  9
$CHAMFERC
 40
20.0
  9
$CHAMFERD
 40
0.0
  9
$SKPOLY
 70
     0
  9
$TDCREATE
 40
2453639.734018240
  9
$TDUCREATE
 40
2453639.650684907
  9
$TDUPDATE
 40
2453668.571287720
  9
$TDUUPDATE
 40
2453668.487954386
  9
$TDINDWG
 40
0.0618097106
  9
$TDUSRTIMER
 40
0.0618091319
  9
$USRTIMER
 70
     1
  9
$ANGBASE
 50
0.0
  9
$ANGDIR
 70
     0
  9
$PDMODE
 70
     0
  9
$PDSIZE
 40
0.0
  9
$PLINEWID
 40
0.0
  9
$SPLFRAME
 70
     0
  9
$SPLINETYPE
 70
     6
  9
$SPLINESEGS
 70
     8
  9
$HANDSEED
  5
394
  9
$SURFTAB1
 70
     6
  9
$SURFTAB2
 70
     6
  9
$SURFTYPE
 70
     6
  9
$SURFU
 70
     6
  9
$SURFV
 70
     6
  9
$UCSBASE
  2

  9
$UCSNAME
  2

  9
$UCSORG
 10
0.0
 20
0.0
 30
0.0
  9
$UCSXDIR
 10
1.0
 20
0.0
 30
0.0
  9
$UCSYDIR
 10
0.0
 20
0.0
 30
1.0
  9
$UCSORTHOREF
  2

  9
$UCSORTHOVIEW
 70
     3
  9
$UCSORGTOP
 10
0.0
 20
0.0
 30
0.0
  9
$UCSORGBOTTOM
 10
0.0
 20
0.0
 30
0.0
  9
$UCSORGLEFT
 10
0.0
 20
0.0
 30
0.0
  9
$UCSORGRIGHT
 10
0.0
 20
0.0
 30
0.0
  9
$UCSORGFRONT
 10
0.0
 20
0.0
 30
0.0
  9
$UCSORGBACK
 10
0.0
 20
0.0
 30
0.0
  9
$PUCSBASE
  2

  9
$PUCSNAME
  2

  9
$PUCSORG
 10
0.0
 20
0.0
 30
0.0
  9
$PUCSXDIR
 10
1.0
 20
0.0
 30
0.0
  9
$PUCSYDIR
 10
0.0
 20
1.0
 30
0.0
  9
$PUCSORTHOREF
  2

  9
$PUCSORTHOVIEW
 70
     0
  9
$PUCSORGTOP
 10
0.0
 20
0.0
 30
0.0
  9
$PUCSORGBOTTOM
 10
0.0
 20
0.0
 30
0.0
  9
$PUCSORGLEFT
 10
0.0
 20
0.0
 30
0.0
  9
$PUCSORGRIGHT
 10
0.0
 20
0.0
 30
0.0
  9
$PUCSORGFRONT
 10
0.0
 20
0.0
 30
0.0
  9
$PUCSORGBACK
 10
0.0
 20
0.0
 30
0.0
  9
$USERI1
 70
     0
  9
$USERI2
 70
     0
  9
$USERI3
 70
     0
  9
$USERI4
 70
     0
  9
$USERI5
 70
     0
  9
$USERR1
 40
0.0
  9
$USERR2
 40
0.0
  9
$USERR3
 40
0.0
  9
$USERR4
 40
0.0
  9
$USERR5
 40
0.0
  9
$WORLDVIEW
 70
     1
  9
$SHADEDGE
 70
     3
  9
$SHADEDIF
 70
    70
  9
$TILEMODE
 70
     1
  9
$MAXACTVP
 70
    64
  9
$PINSBASE
 10
0.0
 20
0.0
 30
0.0
  9
$PLIMCHECK
 70
     0
  9
$PEXTMIN
 10
1.000000000000000E+20
 20
1.000000000000000E+20
 30
1.000000000000000E+20
  9
$PEXTMAX
 10
-1.000000000000000E+20
 20
-1.000000000000000E+20
 30
-1.000000000000000E+20
  9
$PLIMMIN
 10
0.0
 20
0.0
  9
$PLIMMAX
 10
420.0
 20
297.0
  9
$UNITMODE
 70
     0
  9
$VISRETAIN
 70
     1
  9
$PLINEGEN
 70
     0
  9
$PSLTSCALE
 70
     1
  9
$TREEDEPTH
 70
  3020
  9
$CMLSTYLE
  2
Standard
  9
$CMLJUST
 70
     0
  9
$CMLSCALE
 40
20.0
  9
$PROXYGRAPHICS
 70
     1
  9
$MEASUREMENT
 70
     1
  9
$CELWEIGHT
370
    -1
  9
$ENDCAPS
280
     0
  9
$JOINSTYLE
280
     0
  9
$LWDISPLAY
290
     0
  9
$INSUNITS
 70
     4
  9
$HYPERLINKBASE
  1

  9
$STYLESHEET
  1

  9
$XEDIT
290
     1
  9
$CEPSNTYPE
380
     0
  9
$PSTYLEMODE
290
     1
  9
$FINGERPRINTGUID
  2
{9B47308E-04D6-42FB-BD32-F27AC533D1CD}
  9
$VERSIONGUID
  2
{CB111D1E-C72A-4C21-B420-80F02A007587}
  9
$EXTNAMES
290
     1
  9
$PSVPSCALE
 40
0.0
  9
$OLESTARTUP
290
     0
  0
ENDSEC
  0
SECTION
  2
CLASSES
  0
CLASS
  1
ACDBDICTIONARYWDFLT
  2
AcDbDictionaryWithDefault
  3
AutoCAD 2000
 90
        0
280
     0
281
     0
  0
CLASS
  1
ACDBPLACEHOLDER
  2
AcDbPlaceHolder
  3
AutoCAD 2000
 90
        0
280
     0
281
     0
  0
CLASS
  1
LAYOUT
  2
AcDbLayout
  3
AutoCAD 2000
 90
        0
280
     0
281
     0
  0
CLASS
  1
DICTIONARYVAR
  2
AcDbDictionaryVar
  3
AutoCAD 2000
 90
        0
280
     0
281
     0
  0
CLASS
  1
DIMASSOC
  2
AcDbDimAssoc
  3
"AcDbDimAssoc|Product Desc:     AcDim ARX App For Dimension|Company:          Autodesk, Inc.|WEB Address:      www.autodesk.com"
 90
        0
280
     0
281
     0
  0
ENDSEC
  0
SECTION
  2
TABLES
  0
TABLE
  2
VPORT
  5
8
330
0
100
AcDbSymbolTable
 70
     4
  0
VPORT
  5
393
330
8
100
AcDbSymbolTableRecord
100
AcDbViewportTableRecord
  2
*Active
 70
     0
 10
0.0
 20
0.0
 11
1.0
 21
1.0
 12
51.47938024017742
 22
70.90515542384243
 13
0.0
 23
0.0
 14
10.0
 24
10.0
 15
10.0
 25
10.0
 16
0.0
 26
-1.0
 36
0.0
 17
0.0
 27
0.0
 37
0.0
 40
392.1926568296841
 41
1.817567567567567
 42
50.0
 43
0.0
 44
0.0
 50
0.0
 51
0.0
 71
     0
 72
   100
 73
     1
 74
     3
 75
     0
 76
     0
 77
     0
 78
     0
281
     0
 65
     1
110
0.0
120
0.0
130
0.0
111
1.0
121
0.0
131
0.0
112
0.0
122
0.0
132
1.0
 79
     3
146
0.0
  0
ENDTAB
  0
TABLE
  2
LTYPE
  5
5
330
0
100
AcDbSymbolTable
 70
     1
  0
LTYPE
  5
14
330
5
100
AcDbSymbolTableRecord
100
AcDbLinetypeTableRecord
  2
ByBlock
 70
     0
  3

 72
    65
 73
     0
 40
0.0
  0
LTYPE
  5
15
330
5
100
AcDbSymbolTableRecord
100
AcDbLinetypeTableRecord
  2
ByLayer
 70
     0
  3

 72
    65
 73
     0
 40
0.0
  0
LTYPE
  5
16
330
5
100
AcDbSymbolTableRecord
100
AcDbLinetypeTableRecord
  2
Continuous
 70
     0
  3
Solid line
 72
    65
 73
     0
 40
0.0
  0
ENDTAB
  0
TABLE
  2
LAYER
  5
2
330
0
100
AcDbSymbolTable
 70
     4
  0
LAYER
  5
10
330
2
100
AcDbSymbolTableRecord
100
AcDbLayerTableRecord
  2
0
 70
     0
 62
    90
  6
Continuous
370
    -3
390
F
  0
LAYER
  5
2B
330
2
100
AcDbSymbolTableRecord
100
AcDbLayerTableRecord
  2
koty
 70
     0
 62
    41
  6
Continuous
370
    -3
390
F
  0
LAYER
  5
2C
330
2
100
AcDbSymbolTableRecord
100
AcDbLayerTableRecord
  2
popis
 70
     0
 62
   210
  6
Continuous
370
    -3
390
F
  0
LAYER
  5
7C
330
2
100
AcDbSymbolTableRecord
100
AcDbLayerTableRecord
  2
Defpoints
 70
     0
 62
     7
  6
Continuous
290
     0
370
    -3
390
F
  0
ENDTAB
  0
TABLE
  2
STYLE
  5
3
330
0
100
AcDbSymbolTable
 70
     1
  0
STYLE
  5
11
330
3
100
AcDbSymbolTableRecord
100
AcDbTextStyleTableRecord
  2
Standard
 70
     0
 40
0.0
 41
1.0
 50
0.0
 71
     0
 42
25.0
  3
txt
  4

  0
ENDTAB
  0
TABLE
  2
VIEW
  5
6
330
0
100
AcDbSymbolTable
 70
     0
  0
ENDTAB
  0
TABLE
  2
UCS
  5
7
330
0
100
AcDbSymbolTable
 70
     0
  0
ENDTAB
  0
TABLE
  2
APPID
  5
9
330
0
100
AcDbSymbolTable
 70
     1
  0
APPID
  5
12
330
9
100
AcDbSymbolTableRecord
100
AcDbRegAppTableRecord
  2
ACAD
 70
     0
  0
ENDTAB
  0
TABLE
  2
DIMSTYLE
  5
A
330
0
100
AcDbSymbolTable
 70
     1
100
AcDbDimStyleTable
 71
     1
340
27
  0
DIMSTYLE
105
27
102
{ACAD_REACTORS
330
7B
330
94
330
C4
330
16F
330
18B
330
349
330
361
330
379
102
}
330
A
100
AcDbSymbolTableRecord
100
AcDbDimStyleTableRecord
  2
ISO-25
 70
     0
 40
10.0
 41
2.0
 42
0.625
 43
3.75
 44
1.25
 73
     0
 74
     0
 77
     1
 78
     8
140
2.0
141
2.5
143
0.03937007874016
147
0.625
171
     3
172
     1
271
     2
272
     2
274
     3
278
    44
283
     0
284
     8
340
11
  0
ENDTAB
  0
TABLE
  2
BLOCK_RECORD
  5
1
330
0
100
AcDbSymbolTable
 70
    15
  0
BLOCK_RECORD
  5
1F
330
1
100
AcDbSymbolTableRecord
100
AcDbBlockTableRecord
  2
*Model_Space
340
22
  0
BLOCK_RECORD
  5
1B
330
1
100
AcDbSymbolTableRecord
100
AcDbBlockTableRecord
  2
*Paper_Space
340
1E
  0
BLOCK_RECORD
  5
23
330
1
100
AcDbSymbolTableRecord
100
AcDbBlockTableRecord
  2
*Paper_Space0
340
26
  0
BLOCK_RECORD
  5
7D
330
1
100
AcDbSymbolTableRecord
100
AcDbBlockTableRecord
  2
*D1
340
0
  0
BLOCK_RECORD
  5
95
330
1
100
AcDbSymbolTableRecord
100
AcDbBlockTableRecord
  2
*D2
340
0
  0
BLOCK_RECORD
  5
C5
330
1
100
AcDbSymbolTableRecord
100
AcDbBlockTableRecord
  2
*D4
340
0
  0
BLOCK_RECORD
  5
128
330
1
100
AcDbSymbolTableRecord
100
AcDbBlockTableRecord
  2
*D5
340
0
  0
BLOCK_RECORD
  5
140
330
1
100
AcDbSymbolTableRecord
100
AcDbBlockTableRecord
  2
*D6
340
0
  0
BLOCK_RECORD
  5
158
330
1
100
AcDbSymbolTableRecord
100
AcDbBlockTableRecord
  2
*D7
340
0
  0
BLOCK_RECORD
  5
170
330
1
100
AcDbSymbolTableRecord
100
AcDbBlockTableRecord
  2
*D8
340
0
  0
BLOCK_RECORD
  5
18C
330
1
100
AcDbSymbolTableRecord
100
AcDbBlockTableRecord
  2
*D9
340
0
  0
BLOCK_RECORD
  5
31A
330
1
100
AcDbSymbolTableRecord
100
AcDbBlockTableRecord
  2
*D10
340
0
  0
BLOCK_RECORD
  5
332
330
1
100
AcDbSymbolTableRecord
100
AcDbBlockTableRecord
  2
*D11
340
0
  0
BLOCK_RECORD
  5
34A
330
1
100
AcDbSymbolTableRecord
100
AcDbBlockTableRecord
  2
*D12
340
0
  0
BLOCK_RECORD
  5
362
330
1
100
AcDbSymbolTableRecord
100
AcDbBlockTableRecord
  2
*D13
340
0
  0
BLOCK_RECORD
  5
37A
330
1
100
AcDbSymbolTableRecord
100
AcDbBlockTableRecord
  2
*D14
340
0
  0
ENDTAB
  0
ENDSEC
  0
SECTION
  2
BLOCKS
  0
BLOCK
  5
20
330
1F
100
AcDbEntity
  8
0
100
AcDbBlockBegin
  2
*Model_Space
 70
     0
 10
0.0
 20
0.0
 30
0.0
  3
*Model_Space
  1

  0
ENDBLK
  5
21
330
1F
100
AcDbEntity
  8
0
100
AcDbBlockEnd
  0
BLOCK
  5
1C
330
1B
100
AcDbEntity
 67
     1
  8
0
100
AcDbBlockBegin
  2
*Paper_Space
 70
     0
 10
0.0
 20
0.0
 30
0.0
  3
*Paper_Space
  1

  0
ENDBLK
  5
1D
330
1B
100
AcDbEntity
 67
     1
  8
0
100
AcDbBlockEnd
  0
BLOCK
  5
24
330
23
100
AcDbEntity
  8
0
100
AcDbBlockBegin
  2
*Paper_Space0
 70
     0
 10
0.0
 20
0.0
 30
0.0
  3
*Paper_Space0
  1

  0
ENDBLK
  5
25
330
23
100
AcDbEntity
  8
0
100
AcDbBlockEnd
  0
BLOCK
  5
87
330
7D
100
AcDbEntity
  8
0
100
AcDbBlockBegin
  2
*D1
 70
     1
 10
0.0
 20
0.0
 30
0.0
  3
*D1
  1

  0
LINE
  5
8A
330
7D
100
AcDbEntity
  8
koty
 62
     0
370
    -2
100
AcDbLine
 10
205.9997343445345
 20
103.8065278687831
 30
0.0
 11
205.9997343445345
 21
-39.65485474418438
 31
0.0
  0
LINE
  5
8B
330
7D
100
AcDbEntity
  8
koty
 62
     0
370
    -2
100
AcDbLine
 10
293.9997343445345
 20
125.3065278687831
 30
0.0
 11
293.9997343445345
 21
-39.65485474418438
 31
0.0
  0
LINE
  5
8C
330
7D
100
AcDbEntity
  8
koty
 62
     0
370
    -2
100
AcDbLine
 10
225.9997343445345
 20
-27.15485474418438
 30
0.0
 11
273.9997343445345
 21
-27.15485474418438
 31
0.0
  0
SOLID
  5
8D
330
7D
100
AcDbEntity
  8
koty
 62
     0
100
AcDbTrace
 10
225.9997343445345
 20
-23.82152141085104
 30
0.0
 11
225.9997343445345
 21
-30.48818807751771
 31
0.0
 12
205.9997343445345
 22
-27.15485474418438
 32
0.0
 13
205.9997343445345
 23
-27.15485474418438
 33
0.0
  0
SOLID
  5
8E
330
7D
100
AcDbEntity
  8
koty
 62
     0
100
AcDbTrace
 10
273.9997343445345
 20
-23.82152141085104
 30
0.0
 11
273.9997343445345
 21
-30.48818807751771
 31
0.0
 12
293.9997343445345
 22
-27.15485474418438
 32
0.0
 13
293.9997343445345
 23
-27.15485474418438
 33
0.0
  0
MTEXT
  5
8F
330
7D
100
AcDbEntity
  8
koty
 62
     0
100
AcDbMText
 10
249.9997343445345
 20
-10.90485474418437
 30
0.0
 40
20.0
 41
0.0
 71
     5
 72
     1
  1
88
 73
     1
 44
1.0
  0
POINT
  5
90
330
7D
100
AcDbEntity
  8
Defpoints
 62
     0
100
AcDbPoint
 10
205.9997343445345
 20
110.0565278687831
 30
0.0
  0
POINT
  5
91
330
7D
100
AcDbEntity
  8
Defpoints
 62
     0
100
AcDbPoint
 10
293.9997343445345
 20
131.5565278687831
 30
0.0
  0
POINT
  5
92
330
7D
100
AcDbEntity
  8
Defpoints
 62
     0
100
AcDbPoint
 10
293.9997343445345
 20
-27.15485474418438
 30
0.0
  0
ENDBLK
  5
88
330
7D
100
AcDbEntity
  8
0
100
AcDbBlockEnd
  0
BLOCK
  5
9F
330
95
100
AcDbEntity
  8
0
100
AcDbBlockBegin
  2
*D2
 70
     1
 10
0.0
 20
0.0
 30
0.0
  3
*D2
  1

  0
LINE
  5
A2
330
95
100
AcDbEntity
  8
koty
 62
     0
370
    -2
100
AcDbLine
 10
300.2497343445345
 20
200.5565278687831
 30
0.0
 11
399.6967169361171
 21
200.5565278687831
 31
0.0
  0
LINE
  5
A3
330
95
100
AcDbEntity
  8
koty
 62
     0
370
    -2
100
AcDbLine
 10
300.2497343445345
 20
131.5565278687831
 30
0.0
 11
399.6967169361171
 21
131.5565278687831
 31
0.0
  0
LINE
  5
A4
330
95
100
AcDbEntity
  8
koty
 62
     0
370
    -2
100
AcDbLine
 10
387.1967169361171
 20
180.5565278687831
 30
0.0
 11
387.1967169361171
 21
151.5565278687831
 31
0.0
  0
SOLID
  5
A5
330
95
100
AcDbEntity
  8
koty
 62
     0
100
AcDbTrace
 10
383.8633836027838
 20
180.5565278687831
 30
0.0
 11
390.5300502694504
 21
180.5565278687831
 31
0.0
 12
387.1967169361171
 22
200.5565278687831
 32
0.0
 13
387.1967169361171
 23
200.5565278687831
 33
0.0
  0
SOLID
  5
A6
330
95
100
AcDbEntity
  8
koty
 62
     0
100
AcDbTrace
 10
383.8633836027838
 20
151.5565278687831
 30
0.0
 11
390.5300502694504
 21
151.5565278687831
 31
0.0
 12
387.1967169361171
 22
131.5565278687831
 32
0.0
 13
387.1967169361171
 23
131.5565278687831
 33
0.0
  0
MTEXT
  5
A7
330
95
100
AcDbEntity
  8
koty
 62
     0
100
AcDbMText
 10
370.946716936117
 20
166.0565278687831
 30
0.0
 40
20.0
 41
0.0
 71
     5
 72
     1
  1
69
 11
0.0000000000000001
 21
1.0
 31
0.0
 73
     1
 44
1.0
  0
POINT
  5
A8
330
95
100
AcDbEntity
  8
Defpoints
 62
     0
100
AcDbPoint
 10
293.9997343445345
 20
200.5565278687831
 30
0.0
  0
POINT
  5
A9
330
95
100
AcDbEntity
  8
Defpoints
 62
     0
100
AcDbPoint
 10
293.9997343445345
 20
131.5565278687831
 30
0.0
  0
POINT
  5
AA
330
95
100
AcDbEntity
  8
Defpoints
 62
     0
100
AcDbPoint
 10
387.1967169361171
 20
131.5565278687831
 30
0.0
  0
ENDBLK
  5
A0
330
95
100
AcDbEntity
  8
0
100
AcDbBlockEnd
  0
BLOCK
  5
CF
330
C5
100
AcDbEntity
  8
0
100
AcDbBlockBegin
  2
*D4
 70
     1
 10
0.0
 20
0.0
 30
0.0
  3
*D4
  1

  0
LINE
  5
D2
330
C5
100
AcDbEntity
  8
koty
 62
     0
370
    -2
100
AcDbLine
 10
118.9997343445343
 20
103.8065278687835
 30
0.0
 11
118.9997343445343
 21
-98.23939868563902
 31
0.0
  0
LINE
  5
D3
330
C5
100
AcDbEntity
  8
koty
 62
     0
370
    -2
100
AcDbLine
 10
293.9997343445345
 20
125.3065278687831
 30
0.0
 11
293.9997343445345
 21
-98.23939868563901
 31
0.0
  0
LINE
  5
D4
330
C5
100
AcDbEntity
  8
koty
 62
     0
370
    -2
100
AcDbLine
 10
138.9997343445343
 20
-85.73939868563901
 30
0.0
 11
273.9997343445345
 21
-85.73939868563901
 31
0.0
  0
SOLID
  5
D5
330
C5
100
AcDbEntity
  8
koty
 62
     0
100
AcDbTrace
 10
138.9997343445343
 20
-82.40606535230567
 30
0.0
 11
138.9997343445343
 21
-89.07273201897233
 31
0.0
 12
118.9997343445343
 22
-85.73939868563901
 32
0.0
 13
118.9997343445343
 23
-85.73939868563901
 33
0.0
  0
SOLID
  5
D6
330
C5
100
AcDbEntity
  8
koty
 62
     0
100
AcDbTrace
 10
273.9997343445345
 20
-82.40606535230567
 30
0.0
 11
273.9997343445345
 21
-89.07273201897233
 31
0.0
 12
293.9997343445345
 22
-85.73939868563901
 32
0.0
 13
293.9997343445345
 23
-85.73939868563901
 33
0.0
  0
MTEXT
  5
D7
330
C5
100
AcDbEntity
  8
koty
 62
     0
100
AcDbMText
 10
206.4997343445344
 20
-69.48939868563901
 30
0.0
 40
20.0
 41
0.0
 71
     5
 72
     1
  1
175
 73
     1
 44
1.0
  0
POINT
  5
D8
330
C5
100
AcDbEntity
  8
Defpoints
 62
     0
100
AcDbPoint
 10
118.9997343445343
 20
110.0565278687835
 30
0.0
  0
POINT
  5
D9
330
C5
100
AcDbEntity
  8
Defpoints
 62
     0
100
AcDbPoint
 10
293.9997343445345
 20
131.5565278687831
 30
0.0
  0
POINT
  5
DA
330
C5
100
AcDbEntity
  8
Defpoints
 62
     0
100
AcDbPoint
 10
293.9997343445345
 20
-85.73939868563901
 30
0.0
  0
ENDBLK
  5
D0
330
C5
100
AcDbEntity
  8
0
100
AcDbBlockEnd
  0
BLOCK
  5
132
330
128
100
AcDbEntity
  8
0
100
AcDbBlockBegin
  2
*D5
 70
     1
 10
0.0
 20
0.0
 30
0.0
  3
*D5
  1

  0
LINE
  5
2CF
330
128
100
AcDbEntity
  8
koty
 62
     0
370
    -2
100
AcDbLine
 10
-218.9727636999359
 20
130.0565278687832
 30
0.0
 11
-327.2840100118078
 21
130.0565278687832
 31
0.0
  0
LINE
  5
2D0
330
128
100
AcDbEntity
  8
koty
 62
     0
370
    -2
100
AcDbLine
 10
-218.9727636999359
 20
131.0565278687832
 30
0.0
 11
-327.2840100118078
 21
131.0565278687832
 31
0.0
  0
LINE
  5
2D1
330
128
100
AcDbEntity
  8
koty
 62
     0
370
    -2
100
AcDbLine
 10
-314.7840100118078
 20
110.0565278687832
 30
0.0
 11
-314.7840100118078
 21
90.05652786878325
 31
0.0
  0
LINE
  5
2D2
330
128
100
AcDbEntity
  8
koty
 62
     0
370
    -2
100
AcDbLine
 10
-314.7840100118078
 20
151.0565278687832
 30
0.0
 11
-314.7840100118078
 21
190.2231945354498
 31
0.0
  0
LINE
  5
2D3
330
128
100
AcDbEntity
  8
koty
 62
     0
370
    -2
100
AcDbLine
 10
-314.7840100118078
 20
130.0565278687832
 30
0.0
 11
-314.7840100118078
 21
131.0565278687832
 31
0.0
  0
SOLID
  5
2D4
330
128
100
AcDbEntity
  8
koty
 62
     0
100
AcDbTrace
 10
-318.1173433451411
 20
110.0565278687832
 30
0.0
 11
-311.4506766784745
 21
110.0565278687832
 31
0.0
 12
-314.7840100118078
 22
130.0565278687832
 32
0.0
 13
-314.7840100118078
 23
130.0565278687832
 33
0.0
  0
SOLID
  5
2D5
330
128
100
AcDbEntity
  8
koty
 62
     0
100
AcDbTrace
 10
-318.1173433451411
 20
151.0565278687832
 30
0.0
 11
-311.4506766784745
 21
151.0565278687832
 31
0.0
 12
-314.7840100118078
 22
131.0565278687832
 32
0.0
 13
-314.7840100118078
 23
131.0565278687832
 33
0.0
  0
MTEXT
  5
2D6
330
128
100
AcDbEntity
  8
koty
 62
     0
100
AcDbMText
 10
-331.0340100118078
 20
180.6398612021165
 30
0.0
 40
20.0
 41
0.0
 71
     5
 72
     1
  1
1
 11
0.0000000000000001
 21
1.0
 31
0.0
 73
     1
 44
1.0
  0
POINT
  5
2D7
330
128
100
AcDbEntity
  8
Defpoints
 62
     0
100
AcDbPoint
 10
-212.7227636999359
 20
130.0565278687832
 30
0.0
  0
POINT
  5
2D8
330
128
100
AcDbEntity
  8
Defpoints
 62
     0
100
AcDbPoint
 10
-212.7227636999359
 20
131.0565278687832
 30
0.0
  0
POINT
  5
2D9
330
128
100
AcDbEntity
  8
Defpoints
 62
     0
100
AcDbPoint
 10
-314.7840100118078
 20
131.0565278687832
 30
0.0
  0
ENDBLK
  5
133
330
128
100
AcDbEntity
  8
0
100
AcDbBlockEnd
  0
BLOCK
  5
14A
330
140
100
AcDbEntity
  8
0
100
AcDbBlockBegin
  2
*D6
 70
     1
 10
0.0
 20
0.0
 30
0.0
  3
*D6
  1

  0
LINE
  5
2BB
330
140
100
AcDbEntity
  8
koty
 62
     0
370
    -2
100
AcDbLine
 10
-212.7227636999359
 20
124.8065278687832
 30
0.0
 11
-212.7227636999359
 21
-42.10706091672088
 31
0.0
  0
LINE
  5
2BC
330
140
100
AcDbEntity
  8
koty
 62
     0
370
    -2
100
AcDbLine
 10
-151.7227636999359
 20
13.3065278687832
 30
0.0
 11
-151.7227636999359
 21
-42.10706091672088
 31
0.0
  0
LINE
  5
2BD
330
140
100
AcDbEntity
  8
koty
 62
     0
370
    -2
100
AcDbLine
 10
-192.7227636999359
 20
-29.60706091672088
 30
0.0
 11
-171.7227636999359
 21
-29.60706091672088
 31
0.0
  0
SOLID
  5
2BE
330
140
100
AcDbEntity
  8
koty
 62
     0
100
AcDbTrace
 10
-192.7227636999359
 20
-26.27372758338755
 30
0.0
 11
-192.7227636999359
 21
-32.94039425005422
 31
0.0
 12
-212.7227636999359
 22
-29.60706091672088
 32
0.0
 13
-212.7227636999359
 23
-29.60706091672088
 33
0.0
  0
SOLID
  5
2BF
330
140
100
AcDbEntity
  8
koty
 62
     0
100
AcDbTrace
 10
-171.7227636999359
 20
-26.27372758338755
 30
0.0
 11
-171.7227636999359
 21
-32.94039425005422
 31
0.0
 12
-151.7227636999359
 22
-29.60706091672088
 32
0.0
 13
-151.7227636999359
 23
-29.60706091672088
 33
0.0
  0
MTEXT
  5
2C0
330
140
100
AcDbEntity
  8
koty
 62
     0
100
AcDbMText
 10
-182.2227636999359
 20
-13.35706091672088
 30
0.0
 40
20.0
 41
0.0
 71
     5
 72
     1
  1
61
 73
     1
 44
1.0
  0
POINT
  5
2C1
330
140
100
AcDbEntity
  8
Defpoints
 62
     0
100
AcDbPoint
 10
-212.7227636999359
 20
131.0565278687832
 30
0.0
  0
POINT
  5
2C2
330
140
100
AcDbEntity
  8
Defpoints
 62
     0
100
AcDbPoint
 10
-151.7227636999359
 20
19.5565278687832
 30
0.0
  0
POINT
  5
2C3
330
140
100
AcDbEntity
  8
Defpoints
 62
     0
100
AcDbPoint
 10
-151.7227636999359
 20
-29.60706091672088
 30
0.0
  0
ENDBLK
  5
14B
330
140
100
AcDbEntity
  8
0
100
AcDbBlockEnd
  0
BLOCK
  5
162
330
158
100
AcDbEntity
  8
0
100
AcDbBlockBegin
  2
*D7
 70
     1
 10
0.0
 20
0.0
 30
0.0
  3
*D7
  1

  0
LINE
  5
2B2
330
158
100
AcDbEntity
  8
koty
 62
     0
370
    -2
100
AcDbLine
 10
-212.7227636999359
 20
124.8065278687832
 30
0.0
 11
-212.7227636999359
 21
-72.72693597849706
 31
0.0
  0
LINE
  5
2B3
330
158
100
AcDbEntity
  8
koty
 62
     0
370
    -2
100
AcDbLine
 10
-122.7227636999359
 20
63.80652786878322
 30
0.0
 11
-122.7227636999359
 21
-72.72693597849708
 31
0.0
  0
LINE
  5
2B4
330
158
100
AcDbEntity
  8
koty
 62
     0
370
    -2
100
AcDbLine
 10
-192.7227636999359
 20
-60.22693597849706
 30
0.0
 11
-142.7227636999359
 21
-60.22693597849706
 31
0.0
  0
SOLID
  5
2B5
330
158
100
AcDbEntity
  8
koty
 62
     0
100
AcDbTrace
 10
-192.7227636999359
 20
-56.89360264516373
 30
0.0
 11
-192.7227636999359
 21
-63.5602693118304
 31
0.0
 12
-212.7227636999359
 22
-60.22693597849706
 32
0.0
 13
-212.7227636999359
 23
-60.22693597849706
 33
0.0
  0
SOLID
  5
2B6
330
158
100
AcDbEntity
  8
koty
 62
     0
100
AcDbTrace
 10
-142.7227636999359
 20
-56.89360264516373
 30
0.0
 11
-142.7227636999359
 21
-63.5602693118304
 31
0.0
 12
-122.7227636999359
 22
-60.22693597849706
 32
0.0
 13
-122.7227636999359
 23
-60.22693597849706
 33
0.0
  0
MTEXT
  5
2B7
330
158
100
AcDbEntity
  8
koty
 62
     0
100
AcDbMText
 10
-167.7227636999359
 20
-43.97693597849706
 30
0.0
 40
20.0
 41
0.0
 71
     5
 72
     1
  1
90
 73
     1
 44
1.0
  0
POINT
  5
2B8
330
158
100
AcDbEntity
  8
Defpoints
 62
     0
100
AcDbPoint
 10
-212.7227636999359
 20
131.0565278687832
 30
0.0
  0
POINT
  5
2B9
330
158
100
AcDbEntity
  8
Defpoints
 62
     0
100
AcDbPoint
 10
-122.7227636999359
 20
70.05652786878322
 30
0.0
  0
POINT
  5
2BA
330
158
100
AcDbEntity
  8
Defpoints
 62
     0
100
AcDbPoint
 10
-122.7227636999359
 20
-60.22693597849706
 30
0.0
  0
ENDBLK
  5
163
330
158
100
AcDbEntity
  8
0
100
AcDbBlockEnd
  0
BLOCK
  5
17C
330
170
100
AcDbEntity
  8
0
100
AcDbBlockBegin
  2
*D8
 70
     1
 10
0.0
 20
0.0
 30
0.0
  3
*D8
  1

  0
LINE
  5
1D2
330
170
100
AcDbEntity
  8
koty
 62
     0
370
    -2
100
AcDbLine
 10
-73.72276369993596
 20
68.80652786878319
 30
0.0
 11
-73.72276369993598
 21
-123.226935978497
 31
0.0
  0
LINE
  5
1D3
330
170
100
AcDbEntity
  8
koty
 62
     0
370
    -2
100
AcDbLine
 10
-122.7227636999359
 20
63.80652786878323
 30
0.0
 11
-122.7227636999359
 21
-123.226935978497
 31
0.0
  0
LINE
  5
1D4
330
170
100
AcDbEntity
  8
koty
 62
     0
370
    -2
100
AcDbLine
 10
-53.72276369993598
 20
-110.726935978497
 30
0.0
 11
-33.72276369993598
 21
-110.726935978497
 31
0.0
  0
LINE
  5
1D5
330
170
100
AcDbEntity
  8
koty
 62
     0
370
    -2
100
AcDbLine
 10
-142.7227636999359
 20
-110.726935978497
 30
0.0
 11
-162.7227636999359
 21
-110.726935978497
 31
0.0
  0
LINE
  5
1D6
330
170
100
AcDbEntity
  8
koty
 62
     0
370
    -2
100
AcDbLine
 10
-73.72276369993598
 20
-110.726935978497
 30
0.0
 11
-122.7227636999359
 21
-110.726935978497
 31
0.0
  0
SOLID
  5
1D7
330
170
100
AcDbEntity
  8
koty
 62
     0
100
AcDbTrace
 10
-53.72276369993598
 20
-107.3936026451637
 30
0.0
 11
-53.72276369993598
 21
-114.0602693118303
 31
0.0
 12
-73.72276369993598
 22
-110.726935978497
 32
0.0
 13
-73.72276369993598
 23
-110.726935978497
 33
0.0
  0
SOLID
  5
1D8
330
170
100
AcDbEntity
  8
koty
 62
     0
100
AcDbTrace
 10
-142.7227636999359
 20
-107.3936026451637
 30
0.0
 11
-142.7227636999359
 21
-114.0602693118303
 31
0.0
 12
-122.7227636999359
 22
-110.726935978497
 32
0.0
 13
-122.7227636999359
 23
-110.726935978497
 33
0.0
  0
MTEXT
  5
1D9
330
170
100
AcDbEntity
  8
koty
 62
     0
100
AcDbMText
 10
-98.22276369993597
 20
-94.47693597849704
 30
0.0
 40
20.0
 41
0.0
 71
     5
 72
     1
  1
49
 73
     1
 44
1.0
  0
POINT
  5
1DA
330
170
100
AcDbEntity
  8
Defpoints
 62
     0
100
AcDbPoint
 10
-73.72276369993596
 20
75.05652786878319
 30
0.0
  0
POINT
  5
1DB
330
170
100
AcDbEntity
  8
Defpoints
 62
     0
100
AcDbPoint
 10
-122.7227636999359
 20
70.05652786878323
 30
0.0
  0
POINT
  5
1DC
330
170
100
AcDbEntity
  8
Defpoints
 62
     0
100
AcDbPoint
 10
-122.7227636999359
 20
-110.726935978497
 30
0.0
  0
ENDBLK
  5
17D
330
170
100
AcDbEntity
  8
0
100
AcDbBlockEnd
  0
BLOCK
  5
196
330
18C
100
AcDbEntity
  8
0
100
AcDbBlockBegin
  2
*D9
 70
     1
 10
0.0
 20
0.0
 30
0.0
  3
*D9
  1

  0
LINE
  5
1A3
330
18C
100
AcDbEntity
  8
koty
 62
     0
370
    -2
100
AcDbLine
 10
-79.72276369993595
 20
50.05652786878322
 30
0.0
 11
-16.33746653141088
 21
50.05652786878322
 31
0.0
  0
LINE
  5
1A4
330
18C
100
AcDbEntity
  8
koty
 62
     0
370
    -2
100
AcDbLine
 10
-72.47276369993596
 20
150.0565278687832
 30
0.0
 11
-16.33746653141086
 21
150.0565278687832
 31
0.0
  0
LINE
  5
1A5
330
18C
100
AcDbEntity
  8
koty
 62
     0
370
    -2
100
AcDbLine
 10
-28.83746653141088
 20
70.05652786878321
 30
0.0
 11
-28.83746653141087
 21
130.0565278687832
 31
0.0
  0
SOLID
  5
1A6
330
18C
100
AcDbEntity
  8
koty
 62
     0
100
AcDbTrace
 10
-32.17079986474422
 20
70.05652786878322
 30
0.0
 11
-25.50413319807755
 21
70.05652786878321
 31
0.0
 12
-28.83746653141089
 22
50.05652786878322
 32
0.0
 13
-28.83746653141089
 23
50.05652786878322
 33
0.0
  0
SOLID
  5
1A7
330
18C
100
AcDbEntity
  8
koty
 62
     0
100
AcDbTrace
 10
-32.1707998647442
 20
130.0565278687832
 30
0.0
 11
-25.50413319807754
 21
130.0565278687832
 31
0.0
 12
-28.83746653141086
 22
150.0565278687832
 32
0.0
 13
-28.83746653141086
 23
150.0565278687832
 33
0.0
  0
MTEXT
  5
1A8
330
18C
100
AcDbEntity
  8
koty
 62
     0
100
AcDbMText
 10
-45.08746653141089
 20
100.0565278687832
 30
0.0
 40
20.0
 41
0.0
 71
     5
 72
     1
  1
100
 11
0.0000000000000001
 21
1.0
 31
0.0
 73
     1
 44
1.0
  0
POINT
  5
1A9
330
18C
100
AcDbEntity
  8
Defpoints
 62
     0
100
AcDbPoint
 10
-85.97276369993595
 20
50.05652786878323
 30
0.0
  0
POINT
  5
1AA
330
18C
100
AcDbEntity
  8
Defpoints
 62
     0
100
AcDbPoint
 10
-78.72276369993596
 20
150.0565278687832
 30
0.0
  0
POINT
  5
1AB
330
18C
100
AcDbEntity
  8
Defpoints
 62
     0
100
AcDbPoint
 10
-28.83746653141086
 20
150.0565278687832
 30
0.0
  0
ENDBLK
  5
197
330
18C
100
AcDbEntity
  8
0
100
AcDbBlockEnd
  0
BLOCK
  5
324
330
31A
100
AcDbEntity
  8
0
100
AcDbBlockBegin
  2
*D10
 70
     1
 10
0.0
 20
0.0
 30
0.0
  3
*D10
  1

  0
LINE
  5
327
330
31A
100
AcDbEntity
  8
koty
 62
     0
370
    -2
100
AcDbLine
 10
-229.7227636999358
 20
13.3065278687832
 30
0.0
 11
-229.7227636999358
 21
-78.97565996314028
 31
0.0
  0
LINE
  5
328
330
31A
100
AcDbEntity
  8
koty
 62
     0
370
    -2
100
AcDbLine
 10
-151.7227636999359
 20
13.3065278687832
 30
0.0
 11
-151.7227636999359
 21
-78.97565996314028
 31
0.0
  0
LINE
  5
329
330
31A
100
AcDbEntity
  8
koty
 62
     0
370
    -2
100
AcDbLine
 10
-209.7227636999359
 20
-66.47565996314028
 30
0.0
 11
-171.7227636999359
 21
-66.47565996314028
 31
0.0
  0
SOLID
  5
32A
330
31A
100
AcDbEntity
  8
koty
 62
     0
100
AcDbTrace
 10
-209.7227636999359
 20
-63.14232662980695
 30
0.0
 11
-209.7227636999359
 21
-69.80899329647361
 31
0.0
 12
-229.7227636999358
 22
-66.47565996314028
 32
0.0
 13
-229.7227636999358
 23
-66.47565996314028
 33
0.0
  0
SOLID
  5
32B
330
31A
100
AcDbEntity
  8
koty
 62
     0
100
AcDbTrace
 10
-171.7227636999359
 20
-63.14232662980695
 30
0.0
 11
-171.7227636999359
 21
-69.80899329647361
 31
0.0
 12
-151.7227636999359
 22
-66.47565996314028
 32
0.0
 13
-151.7227636999359
 23
-66.47565996314028
 33
0.0
  0
MTEXT
  5
32C
330
31A
100
AcDbEntity
  8
koty
 62
     0
100
AcDbMText
 10
-190.7227636999359
 20
-50.22565996314028
 30
0.0
 40
20.0
 41
0.0
 71
     5
 72
     1
  1
78
 73
     1
 44
1.0
  0
POINT
  5
32D
330
31A
100
AcDbEntity
  8
Defpoints
 62
     0
100
AcDbPoint
 10
-229.7227636999358
 20
19.5565278687832
 30
0.0
  0
POINT
  5
32E
330
31A
100
AcDbEntity
  8
Defpoints
 62
     0
100
AcDbPoint
 10
-151.7227636999359
 20
19.5565278687832
 30
0.0
  0
POINT
  5
32F
330
31A
100
AcDbEntity
  8
Defpoints
 62
     0
100
AcDbPoint
 10
-151.7227636999359
 20
-66.47565996314028
 30
0.0
  0
ENDBLK
  5
325
330
31A
100
AcDbEntity
  8
0
100
AcDbBlockEnd
  0
BLOCK
  5
33C
330
332
100
AcDbEntity
  8
0
100
AcDbBlockBegin
  2
*D11
 70
     1
 10
0.0
 20
0.0
 30
0.0
  3
*D11
  1

  0
LINE
  5
33F
330
332
100
AcDbEntity
  8
koty
 62
     0
370
    -2
100
AcDbLine
 10
-229.7227636999358
 20
13.3065278687832
 30
0.0
 11
-229.7227636999358
 21
-123.226935978497
 31
0.0
  0
LINE
  5
340
330
332
100
AcDbEntity
  8
koty
 62
     0
370
    -2
100
AcDbLine
 10
-122.7227636999359
 20
63.80652786878323
 30
0.0
 11
-122.7227636999359
 21
-123.226935978497
 31
0.0
  0
LINE
  5
341
330
332
100
AcDbEntity
  8
koty
 62
     0
370
    -2
100
AcDbLine
 10
-209.7227636999359
 20
-110.726935978497
 30
0.0
 11
-142.7227636999359
 21
-110.726935978497
 31
0.0
  0
SOLID
  5
342
330
332
100
AcDbEntity
  8
koty
 62
     0
100
AcDbTrace
 10
-209.7227636999359
 20
-107.3936026451637
 30
0.0
 11
-209.7227636999359
 21
-114.0602693118303
 31
0.0
 12
-229.7227636999358
 22
-110.726935978497
 32
0.0
 13
-229.7227636999358
 23
-110.726935978497
 33
0.0
  0
SOLID
  5
343
330
332
100
AcDbEntity
  8
koty
 62
     0
100
AcDbTrace
 10
-142.7227636999359
 20
-107.3936026451637
 30
0.0
 11
-142.7227636999359
 21
-114.0602693118303
 31
0.0
 12
-122.7227636999359
 22
-110.726935978497
 32
0.0
 13
-122.7227636999359
 23
-110.726935978497
 33
0.0
  0
MTEXT
  5
344
330
332
100
AcDbEntity
  8
koty
 62
     0
100
AcDbMText
 10
-176.2227636999359
 20
-94.47693597849704
 30
0.0
 40
20.0
 41
0.0
 71
     5
 72
     1
  1
107
 73
     1
 44
1.0
  0
POINT
  5
345
330
332
100
AcDbEntity
  8
Defpoints
 62
     0
100
AcDbPoint
 10
-229.7227636999358
 20
19.5565278687832
 30
0.0
  0
POINT
  5
346
330
332
100
AcDbEntity
  8
Defpoints
 62
     0
100
AcDbPoint
 10
-122.7227636999359
 20
70.05652786878323
 30
0.0
  0
POINT
  5
347
330
332
100
AcDbEntity
  8
Defpoints
 62
     0
100
AcDbPoint
 10
-122.7227636999359
 20
-110.726935978497
 30
0.0
  0
ENDBLK
  5
33D
330
332
100
AcDbEntity
  8
0
100
AcDbBlockEnd
  0
BLOCK
  5
354
330
34A
100
AcDbEntity
  8
0
100
AcDbBlockBegin
  2
*D12
 70
     1
 10
0.0
 20
0.0
 30
0.0
  3
*D12
  1

  0
LINE
  5
357
330
34A
100
AcDbEntity
  8
koty
 62
     0
370
    -2
100
AcDbLine
 10
-212.7227636999359
 20
13.3065278687832
 30
0.0
 11
-212.7227636999359
 21
-42.40321878424765
 31
0.0
  0
LINE
  5
358
330
34A
100
AcDbEntity
  8
koty
 62
     0
370
    -2
100
AcDbLine
 10
-134.7227636999359
 20
13.3065278687832
 30
0.0
 11
-134.7227636999359
 21
-42.40321878424765
 31
0.0
  0
LINE
  5
359
330
34A
100
AcDbEntity
  8
koty
 62
     0
370
    -2
100
AcDbLine
 10
-192.7227636999359
 20
-29.90321878424765
 30
0.0
 11
-154.7227636999359
 21
-29.90321878424765
 31
0.0
  0
SOLID
  5
35A
330
34A
100
AcDbEntity
  8
koty
 62
     0
100
AcDbTrace
 10
-192.7227636999359
 20
-26.56988545091432
 30
0.0
 11
-192.7227636999359
 21
-33.23655211758099
 31
0.0
 12
-212.7227636999359
 22
-29.90321878424765
 32
0.0
 13
-212.7227636999359
 23
-29.90321878424765
 33
0.0
  0
SOLID
  5
35B
330
34A
100
AcDbEntity
  8
koty
 62
     0
100
AcDbTrace
 10
-154.7227636999359
 20
-26.56988545091432
 30
0.0
 11
-154.7227636999359
 21
-33.23655211758099
 31
0.0
 12
-134.7227636999359
 22
-29.90321878424765
 32
0.0
 13
-134.7227636999359
 23
-29.90321878424765
 33
0.0
  0
MTEXT
  5
35C
330
34A
100
AcDbEntity
  8
koty
 62
     0
100
AcDbMText
 10
-173.7227636999359
 20
-13.65321878424765
 30
0.0
 40
20.0
 41
0.0
 71
     5
 72
     1
  1
78
 73
     1
 44
1.0
  0
POINT
  5
35D
330
34A
100
AcDbEntity
  8
Defpoints
 62
     0
100
AcDbPoint
 10
-212.7227636999359
 20
19.5565278687832
 30
0.0
  0
POINT
  5
35E
330
34A
100
AcDbEntity
  8
Defpoints
 62
     0
100
AcDbPoint
 10
-134.7227636999359
 20
19.5565278687832
 30
0.0
  0
POINT
  5
35F
330
34A
100
AcDbEntity
  8
Defpoints
 62
     0
100
AcDbPoint
 10
-134.7227636999359
 20
-29.90321878424765
 30
0.0
  0
ENDBLK
  5
355
330
34A
100
AcDbEntity
  8
0
100
AcDbBlockEnd
  0
BLOCK
  5
36C
330
362
100
AcDbEntity
  8
0
100
AcDbBlockBegin
  2
*D13
 70
     1
 10
0.0
 20
0.0
 30
0.0
  3
*D13
  1

  0
LINE
  5
36F
330
362
100
AcDbEntity
  8
koty
 62
     0
370
    -2
100
AcDbLine
 10
-212.7227636999359
 20
13.3065278687832
 30
0.0
 11
-212.7227636999359
 21
-123.226935978497
 31
0.0
  0
LINE
  5
370
330
362
100
AcDbEntity
  8
koty
 62
     0
370
    -2
100
AcDbLine
 10
-122.7227636999359
 20
63.80652786878323
 30
0.0
 11
-122.7227636999359
 21
-123.226935978497
 31
0.0
  0
LINE
  5
371
330
362
100
AcDbEntity
  8
koty
 62
     0
370
    -2
100
AcDbLine
 10
-192.7227636999359
 20
-110.726935978497
 30
0.0
 11
-142.7227636999359
 21
-110.726935978497
 31
0.0
  0
SOLID
  5
372
330
362
100
AcDbEntity
  8
koty
 62
     0
100
AcDbTrace
 10
-192.7227636999359
 20
-107.3936026451637
 30
0.0
 11
-192.7227636999359
 21
-114.0602693118303
 31
0.0
 12
-212.7227636999359
 22
-110.726935978497
 32
0.0
 13
-212.7227636999359
 23
-110.726935978497
 33
0.0
  0
SOLID
  5
373
330
362
100
AcDbEntity
  8
koty
 62
     0
100
AcDbTrace
 10
-142.7227636999359
 20
-107.3936026451637
 30
0.0
 11
-142.7227636999359
 21
-114.0602693118303
 31
0.0
 12
-122.7227636999359
 22
-110.726935978497
 32
0.0
 13
-122.7227636999359
 23
-110.726935978497
 33
0.0
  0
MTEXT
  5
374
330
362
100
AcDbEntity
  8
koty
 62
     0
100
AcDbMText
 10
-167.7227636999359
 20
-94.47693597849704
 30
0.0
 40
20.0
 41
0.0
 71
     5
 72
     1
  1
90
 73
     1
 44
1.0
  0
POINT
  5
375
330
362
100
AcDbEntity
  8
Defpoints
 62
     0
100
AcDbPoint
 10
-212.7227636999359
 20
19.5565278687832
 30
0.0
  0
POINT
  5
376
330
362
100
AcDbEntity
  8
Defpoints
 62
     0
100
AcDbPoint
 10
-122.7227636999359
 20
70.05652786878323
 30
0.0
  0
POINT
  5
377
330
362
100
AcDbEntity
  8
Defpoints
 62
     0
100
AcDbPoint
 10
-122.7227636999359
 20
-110.726935978497
 30
0.0
  0
ENDBLK
  5
36D
330
362
100
AcDbEntity
  8
0
100
AcDbBlockEnd
  0
BLOCK
  5
384
330
37A
100
AcDbEntity
  8
0
100
AcDbBlockBegin
  2
*D14
 70
     1
 10
0.0
 20
0.0
 30
0.0
  3
*D14
  1

  0
LINE
  5
387
330
37A
100
AcDbEntity
  8
koty
 62
     0
370
    -2
100
AcDbLine
 10
-218.9727636999359
 20
19.55652786878321
 30
0.0
 11
-268.2927941964685
 21
19.55652786878322
 31
0.0
  0
LINE
  5
388
330
37A
100
AcDbEntity
  8
koty
 62
     0
370
    -2
100
AcDbLine
 10
-218.9727636999359
 20
200.5565278687832
 30
0.0
 11
-268.2927941964684
 21
200.5565278687832
 31
0.0
  0
LINE
  5
389
330
37A
100
AcDbEntity
  8
koty
 62
     0
370
    -2
100
AcDbLine
 10
-255.7927941964685
 20
39.55652786878322
 30
0.0
 11
-255.7927941964685
 21
180.5565278687832
 31
0.0
  0
SOLID
  5
38A
330
37A
100
AcDbEntity
  8
koty
 62
     0
100
AcDbTrace
 10
-259.1261275298019
 20
39.55652786878322
 30
0.0
 11
-252.4594608631352
 21
39.55652786878322
 31
0.0
 12
-255.7927941964685
 22
19.55652786878322
 32
0.0
 13
-255.7927941964685
 23
19.55652786878322
 33
0.0
  0
SOLID
  5
38B
330
37A
100
AcDbEntity
  8
koty
 62
     0
100
AcDbTrace
 10
-259.1261275298018
 20
180.5565278687832
 30
0.0
 11
-252.4594608631351
 21
180.5565278687832
 31
0.0
 12
-255.7927941964685
 22
200.5565278687832
 32
0.0
 13
-255.7927941964685
 23
200.5565278687832
 33
0.0
  0
MTEXT
  5
38C
330
37A
100
AcDbEntity
  8
koty
 62
     0
100
AcDbMText
 10
-272.0427941964685
 20
110.0565278687831
 30
0.0
 40
20.0
 41
0.0
 71
     5
 72
     1
  1
181
 11
0.0000000000000001
 21
1.0
 31
0.0
 73
     1
 44
1.0
  0
POINT
  5
38D
330
37A
100
AcDbEntity
  8
Defpoints
 62
     0
100
AcDbPoint
 10
-212.7227636999359
 20
19.5565278687832
 30
0.0
  0
POINT
  5
38E
330
37A
100
AcDbEntity
  8
Defpoints
 62
     0
100
AcDbPoint
 10
-212.7227636999359
 20
200.5565278687832
 30
0.0
  0
POINT
  5
38F
330
37A
100
AcDbEntity
  8
Defpoints
 62
     0
100
AcDbPoint
 10
-255.7927941964685
 20
200.5565278687832
 30
0.0
  0
ENDBLK
  5
385
330
37A
100
AcDbEntity
  8
0
100
AcDbBlockEnd
  0
ENDSEC
  0
SECTION
  2
ENTITIES
  0
LINE
  5
3C
330
1F
100
AcDbEntity
  8
0
100
AcDbLine
 10
293.9997343445345
 20
0.0
 30
200.5565278687831
 11
293.9997343445345
 21
0.0
 31
131.5565278687831
210
0.0
220
-1.0
230
0.0
  0
LWPOLYLINE
  5
3F
102
{ACAD_REACTORS
330
93
330
AB
330
DB
102
}
330
1F
100
AcDbEntity
  8
0
100
AcDbPolyline
 90
        8
 70
     0
 43
0.0
 10
293.9997343445345
 20
200.5565278687831
 10
206.4997343445345
 20
200.5565278687831
 42
0.4241202439442297
 10
118.9997343445345
 20
110.0565278687831
 42
0.3848986541651293
 10
206.4997343445345
 20
19.55652786878317
 42
0.3960496060200586
 10
277.504726440128
 20
110.0565278687831
 42
-0.5419077784755726
 10
293.9997343445345
 20
131.5565278687831
 10
293.9997343445345
 20
200.5565278687831
 10
206.4997343445345
 20
200.5565278687831
210
0.0
220
-1.0
230
0.0
  0
LINE
  5
57
330
1F
100
AcDbEntity
  8
0
100
AcDbLine
 10
206.4997343445345
 20
0.0
 30
195.5565278687831
 11
288.9997343445345
 21
0.0
 31
195.5565278687831
210
0.0
220
-1.0
230
0.0
  0
ARC
  5
58
330
1F
100
AcDbEntity
  8
0
100
AcDbCircle
 10
206.4997343445345
 20
113.006804111877
 30
0.0
 40
82.54972375690611
210
0.0
220
-1.0
230
0.0
100
AcDbArc
 50
90.00000000000005
 51
181.9311355748018
  0
ARC
  5
59
330
1F
100
AcDbEntity
  8
0
100
AcDbCircle
 10
212.8231095179283
 20
113.2200121524511
 30
0.0
 40
88.87669232424212
210
0.0
220
-1.0
230
0.0
100
AcDbArc
 50
181.9311355748018
 51
266.1377288503963
  0
ARC
  5
5A
330
1F
100
AcDbEntity
  8
0
100
AcDbCircle
 10
206.4997343445345
 20
19.55652786878302
 30
0.0
 40
5.000000000000129
210
0.0
220
-1.0
230
0.0
100
AcDbArc
 50
86.13772885039686
 51
98.67073652345183
  0
ARC
  5
5B
330
1F
100
AcDbEntity
  8
0
100
AcDbCircle
 10
193.8361704743577
 20
102.5969223853753
 30
0.0
 40
79.00043435224204
210
0.0
220
-1.0
230
0.0
100
AcDbArc
 50
278.6707365234513
 51
5.09482699600345
  0
ARC
  5
5C
330
1F
100
AcDbEntity
  8
0
100
AcDbCircle
 10
277.504726440128
 20
110.0565278687829
 30
0.0
 40
4.999999999999927
210
0.0
220
-1.0
230
0.0
100
AcDbArc
 50
185.0948269960002
 51
199.4114478872863
  0
ARC
  5
5D
330
1F
100
AcDbEntity
  8
0
100
AcDbCircle
 10
292.7581379171848
 20
115.431527868783
 30
0.0
 40
21.17272972285163
210
0.0
220
-1.0
230
0.0
100
AcDbArc
 50
100.2248466867836
 51
199.4114478872895
  0
LINE
  5
5F
330
1F
100
AcDbEntity
  8
0
100
AcDbLine
 10
288.9997343445345
 20
0.0
 30
136.2680075739063
 11
288.9997343445345
 21
0.0
 31
195.5565278687831
210
0.0
220
-1.0
230
0.0
  0
CIRCLE
  5
63
330
1F
100
AcDbEntity
  8
0
100
AcDbCircle
 10
205.9997343445345
 20
110.0565278687831
 30
0.0
 40
50.0
210
0.0
220
-1.0
230
0.0
  0
CIRCLE
  5
65
330
1F
100
AcDbEntity
  8
0
100
AcDbCircle
 10
205.9997343445345
 20
110.0565278687831
 30
0.0
 40
55.0
210
0.0
220
-1.0
230
0.0
  0
CIRCLE
  5
66
330
1F
100
AcDbEntity
  8
0
100
AcDbCircle
 10
205.9997343445345
 20
110.0565278687831
 30
0.0
 40
35.0
210
0.0
220
-1.0
230
0.0
  0
CIRCLE
  5
67
330
1F
100
AcDbEntity
  8
0
100
AcDbCircle
 10
205.9997343445345
 20
110.0565278687831
 30
0.0
 40
20.0
210
0.0
220
-1.0
230
0.0
  0
CIRCLE
  5
68
330
1F
100
AcDbEntity
  8
0
100
AcDbCircle
 10
205.9997343445345
 20
110.0565278687831
 30
0.0
 40
10.0
210
0.0
220
-1.0
230
0.0
  0
CIRCLE
  5
69
102
{ACAD_REACTORS
330
93
102
}
330
1F
100
AcDbEntity
  8
0
100
AcDbCircle
 10
205.9997343445345
 20
110.0565278687831
 30
0.0
 40
8.0
210
0.0
220
-1.0
230
0.0
  0
LINE
  5
6A
330
1F
100
AcDbEntity
  8
0
100
AcDbLine
 10
218.513246280731
 20
0.0
 30
125.6581950560637
 11
227.8983802328783
 21
0.0
 31
137.3594454465242
210
0.0
220
-1.0
230
0.0
  0
LINE
  5
6C
330
1F
100
AcDbEntity
  8
0
100
AcDbLine
 10
229.0848200861146
 20
0.0
 30
136.3639187752165
 11
219.6597380593621
 21
0.0
 31
124.664891860377
210
0.0
220
-1.0
230
0.0
  0
LINE
  5
6D
330
1F
100
AcDbEntity
  8
0
100
AcDbLine
 10
203.8160788251361
 20
0.0
 30
129.9369616812682
 11
202.1783371855872
 21
0.0
 31
144.8472870406321
210
0.0
220
-1.0
230
0.0
  0
LINE
  5
6E
330
1F
100
AcDbEntity
  8
0
100
AcDbLine
 10
203.7212205114144
 20
0.0
 30
144.9822830461917
 11
205.3291423618251
 21
0.0
 31
130.0452823670686
210
0.0
220
-1.0
230
0.0
  0
LINE
  5
6F
330
1F
100
AcDbEntity
  8
0
100
AcDbLine
 10
190.3980671572539
 20
0.0
 30
122.5700398049796
 11
178.6968167667934
 21
0.0
 31
131.9551737571269
210
0.0
220
-1.0
230
0.0
  0
LINE
  5
70
330
1F
100
AcDbEntity
  8
0
100
AcDbLine
 10
179.6923434381012
 20
0.0
 30
133.1416136103633
 11
191.3913703529406
 21
0.0
 31
123.7165315836107
210
0.0
220
-1.0
230
0.0
  0
LINE
  5
71
330
1F
100
AcDbEntity
  8
0
100
AcDbLine
 10
186.1193005320494
 20
0.0
 30
107.8728723493847
 11
171.2089751726856
 21
0.0
 31
106.2351307098359
210
0.0
220
-1.0
230
0.0
  0
LINE
  5
72
330
1F
100
AcDbEntity
  8
0
100
AcDbLine
 10
171.073979167126
 20
0.0
 30
107.778014035663
 11
186.0109798462491
 21
0.0
 31
109.3859358860737
210
0.0
220
-1.0
230
0.0
  0
LINE
  5
73
330
1F
100
AcDbEntity
  8
0
100
AcDbLine
 10
193.486222408338
 20
0.0
 30
94.45486068150257
 11
184.1010884561907
 21
0.0
 31
82.75361029104212
210
0.0
220
-1.0
230
0.0
  0
LINE
  5
74
330
1F
100
AcDbEntity
  8
0
100
AcDbLine
 10
182.9146486029543
 20
0.0
 30
83.74913696234987
 11
192.3397306297069
 21
0.0
 31
95.44816387718931
210
0.0
220
-1.0
230
0.0
  0
LINE
  5
75
330
1F
100
AcDbEntity
  8
0
100
AcDbLine
 10
208.183389863933
 20
0.0
 30
90.1760940562981
 11
209.8211315034818
 21
0.0
 31
75.26576869693423
210
0.0
220
-1.0
230
0.0
  0
LINE
  5
76
330
1F
100
AcDbEntity
  8
0
100
AcDbLine
 10
208.2782481776546
 20
0.0
 30
75.13077269137466
 11
206.6703263272439
 21
0.0
 31
90.06777337049777
210
0.0
220
-1.0
230
0.0
  0
LINE
  5
77
330
1F
100
AcDbEntity
  8
0
100
AcDbLine
 10
221.6014015318151
 20
0.0
 30
97.54301593258668
 11
233.3026519222756
 21
0.0
 31
88.15788198043932
210
0.0
220
-1.0
230
0.0
  0
LINE
  5
78
330
1F
100
AcDbEntity
  8
0
100
AcDbLine
 10
232.3071252509678
 20
0.0
 30
86.97144212720301
 11
220.6080983361284
 21
0.0
 31
96.39652415395557
210
0.0
220
-1.0
230
0.0
  0
LINE
  5
79
330
1F
100
AcDbEntity
  8
0
100
AcDbLine
 10
225.8801681570196
 20
0.0
 30
112.2401833881816
 11
240.7904935163835
 21
0.0
 31
113.8779250277304
210
0.0
220
-1.0
230
0.0
  0
LINE
  5
7A
330
1F
100
AcDbEntity
  8
0
100
AcDbLine
 10
240.925489521943
 20
0.0
 30
112.3350417019032
 11
225.9884888428199
 21
0.0
 31
110.7271198514925
210
0.0
220
-1.0
230
0.0
  0
DIMENSION
  5
7B
102
{ACAD_XDICTIONARY
360
89
102
}
102
{ACAD_REACTORS
330
93
102
}
330
1F
100
AcDbEntity
  8
koty
100
AcDbDimension
  2
*D1
 10
293.9997343445345
 20
0.0
 30
-27.15485474418438
 11
249.9997343445345
 21
-10.90485474418437
 31
0.0
 70
    32
 71
     5
 42
88.0
210
0.0
220
-1.0
230
0.0
  3
ISO-25
100
AcDbAlignedDimension
 13
205.9997343445345
 23
0.0
 33
110.0565278687831
 14
293.9997343445345
 24
0.0
 34
131.5565278687831
100
AcDbRotatedDimension
  0
DIMENSION
  5
94
102
{ACAD_XDICTIONARY
360
A1
102
}
102
{ACAD_REACTORS
330
AB
102
}
330
1F
100
AcDbEntity
  8
koty
100
AcDbDimension
  2
*D2
 10
387.1967169361171
 20
0.0
 30
131.5565278687831
 11
370.946716936117
 21
166.0565278687831
 31
0.0
 70
    32
 71
     5
 42
69.0
210
0.0
220
-1.0
230
0.0
  3
ISO-25
100
AcDbAlignedDimension
 13
293.9997343445345
 23
0.0
 33
200.5565278687831
 14
293.9997343445345
 24
0.0
 34
131.5565278687831
 50
90.0
100
AcDbRotatedDimension
  0
DIMENSION
  5
C4
102
{ACAD_XDICTIONARY
360
D1
102
}
102
{ACAD_REACTORS
330
DB
102
}
330
1F
100
AcDbEntity
  8
koty
100
AcDbDimension
  2
*D4
 10
293.9997343445345
 20
0.0
 30
-85.73939868563901
 11
206.4997343445344
 21
-69.48939868563901
 31
0.0
 70
    32
 71
     5
 42
175.0000000000002
210
0.0
220
-1.0
230
0.0
  3
ISO-25
100
AcDbAlignedDimension
 13
118.9997343445343
 23
0.0
 33
110.0565278687835
 14
293.9997343445345
 24
0.0
 34
131.5565278687831
100
AcDbRotatedDimension
  0
TEXT
  5
DC
330
1F
100
AcDbEntity
  8
popis
100
AcDbText
 10
-296.7379564557623
 20
250.0372468261819
 30
0.0
 40
15.0
  1
CBM/2-133/062 100W - speciální radiální ventilátor
210
0.0
220
-1.0
230
0.0
100
AcDbText
  0
LINE
  5
E8
330
1F
100
AcDbEntity
  8
0
100
AcDbLine
 10
-73.72276369993596
 20
0.0
 30
110.0565278687832
 11
-73.72276369993594
 21
0.0
 31
145.0565278687831
210
0.0
220
-1.0
230
0.0
  0
LINE
  5
F1
330
1F
100
AcDbEntity
  8
0
100
AcDbLine
 10
-122.7227636999359
 20
0.0
 30
150.0565278687832
 11
-134.7227636999359
 21
0.0
 31
162.1225719554828
210
0.0
220
-1.0
230
0.0
  0
LINE
  5
F2
102
{ACAD_REACTORS
330
18A
330
378
102
}
330
1F
100
AcDbEntity
  8
0
100
AcDbLine
 10
-122.7227636999359
 20
0.0
 30
70.05652786878323
 11
-134.7227636999359
 21
0.0
 31
57.99048378208359
210
0.0
220
-1.0
230
0.0
  0
LINE
  5
F3
330
1F
100
AcDbEntity
  8
0
100
AcDbLine
 10
-122.7227636999359
 20
0.0
 30
145.0565278687831
 11
-122.7227636999359
 21
0.0
 31
75.05652786878319
210
0.0
220
-1.0
230
0.0
  0
LINE
  5
F9
102
{ACAD_REACTORS
330
18A
102
}
330
1F
100
AcDbEntity
  8
0
100
AcDbLine
 10
-73.72276369993596
 20
0.0
 30
110.0565278687832
 11
-73.72276369993596
 21
0.0
 31
75.05652786878319
210
0.0
220
-1.0
230
0.0
  0
LWPOLYLINE
  5
FC
102
{ACAD_REACTORS
330
1A2
102
}
330
1F
100
AcDbEntity
  8
0
100
AcDbPolyline
 90
        6
 70
     1
 43
0.0
 10
-122.7227636999359
 20
150.0565278687832
 10
-78.72276369993596
 20
150.0565278687832
 42
-0.4142135623730951
 10
-73.72276369993596
 20
145.0565278687832
 10
-73.72276369993594
 20
75.05652786878323
 42
-0.4142135623730951
 10
-78.72276369993594
 20
70.05652786878323
 10
-122.7227636999359
 20
70.05652786878323
210
0.0
220
-1.0
230
0.0
  0
LWPOLYLINE
  5
102
102
{ACAD_REACTORS
330
1A2
102
}
330
1F
100
AcDbEntity
  8
0
100
AcDbPolyline
 90
        4
 70
     1
 43
0.0
 10
-85.97276369993595
 20
70.05652786878323
 10
-110.4727636999359
 20
70.05652786878323
 10
-110.4727636999359
 20
50.05652786878323
 10
-85.97276369993595
 20
50.05652786878323
210
0.0
220
-1.0
230
0.0
  0
LINE
  5
103
330
1F
100
AcDbEntity
  8
0
100
AcDbLine
 10
-134.7227636999359
 20
0.0
 30
130.0565278687832
 11
-165.2227636999359
 21
0.0
 31
130.0565278687832
210
0.0
220
-1.0
230
0.0
  0
LINE
  5
107
330
1F
100
AcDbEntity
  8
0
100
AcDbLine
 10
-134.7227636999359
 20
0.0
 30
131.0565278687832
 11
-165.2227636999359
 21
0.0
 31
131.0565278687832
210
0.0
220
-1.0
230
0.0
  0
LINE
  5
109
330
1F
100
AcDbEntity
  8
0
100
AcDbLine
 10
-136.7227636999359
 20
0.0
 30
199.5565278687832
 11
-165.2227636999359
 21
0.0
 31
199.5565278687832
210
0.0
220
-1.0
230
0.0
  0
LWPOLYLINE
  5
10A
330
1F
100
AcDbEntity
  8
0
100
AcDbPolyline
 90
        2
 70
     0
 43
0.0
 10
-136.7227636999359
 20
199.5565278687832
 10
-136.7227636999359
 20
131.0565278687832
210
0.0
220
-1.0
230
0.0
  0
LINE
  5
110
330
1F
100
AcDbEntity
  8
0
100
AcDbLine
 10
-146.0529677914237
 20
0.0
 30
183.4074529580739
 11
-146.0529677914237
 21
0.0
 31
131.0565278687832
210
0.0
220
-1.0
230
0.0
  0
LINE
  5
111
330
1F
100
AcDbEntity
  8
0
100
AcDbLine
 10
-147.0529677914237
 20
0.0
 30
183.4074529580739
 11
-147.0529677914236
 21
0.0
 31
131.0565278687832
210
0.0
220
-1.0
230
0.0
  0
LINE
  5
112
330
1F
100
AcDbEntity
  8
0
100
AcDbLine
 10
-146.0529677914237
 20
0.0
 30
183.4074529580739
 11
-147.0529677914237
 21
0.0
 31
183.4074529580739
210
0.0
220
-1.0
230
0.0
  0
LWPOLYLINE
  5
113
330
1F
100
AcDbEntity
  8
0
100
AcDbPolyline
 90
        4
 70
     0
 43
0.0
 10
-165.2227636999359
 20
131.0565278687832
 10
-147.0529677914236
 20
131.0565278687832
 10
-147.0529677914236
 20
134.8142273372427
 10
-165.2227636999359
 20
134.8142273372427
210
0.0
220
-1.0
230
0.0
  0
LWPOLYLINE
  5
115
330
1F
100
AcDbEntity
  8
0
100
AcDbPolyline
 90
        4
 70
     0
 43
0.0
 10
-165.2227636999359
 20
138.5719268057023
 10
-147.0529677914236
 20
138.5719268057023
 10
-147.0529677914236
 20
142.3296262741619
 10
-165.2227636999359
 20
142.3296262741619
210
0.0
220
-1.0
230
0.0
  0
LWPOLYLINE
  5
116
330
1F
100
AcDbEntity
  8
0
100
AcDbPolyline
 90
        4
 70
     0
 43
0.0
 10
-165.2227636999359
 20
142.3296262741619
 10
-147.0529677914236
 20
142.3296262741619
 10
-147.0529677914236
 20
146.0873257426215
 10
-165.2227636999359
 20
146.0873257426215
210
0.0
220
-1.0
230
0.0
  0
LWPOLYLINE
  5
117
330
1F
100
AcDbEntity
  8
0
100
AcDbPolyline
 90
        4
 70
     0
 43
0.0
 10
-165.2227636999359
 20
146.0873257426215
 10
-147.0529677914236
 20
146.0873257426215
 10
-147.0529677914236
 20
149.845025211081
 10
-165.2227636999359
 20
149.845025211081
210
0.0
220
-1.0
230
0.0
  0
LWPOLYLINE
  5
119
330
1F
100
AcDbEntity
  8
0
100
AcDbPolyline
 90
        4
 70
     0
 43
0.0
 10
-165.2227636999359
 20
157.3604241480002
 10
-147.0529677914236
 20
157.3604241480002
 10
-147.0529677914236
 20
161.1181236164598
 10
-165.2227636999359
 20
161.1181236164598
210
0.0
220
-1.0
230
0.0
  0
LWPOLYLINE
  5
11B
330
1F
100
AcDbEntity
  8
0
100
AcDbPolyline
 90
        4
 70
     0
 43
0.0
 10
-165.2227636999359
 20
168.6335225533789
 10
-147.0529677914236
 20
168.6335225533789
 10
-147.0529677914236
 20
172.3912220218385
 10
-165.2227636999359
 20
172.3912220218385
210
0.0
220
-1.0
230
0.0
  0
LINE
  5
120
330
1F
100
AcDbEntity
  8
0
100
AcDbLine
 10
-146.0529677914236
 20
0.0
 30
149.845025211081
 11
-136.7227636999359
 21
0.0
 31
149.845025211081
210
0.0
220
-1.0
230
0.0
  0
LINE
  5
122
330
1F
100
AcDbEntity
  8
0
100
AcDbLine
 10
-138.802255630168
 20
0.0
 30
131.0565278687832
 11
-138.802255630168
 21
0.0
 31
148.845025211081
210
0.0
220
-1.0
230
0.0
  0
LINE
  5
123
330
1F
100
AcDbEntity
  8
0
100
AcDbLine
 10
-146.0529677914236
 20
0.0
 30
148.845025211081
 11
-143.0928433522208
 21
0.0
 31
148.845025211081
210
0.0
220
-1.0
230
0.0
  0
LINE
  5
125
330
1F
100
AcDbEntity
  8
0
100
AcDbLine
 10
-143.0928433522208
 20
0.0
 30
148.845025211081
 11
-143.0928433522208
 21
0.0
 31
131.0565278687831
210
0.0
220
-1.0
230
0.0
  0
LINE
  5
126
330
1F
100
AcDbEntity
  8
0
100
AcDbLine
 10
-138.802255630168
 20
0.0
 30
148.845025211081
 11
-136.7227636999359
 21
0.0
 31
148.845025211081
210
0.0
220
-1.0
230
0.0
  0
DIMENSION
  5
16F
102
{ACAD_XDICTIONARY
360
17E
102
}
102
{ACAD_REACTORS
330
18A
102
}
330
1F
100
AcDbEntity
  8
koty
100
AcDbDimension
  2
*D8
 10
-122.7227636999359
 20
0.0
 30
-110.726935978497
 11
-98.22276369993597
 21
-94.47693597849704
 31
0.0
 70
    32
 71
     5
 42
48.99999999999998
210
0.0
220
-1.0
230
0.0
  3
ISO-25
100
AcDbAlignedDimension
 13
-73.72276369993596
 23
0.0
 33
75.05652786878319
 14
-122.7227636999359
 24
0.0
 34
70.05652786878323
100
AcDbRotatedDimension
  0
DIMENSION
  5
18B
102
{ACAD_XDICTIONARY
360
198
102
}
102
{ACAD_REACTORS
330
1A2
102
}
330
1F
100
AcDbEntity
  8
koty
100
AcDbDimension
  2
*D9
 10
-28.83746653141086
 20
0.0
 30
150.0565278687832
 11
-45.08746653141089
 21
100.0565278687832
 31
0.0
 70
    32
 71
     5
 42
100.0
210
0.0
220
-1.0
230
0.0
  3
ISO-25
100
AcDbAlignedDimension
 13
-85.97276369993595
 23
0.0
 33
50.05652786878323
 14
-78.72276369993596
 24
0.0
 34
150.0565278687832
 50
90.0
100
AcDbRotatedDimension
  0
LWPOLYLINE
  5
2A7
330
1F
100
AcDbEntity
  8
0
100
AcDbPolyline
 90
        4
 70
     0
 43
0.0
 10
-165.2227636999359
 20
161.1181236164598
 10
-147.0529677914236
 20
161.1181236164598
 10
-147.0529677914236
 20
164.8758230849194
 10
-165.2227636999359
 20
164.8758230849194
210
0.0
220
-1.0
230
0.0
  0
LWPOLYLINE
  5
2A9
330
1F
100
AcDbEntity
  8
0
100
AcDbPolyline
 90
        4
 70
     0
 43
0.0
 10
-165.2227636999359
 20
134.8142273372427
 10
-147.0529677914236
 20
134.8142273372427
 10
-147.0529677914236
 20
138.5719268057023
 10
-165.2227636999359
 20
138.5719268057023
210
0.0
220
-1.0
230
0.0
  0
LWPOLYLINE
  5
2AA
102
{ACAD_REACTORS
330
13E
330
16E
330
360
102
}
330
1F
100
AcDbEntity
  8
0
100
AcDbPolyline
 90
        4
 70
     0
 43
0.0
 10
-165.2227636999359
 20
200.5565278687832
 10
-134.7227636999359
 20
200.5565278687832
 10
-134.7227636999359
 20
19.5565278687832
 10
-165.2227636999359
 20
19.5565278687832
210
0.0
220
-1.0
230
0.0
  0
LWPOLYLINE
  5
2AD
330
1F
100
AcDbEntity
  8
0
100
AcDbPolyline
 90
        4
 70
     0
 43
0.0
 10
-165.2227636999359
 20
176.1489214902981
 10
-147.0529677914236
 20
176.1489214902981
 10
-147.0529677914236
 20
179.9066209587577
 10
-165.2227636999359
 20
179.9066209587577
210
0.0
220
-1.0
230
0.0
  0
LWPOLYLINE
  5
2AE
330
1F
100
AcDbEntity
  8
0
100
AcDbPolyline
 90
        4
 70
     0
 43
0.0
 10
-165.2227636999359
 20
172.3912220218385
 10
-147.0529677914236
 20
172.3912220218385
 10
-147.0529677914236
 20
176.1489214902981
 10
-165.2227636999359
 20
176.1489214902981
210
0.0
220
-1.0
230
0.0
  0
LWPOLYLINE
  5
2B0
330
1F
100
AcDbEntity
  8
0
100
AcDbPolyline
 90
        4
 70
     0
 43
0.0
 10
-165.2227636999359
 20
149.845025211081
 10
-147.0529677914236
 20
149.845025211081
 10
-147.0529677914236
 20
153.6027246795406
 10
-165.2227636999359
 20
153.6027246795406
210
0.0
220
-1.0
230
0.0
  0
LINE
  5
2DA
330
1F
100
AcDbEntity
  8
0
100
AcDbLine
 10
-165.2227636999359
 20
0.0
 30
200.5565278687832
 11
-173.7227636999359
 21
0.0
 31
200.5565278687832
210
0.0
220
-1.0
230
0.0
  0
LINE
  5
2DB
330
1F
100
AcDbEntity
  8
0
100
AcDbLine
 10
-165.2227636999359
 20
0.0
 30
199.5565278687832
 11
-173.7227636999359
 21
0.0
 31
199.5565278687832
210
0.0
220
-1.0
230
0.0
  0
LINE
  5
2DC
330
1F
100
AcDbEntity
  8
0
100
AcDbLine
 10
-165.2227636999359
 20
0.0
 30
179.9066209587577
 11
-173.7227636999359
 21
0.0
 31
179.9066209587577
210
0.0
220
-1.0
230
0.0
  0
LINE
  5
2DD
330
1F
100
AcDbEntity
  8
0
100
AcDbLine
 10
-165.2227636999359
 20
0.0
 30
176.1489214902981
 11
-173.7227636999359
 21
0.0
 31
176.1489214902981
210
0.0
220
-1.0
230
0.0
  0
LINE
  5
2DE
330
1F
100
AcDbEntity
  8
0
100
AcDbLine
 10
-165.2227636999359
 20
0.0
 30
172.3912220218385
 11
-173.7227636999359
 21
0.0
 31
172.3912220218385
210
0.0
220
-1.0
230
0.0
  0
LINE
  5
2DF
330
1F
100
AcDbEntity
  8
0
100
AcDbLine
 10
-165.2227636999359
 20
0.0
 30
168.6335225533789
 11
-173.7227636999359
 21
0.0
 31
168.6335225533789
210
0.0
220
-1.0
230
0.0
  0
LINE
  5
2E0
330
1F
100
AcDbEntity
  8
0
100
AcDbLine
 10
-165.2227636999359
 20
0.0
 30
164.8758230849194
 11
-173.7227636999359
 21
0.0
 31
164.8758230849194
210
0.0
220
-1.0
230
0.0
  0
LINE
  5
2E1
330
1F
100
AcDbEntity
  8
0
100
AcDbLine
 10
-165.2227636999359
 20
0.0
 30
161.1181236164598
 11
-173.7227636999359
 21
0.0
 31
161.1181236164598
210
0.0
220
-1.0
230
0.0
  0
LINE
  5
2E2
330
1F
100
AcDbEntity
  8
0
100
AcDbLine
 10
-165.2227636999359
 20
0.0
 30
157.3604241480002
 11
-173.7227636999359
 21
0.0
 31
157.3604241480002
210
0.0
220
-1.0
230
0.0
  0
LINE
  5
2E3
330
1F
100
AcDbEntity
  8
0
100
AcDbLine
 10
-165.2227636999359
 20
0.0
 30
153.6027246795406
 11
-173.7227636999359
 21
0.0
 31
153.6027246795406
210
0.0
220
-1.0
230
0.0
  0
LINE
  5
2E4
330
1F
100
AcDbEntity
  8
0
100
AcDbLine
 10
-165.2227636999359
 20
0.0
 30
149.845025211081
 11
-173.7227636999359
 21
0.0
 31
149.845025211081
210
0.0
220
-1.0
230
0.0
  0
LINE
  5
2E5
330
1F
100
AcDbEntity
  8
0
100
AcDbLine
 10
-165.2227636999359
 20
0.0
 30
131.0565278687832
 11
-173.7227636999359
 21
0.0
 31
131.0565278687831
210
0.0
220
-1.0
230
0.0
  0
LINE
  5
2E6
330
1F
100
AcDbEntity
  8
0
100
AcDbLine
 10
-165.2227636999359
 20
0.0
 30
130.0565278687832
 11
-173.7227636999359
 21
0.0
 31
130.0565278687832
210
0.0
220
-1.0
230
0.0
  0
LINE
  5
2E7
330
1F
100
AcDbEntity
  8
0
100
AcDbLine
 10
-165.2227636999359
 20
0.0
 30
134.8142273372427
 11
-173.7227636999359
 21
0.0
 31
134.8142273372427
210
0.0
220
-1.0
230
0.0
  0
LINE
  5
2E8
330
1F
100
AcDbEntity
  8
0
100
AcDbLine
 10
-165.2227636999359
 20
0.0
 30
138.5719268057023
 11
-173.7227636999359
 21
0.0
 31
138.5719268057023
210
0.0
220
-1.0
230
0.0
  0
LINE
  5
2E9
330
1F
100
AcDbEntity
  8
0
100
AcDbLine
 10
-165.2227636999359
 20
0.0
 30
142.3296262741619
 11
-173.7227636999359
 21
0.0
 31
142.3296262741619
210
0.0
220
-1.0
230
0.0
  0
LINE
  5
2EA
330
1F
100
AcDbEntity
  8
0
100
AcDbLine
 10
-165.2227636999359
 20
0.0
 30
146.0873257426215
 11
-173.7227636999359
 21
0.0
 31
146.0873257426215
210
0.0
220
-1.0
230
0.0
  0
LINE
  5
2EB
330
1F
100
AcDbEntity
  8
0
100
AcDbLine
 10
-165.2227636999359
 20
0.0
 30
19.5565278687832
 11
-173.7227636999359
 21
0.0
 31
19.5565278687832
210
0.0
220
-1.0
230
0.0
  0
LWPOLYLINE
  5
2ED
102
{ACAD_REACTORS
330
13E
330
360
330
378
330
390
102
}
330
1F
100
AcDbEntity
  8
0
100
AcDbPolyline
 90
        4
 70
     0
 43
0.0
 10
-182.2227636999359
 20
200.5565278687832
 10
-212.7227636999359
 20
200.5565278687832
 10
-212.7227636999359
 20
19.5565278687832
 10
-182.2227636999359
 20
19.5565278687832
210
0.0
220
-1.0
230
0.0
  0
LINE
  5
2EE
330
1F
100
AcDbEntity
  8
0
100
AcDbLine
 10
-182.2227636999359
 20
0.0
 30
19.5565278687832
 11
-173.7227636999359
 21
0.0
 31
19.5565278687832
210
0.0
220
-1.0
230
0.0
  0
LWPOLYLINE
  5
2EF
330
1F
100
AcDbEntity
  8
0
100
AcDbPolyline
 90
        2
 70
     0
 43
0.0
 10
-210.7227636999358
 20
199.5565278687832
 10
-210.7227636999358
 20
131.0565278687832
210
0.0
220
-1.0
230
0.0
  0
LWPOLYLINE
  5
2F0
330
1F
100
AcDbEntity
  8
0
100
AcDbPolyline
 90
        4
 70
     0
 43
0.0
 10
-182.2227636999359
 20
131.0565278687832
 10
-200.3925596084481
 20
131.0565278687832
 10
-200.3925596084481
 20
134.8142273372427
 10
-182.2227636999359
 20
134.8142273372427
210
0.0
220
-1.0
230
0.0
  0
LINE
  5
2F3
330
1F
100
AcDbEntity
  8
0
100
AcDbLine
 10
-200.3925596084481
 20
0.0
 30
183.4074529580739
 11
-200.3925596084481
 21
0.0
 31
131.0565278687832
210
0.0
220
-1.0
230
0.0
  0
LINE
  5
2F4
330
1F
100
AcDbEntity
  8
0
100
AcDbLine
 10
-201.3925596084481
 20
0.0
 30
183.4074529580739
 11
-201.3925596084481
 21
0.0
 31
131.0565278687832
210
0.0
220
-1.0
230
0.0
  0
LINE
  5
2F5
330
1F
100
AcDbEntity
  8
0
100
AcDbLine
 10
-212.7227636999359
 20
0.0
 30
131.0565278687832
 11
-182.2227636999358
 21
0.0
 31
131.0565278687832
210
0.0
220
-1.0
230
0.0
  0
LINE
  5
2F6
330
1F
100
AcDbEntity
  8
0
100
AcDbLine
 10
-212.7227636999359
 20
0.0
 30
130.0565278687832
 11
-182.2227636999358
 21
0.0
 31
130.0565278687832
210
0.0
220
-1.0
230
0.0
  0
LINE
  5
2F7
330
1F
100
AcDbEntity
  8
0
100
AcDbLine
 10
-182.2227636999358
 20
0.0
 30
131.0565278687832
 11
-173.7227636999359
 21
0.0
 31
131.0565278687831
210
0.0
220
-1.0
230
0.0
  0
LINE
  5
2F8
330
1F
100
AcDbEntity
  8
0
100
AcDbLine
 10
-182.2227636999358
 20
0.0
 30
130.0565278687832
 11
-173.7227636999359
 21
0.0
 31
130.0565278687832
210
0.0
220
-1.0
230
0.0
  0
LWPOLYLINE
  5
2F9
330
1F
100
AcDbEntity
  8
0
100
AcDbPolyline
 90
        4
 70
     0
 43
0.0
 10
-182.2227636999359
 20
161.1181236164598
 10
-200.3925596084481
 20
161.1181236164598
 10
-200.3925596084481
 20
164.8758230849194
 10
-182.2227636999359
 20
164.8758230849194
210
0.0
220
-1.0
230
0.0
  0
LWPOLYLINE
  5
2FA
330
1F
100
AcDbEntity
  8
0
100
AcDbPolyline
 90
        4
 70
     0
 43
0.0
 10
-182.2227636999359
 20
138.5719268057023
 10
-200.3925596084481
 20
138.5719268057023
 10
-200.3925596084481
 20
142.3296262741619
 10
-182.2227636999359
 20
142.3296262741619
210
0.0
220
-1.0
230
0.0
  0
LWPOLYLINE
  5
2FB
330
1F
100
AcDbEntity
  8
0
100
AcDbPolyline
 90
        4
 70
     0
 43
0.0
 10
-182.2227636999359
 20
149.845025211081
 10
-200.3925596084481
 20
149.845025211081
 10
-200.3925596084481
 20
153.6027246795406
 10
-182.2227636999359
 20
153.6027246795406
210
0.0
220
-1.0
230
0.0
  0
LWPOLYLINE
  5
2FC
330
1F
100
AcDbEntity
  8
0
100
AcDbPolyline
 90
        4
 70
     0
 43
0.0
 10
-182.2227636999359
 20
146.0873257426215
 10
-200.3925596084481
 20
146.0873257426215
 10
-200.3925596084481
 20
149.845025211081
 10
-182.2227636999359
 20
149.845025211081
210
0.0
220
-1.0
230
0.0
  0
LWPOLYLINE
  5
2FD
330
1F
100
AcDbEntity
  8
0
100
AcDbPolyline
 90
        4
 70
     0
 43
0.0
 10
-182.2227636999359
 20
142.3296262741619
 10
-200.3925596084481
 20
142.3296262741619
 10
-200.3925596084481
 20
146.0873257426215
 10
-182.2227636999359
 20
146.0873257426215
210
0.0
220
-1.0
230
0.0
  0
LWPOLYLINE
  5
2FE
330
1F
100
AcDbEntity
  8
0
100
AcDbPolyline
 90
        4
 70
     0
 43
0.0
 10
-182.2227636999359
 20
134.8142273372427
 10
-200.3925596084481
 20
134.8142273372427
 10
-200.3925596084481
 20
138.5719268057023
 10
-182.2227636999359
 20
138.5719268057023
210
0.0
220
-1.0
230
0.0
  0
LWPOLYLINE
  5
2FF
330
1F
100
AcDbEntity
  8
0
100
AcDbPolyline
 90
        4
 70
     0
 43
0.0
 10
-182.2227636999359
 20
157.3604241480002
 10
-200.3925596084481
 20
157.3604241480002
 10
-200.3925596084481
 20
161.1181236164598
 10
-182.2227636999359
 20
161.1181236164598
210
0.0
220
-1.0
230
0.0
  0
LINE
  5
300
330
1F
100
AcDbEntity
  8
0
100
AcDbLine
 10
-182.2227636999359
 20
0.0
 30
146.0873257426215
 11
-173.7227636999359
 21
0.0
 31
146.0873257426215
210
0.0
220
-1.0
230
0.0
  0
LINE
  5
301
330
1F
100
AcDbEntity
  8
0
100
AcDbLine
 10
-182.2227636999359
 20
0.0
 30
142.3296262741619
 11
-173.7227636999359
 21
0.0
 31
142.3296262741619
210
0.0
220
-1.0
230
0.0
  0
LINE
  5
302
330
1F
100
AcDbEntity
  8
0
100
AcDbLine
 10
-182.2227636999359
 20
0.0
 30
138.5719268057023
 11
-173.7227636999359
 21
0.0
 31
138.5719268057023
210
0.0
220
-1.0
230
0.0
  0
LINE
  5
303
330
1F
100
AcDbEntity
  8
0
100
AcDbLine
 10
-182.2227636999359
 20
0.0
 30
134.8142273372427
 11
-173.7227636999359
 21
0.0
 31
134.8142273372427
210
0.0
220
-1.0
230
0.0
  0
LINE
  5
304
330
1F
100
AcDbEntity
  8
0
100
AcDbLine
 10
-182.2227636999359
 20
0.0
 30
161.1181236164598
 11
-173.7227636999359
 21
0.0
 31
161.1181236164598
210
0.0
220
-1.0
230
0.0
  0
LINE
  5
305
330
1F
100
AcDbEntity
  8
0
100
AcDbLine
 10
-182.2227636999359
 20
0.0
 30
157.3604241480002
 11
-173.7227636999359
 21
0.0
 31
157.3604241480002
210
0.0
220
-1.0
230
0.0
  0
LINE
  5
306
330
1F
100
AcDbEntity
  8
0
100
AcDbLine
 10
-182.2227636999359
 20
0.0
 30
153.6027246795406
 11
-173.7227636999359
 21
0.0
 31
153.6027246795406
210
0.0
220
-1.0
230
0.0
  0
LINE
  5
307
330
1F
100
AcDbEntity
  8
0
100
AcDbLine
 10
-182.2227636999359
 20
0.0
 30
149.845025211081
 11
-173.7227636999359
 21
0.0
 31
149.845025211081
210
0.0
220
-1.0
230
0.0
  0
LWPOLYLINE
  5
30B
330
1F
100
AcDbEntity
  8
0
100
AcDbPolyline
 90
        4
 70
     0
 43
0.0
 10
-182.2227636999359
 20
168.6335225533789
 10
-200.3925596084481
 20
168.6335225533789
 10
-200.3925596084481
 20
172.3912220218385
 10
-182.2227636999359
 20
172.3912220218385
210
0.0
220
-1.0
230
0.0
  0
LWPOLYLINE
  5
30C
330
1F
100
AcDbEntity
  8
0
100
AcDbPolyline
 90
        4
 70
     0
 43
0.0
 10
-182.2227636999359
 20
172.3912220218385
 10
-200.3925596084481
 20
172.3912220218385
 10
-200.3925596084481
 20
176.1489214902981
 10
-182.2227636999359
 20
176.1489214902981
210
0.0
220
-1.0
230
0.0
  0
LWPOLYLINE
  5
30D
330
1F
100
AcDbEntity
  8
0
100
AcDbPolyline
 90
        4
 70
     0
 43
0.0
 10
-182.2227636999359
 20
176.1489214902981
 10
-200.3925596084481
 20
176.1489214902981
 10
-200.3925596084481
 20
179.9066209587577
 10
-182.2227636999359
 20
179.9066209587577
210
0.0
220
-1.0
230
0.0
  0
LINE
  5
30E
330
1F
100
AcDbEntity
  8
0
100
AcDbLine
 10
-182.2227636999359
 20
0.0
 30
172.3912220218385
 11
-173.7227636999359
 21
0.0
 31
172.3912220218385
210
0.0
220
-1.0
230
0.0
  0
LINE
  5
30F
330
1F
100
AcDbEntity
  8
0
100
AcDbLine
 10
-182.2227636999359
 20
0.0
 30
176.1489214902981
 11
-173.7227636999359
 21
0.0
 31
176.1489214902981
210
0.0
220
-1.0
230
0.0
  0
LINE
  5
310
330
1F
100
AcDbEntity
  8
0
100
AcDbLine
 10
-182.2227636999359
 20
0.0
 30
168.6335225533789
 11
-173.7227636999359
 21
0.0
 31
168.6335225533789
210
0.0
220
-1.0
230
0.0
  0
LINE
  5
311
330
1F
100
AcDbEntity
  8
0
100
AcDbLine
 10
-182.2227636999359
 20
0.0
 30
164.8758230849194
 11
-173.7227636999359
 21
0.0
 31
164.8758230849194
210
0.0
220
-1.0
230
0.0
  0
LINE
  5
312
330
1F
100
AcDbEntity
  8
0
100
AcDbLine
 10
-182.2227636999359
 20
0.0
 30
179.9066209587577
 11
-173.7227636999359
 21
0.0
 31
179.9066209587577
210
0.0
220
-1.0
230
0.0
  0
LINE
  5
313
330
1F
100
AcDbEntity
  8
0
100
AcDbLine
 10
-201.3925596084481
 20
0.0
 30
183.4074529580739
 11
-200.3925596084481
 21
0.0
 31
183.4074529580739
210
0.0
220
-1.0
230
0.0
  0
LINE
  5
314
330
1F
100
AcDbEntity
  8
0
100
AcDbLine
 10
-210.7227636999358
 20
0.0
 30
199.5565278687832
 11
-182.2227636999359
 21
0.0
 31
199.5565278687832
210
0.0
220
-1.0
230
0.0
  0
LINE
  5
315
330
1F
100
AcDbEntity
  8
0
100
AcDbLine
 10
-182.2227636999359
 20
0.0
 30
199.5565278687832
 11
-173.7227636999359
 21
0.0
 31
199.5565278687832
210
0.0
220
-1.0
230
0.0
  0
LINE
  5
316
330
1F
100
AcDbEntity
  8
0
100
AcDbLine
 10
-182.2227636999359
 20
0.0
 30
200.5565278687832
 11
-173.7227636999359
 21
0.0
 31
200.5565278687832
210
0.0
220
-1.0
230
0.0
  0
LINE
  5
317
330
1F
100
AcDbEntity
  8
0
100
AcDbLine
 10
-210.7227636999358
 20
0.0
 30
170.649561484784
 11
-204.5417460806118
 21
0.0
 31
165.7333639033911
210
0.0
220
-1.0
230
0.0
  0
LINE
  5
318
330
1F
100
AcDbEntity
  8
0
100
AcDbLine
 10
-204.5417460806118
 20
0.0
 30
165.7333639033911
 11
-204.5417460806117
 21
0.0
 31
131.0565278687832
210
0.0
220
-1.0
230
0.0
  0
DIMENSION
  5
349
102
{ACAD_XDICTIONARY
360
356
102
}
102
{ACAD_REACTORS
330
360
102
}
330
1F
100
AcDbEntity
  8
koty
100
AcDbDimension
  2
*D12
 10
-134.7227636999359
 20
0.0
 30
-29.90321878424765
 11
-173.7227636999359
 21
-13.65321878424765
 31
0.0
 70
    32
 71
     5
 42
77.99999999999994
210
0.0
220
-1.0
230
0.0
  3
ISO-25
100
AcDbAlignedDimension
 13
-212.7227636999359
 23
0.0
 33
19.5565278687832
 14
-134.7227636999359
 24
0.0
 34
19.5565278687832
100
AcDbRotatedDimension
  0
DIMENSION
  5
361
102
{ACAD_XDICTIONARY
360
36E
102
}
102
{ACAD_REACTORS
330
378
102
}
330
1F
100
AcDbEntity
  8
koty
100
AcDbDimension
  2
*D13
 10
-122.7227636999359
 20
0.0
 30
-110.726935978497
 11
-167.7227636999359
 21
-94.47693597849704
 31
0.0
 70
    32
 71
     5
 42
89.99999999999998
210
0.0
220
-1.0
230
0.0
  3
ISO-25
100
AcDbAlignedDimension
 13
-212.7227636999359
 23
0.0
 33
19.5565278687832
 14
-122.7227636999359
 24
0.0
 34
70.05652786878323
100
AcDbRotatedDimension
  0
DIMENSION
  5
379
102
{ACAD_XDICTIONARY
360
386
102
}
102
{ACAD_REACTORS
330
390
102
}
330
1F
100
AcDbEntity
  8
koty
100
AcDbDimension
  2
*D14
 10
-255.7927941964685
 20
0.0
 30
200.5565278687832
 11
-272.0427941964685
 21
110.0565278687831
 31
0.0
 70
    32
 71
     5
 42
181.0
210
0.0
220
-1.0
230
0.0
  3
ISO-25
100
AcDbAlignedDimension
 13
-212.7227636999359
 23
0.0
 33
19.5565278687832
 14
-212.7227636999359
 24
0.0
 34
200.5565278687832
 50
90.0
100
AcDbRotatedDimension
  0
ENDSEC
  0
SECTION
  2
OBJECTS
  0
DICTIONARY
  5
C
330
0
100
AcDbDictionary
281
     1
  3
ACAD_GROUP
350
D
  3
ACAD_LAYOUT
350
1A
  3
ACAD_MLINESTYLE
350
17
  3
ACAD_PLOTSETTINGS
350
19
  3
ACAD_PLOTSTYLENAME
350
E
  3
AcDbVariableDictionary
350
2E
  0
DICTIONARY
  5
89
330
7B
100
AcDbDictionary
280
     1
281
     1
  3
ACAD_DIMASSOC
360
93
  0
DICTIONARY
  5
A1
330
94
100
AcDbDictionary
280
     1
281
     1
  3
ACAD_DIMASSOC
360
AB
  0
DICTIONARY
  5
D1
330
C4
100
AcDbDictionary
280
     1
281
     1
  3
ACAD_DIMASSOC
360
DB
  0
DICTIONARY
  5
17E
330
16F
100
AcDbDictionary
280
     1
281
     1
  3
ACAD_DIMASSOC
360
18A
  0
DICTIONARY
  5
198
330
18B
100
AcDbDictionary
280
     1
281
     1
  3
ACAD_DIMASSOC
360
1A2
  0
DICTIONARY
  5
356
330
349
100
AcDbDictionary
280
     1
281
     1
  3
ACAD_DIMASSOC
360
360
  0
DICTIONARY
  5
36E
330
361
100
AcDbDictionary
280
     1
281
     1
  3
ACAD_DIMASSOC
360
378
  0
DICTIONARY
  5
386
330
379
100
AcDbDictionary
280
     1
281
     1
  3
ACAD_DIMASSOC
360
390
  0
DICTIONARY
  5
D
102
{ACAD_REACTORS
330
C
102
}
330
C
100
AcDbDictionary
281
     1
  0
DICTIONARY
  5
1A
102
{ACAD_REACTORS
330
C
102
}
330
C
100
AcDbDictionary
281
     1
  3
Model
350
22
  3
Rozvržení1
350
1E
  3
Rozvržení2
350
26
  0
DICTIONARY
  5
17
102
{ACAD_REACTORS
330
C
102
}
330
C
100
AcDbDictionary
281
     1
  3
Standard
350
18
  0
DICTIONARY
  5
19
102
{ACAD_REACTORS
330
C
102
}
330
C
100
AcDbDictionary
281
     1
  0
ACDBDICTIONARYWDFLT
  5
E
102
{ACAD_REACTORS
330
C
102
}
330
C
100
AcDbDictionary
281
     1
  3
Normal
350
F
100
AcDbDictionaryWithDefault
340
F
  0
DICTIONARY
  5
2E
102
{ACAD_REACTORS
330
C
102
}
330
C
100
AcDbDictionary
281
     1
  3
DIMASSOC
350
30
  3
HIDETEXT
350
2F
  0
DIMASSOC
  5
93
102
{ACAD_REACTORS
330
89
102
}
330
89
100
AcDbDimAssoc
330
7B
 90
        3
 70
     0
 71
     0
  1
AcDbOsnapPointRef
 72
     3
331
69
 73
     2
 91
        0
 40
0.0
 10
205.9997343445345
 20
0.0
 30
110.0565278687831
 75
     0
  1
AcDbOsnapPointRef
 72
    13
331
3F
 73
     2
 91
        5
 40
1.493949726890452
 10
293.9997343445345
 20
0.0
 30
131.5565278687831
 75
     0
  0
DIMASSOC
  5
AB
102
{ACAD_REACTORS
330
A1
102
}
330
A1
100
AcDbDimAssoc
330
94
 90
        3
 70
     0
 71
     0
  1
AcDbOsnapPointRef
 72
    13
331
3F
 73
     2
 91
        1
 40
0.0
 10
293.9997343445345
 20
0.0
 30
200.5565278687831
 75
     0
  1
AcDbOsnapPointRef
 72
    13
331
3F
 73
     2
 91
        5
 40
1.493949726890452
 10
293.9997343445345
 20
0.0
 30
131.5565278687831
 75
     0
  0
DIMASSOC
  5
DB
102
{ACAD_REACTORS
330
D1
102
}
330
D1
100
AcDbDimAssoc
330
C4
 90
        3
 70
     0
 71
     0
  1
AcDbOsnapPointRef
 72
     6
331
3F
 73
     2
 91
        2
 40
3.175297327672474
 10
118.9997343445343
 20
0.0
 30
110.0565278687835
332
3F
 74
     2
 92
        3
 75
     0
  1
AcDbOsnapPointRef
 72
    13
331
3F
 73
     2
 91
        5
 40
1.493949726890452
 10
293.9997343445345
 20
0.0
 30
131.5565278687831
 75
     0
  0
DIMASSOC
  5
18A
102
{ACAD_REACTORS
330
17E
102
}
330
17E
100
AcDbDimAssoc
330
16F
 90
        3
 70
     0
 71
     0
  1
AcDbOsnapPointRef
 72
     1
331
F9
 73
     2
 91
        0
 40
1.0
 10
-73.72276369993596
 20
0.0
 30
75.05652786878319
 75
     0
  1
AcDbOsnapPointRef
 72
    13
331
F2
 73
     2
 91
        0
 40
0.0
 10
-122.7227636999359
 20
0.0
 30
70.05652786878323
 75
     0
  0
DIMASSOC
  5
1A2
102
{ACAD_REACTORS
330
198
102
}
330
198
100
AcDbDimAssoc
330
18B
 90
        3
 70
     0
 71
     0
  1
AcDbOsnapPointRef
 72
     1
331
102
 73
     2
 91
        3
 40
1.0
 10
-85.97276369993595
 20
0.0
 30
50.05652786878323
 75
     0
  1
AcDbOsnapPointRef
 72
     1
331
FC
 73
     2
 91
        2
 40
1.570796326794896
 10
-78.72276369993596
 20
0.0
 30
150.0565278687832
 75
     0
  0
DIMASSOC
  5
360
102
{ACAD_REACTORS
330
356
102
}
330
356
100
AcDbDimAssoc
330
349
 90
        3
 70
     0
 71
     0
  1
AcDbOsnapPointRef
 72
     1
331
2ED
 73
     2
 91
        2
 40
1.0
 10
-212.7227636999359
 20
0.0
 30
19.5565278687832
 75
     0
  1
AcDbOsnapPointRef
 72
     1
331
2AA
 73
     2
 91
        2
 40
1.0
 10
-134.7227636999359
 20
0.0
 30
19.5565278687832
 75
     0
  0
DIMASSOC
  5
378
102
{ACAD_REACTORS
330
36E
102
}
330
36E
100
AcDbDimAssoc
330
361
 90
        3
 70
     0
 71
     0
  1
AcDbOsnapPointRef
 72
     1
331
2ED
 73
     2
 91
        2
 40
1.0
 10
-212.7227636999359
 20
0.0
 30
19.5565278687832
 75
     0
  1
AcDbOsnapPointRef
 72
    13
331
F2
 73
     2
 91
        0
 40
0.0
 10
-122.7227636999359
 20
0.0
 30
70.05652786878323
 75
     0
  0
DIMASSOC
  5
390
102
{ACAD_REACTORS
330
386
102
}
330
386
100
AcDbDimAssoc
330
379
 90
        3
 70
     0
 71
     0
  1
AcDbOsnapPointRef
 72
     1
331
2ED
 73
     2
 91
        2
 40
1.0
 10
-212.7227636999359
 20
0.0
 30
19.5565278687832
 75
     0
  1
AcDbOsnapPointRef
 72
     1
331
2ED
 73
     2
 91
        1
 40
1.0
 10
-212.7227636999359
 20
0.0
 30
200.5565278687832
 75
     0
  0
LAYOUT
  5
22
102
{ACAD_REACTORS
330
1A
102
}
330
1A
100
AcDbPlotSettings
  1

  2
D:\AutoCAD 2002Cz\plotters\PublishToWeb DWF.pc3
  4

  6

 40
0.0
 41
0.0
 42
0.0
 43
0.0
 44
0.0
 45
0.0
 46
0.0
 47
0.0
 48
0.0
 49
0.0
140
0.0
141
0.0
142
1.0
143
1.0
 70
  1712
 72
     0
 73
     0
 74
     0
  7

 75
     0
147
1.0
148
0.0
149
0.0
100
AcDbLayout
  1
Model
 70
     1
 71
     0
 10
0.0
 20
0.0
 11
12.0
 21
9.0
 12
0.0
 22
0.0
 32
0.0
 14
0.0
 24
0.0
 34
0.0
 15
0.0
 25
0.0
 35
0.0
146
0.0
 13
0.0
 23
0.0
 33
0.0
 16
1.0
 26
0.0
 36
0.0
 17
0.0
 27
1.0
 37
0.0
 76
     0
330
1F
  0
LAYOUT
  5
1E
102
{ACAD_REACTORS
330
1A
102
}
330
1A
100
AcDbPlotSettings
  1

  2
D:\AutoCAD 2002Cz\plotters\PublishToWeb DWF.pc3
  4

  6

 40
0.0
 41
0.0
 42
0.0
 43
0.0
 44
0.0
 45
0.0
 46
0.0
 47
0.0
 48
0.0
 49
0.0
140
0.0
141
0.0
142
1.0
143
1.0
 70
   688
 72
     0
 73
     0
 74
     5
  7

 75
    16
147
1.0
148
0.0
149
0.0
100
AcDbLayout
  1
Rozvržení1
 70
     1
 71
     1
 10
0.0
 20
0.0
 11
420.0
 21
297.0
 12
0.0
 22
0.0
 32
0.0
 14
1.000000000000000E+20
 24
1.000000000000000E+20
 34
1.000000000000000E+20
 15
-1.000000000000000E+20
 25
-1.000000000000000E+20
 35
-1.000000000000000E+20
146
0.0
 13
0.0
 23
0.0
 33
0.0
 16
1.0
 26
0.0
 36
0.0
 17
0.0
 27
1.0
 37
0.0
 76
     0
330
1B
  0
LAYOUT
  5
26
102
{ACAD_REACTORS
330
1A
102
}
330
1A
100
AcDbPlotSettings
  1

  2
D:\AutoCAD 2002Cz\plotters\PublishToWeb DWF.pc3
  4

  6

 40
0.0
 41
0.0
 42
0.0
 43
0.0
 44
0.0
 45
0.0
 46
0.0
 47
0.0
 48
0.0
 49
0.0
140
0.0
141
0.0
142
1.0
143
1.0
 70
   688
 72
     0
 73
     0
 74
     5
  7

 75
    16
147
1.0
148
0.0
149
0.0
100
AcDbLayout
  1
Rozvržení2
 70
     1
 71
     2
 10
0.0
 20
0.0
 11
12.0
 21
9.0
 12
0.0
 22
0.0
 32
0.0
 14
0.0
 24
0.0
 34
0.0
 15
0.0
 25
0.0
 35
0.0
146
0.0
 13
0.0
 23
0.0
 33
0.0
 16
1.0
 26
0.0
 36
0.0
 17
0.0
 27
1.0
 37
0.0
 76
     0
330
23
  0
MLINESTYLE
  5
18
102
{ACAD_REACTORS
330
17
102
}
330
17
100
AcDbMlineStyle
  2
STANDARD
 70
     0
  3

 62
   256
 51
90.0
 52
90.0
 71
     2
 49
0.5
 62
   256
  6
BYLAYER
 49
-0.5
 62
   256
  6
BYLAYER
  0
ACDBPLACEHOLDER
  5
F
102
{ACAD_REACTORS
330
E
102
}
330
E
  0
DICTIONARYVAR
  5
30
102
{ACAD_REACTORS
330
2E
102
}
330
2E
100
DictionaryVariables
280
     0
  1
2
  0
DICTIONARYVAR
  5
2F
102
{ACAD_REACTORS
330
2E
102
}
330
2E
100
DictionaryVariables
280
     0
  1
1
  0
ENDSEC
  0
EOF
