  0
SECTION
  2
HEADER
  9
$ACADVER
  1
AC1014
  9
$ACADMAINTVER
 70
     0
  9
$DWGCODEPAGE
  3
ANSI_1250
  9
$INSBASE
 10
0.0
 20
0.0
 30
0.0
  9
$EXTMIN
 10
26.077261
 20
-589.491047
 30
0.0
  9
$EXTMAX
 10
816.519142
 20
248.51704
 30
0.0
  9
$LIMMIN
 10
0.0
 20
0.0
  9
$LIMMAX
 10
420.0
 20
297.0
  9
$ORTHOMODE
 70
     0
  9
$REGENMODE
 70
     1
  9
$FILLMODE
 70
     1
  9
$QTEXTMODE
 70
     0
  9
$MIRRTEXT
 70
     1
  9
$DRAGMODE
 70
     2
  9
$LTSCALE
 40
1.0
  9
$OSMODE
 70
    15
  9
$ATTMODE
 70
     1
  9
$TEXTSIZE
 40
25.0
  9
$TRACEWID
 40
1.0
  9
$TEXTSTYLE
  7
ED
  9
$CLAYER
  8
V0-OBRYS
  9
$CELTYPE
  6
CONTINUOUS
  9
$CECOLOR
 62
    90
  9
$CELTSCALE
 40
3.0
  9
$DELOBJ
 70
     1
  9
$DISPSILH
 70
     0
  9
$DIMSCALE
 40
1.0
  9
$DIMASZ
 40
30.0
  9
$DIMEXO
 40
0.625
  9
$DIMDLI
 40
3.75
  9
$DIMRND
 40
0.0
  9
$DIMDLE
 40
0.0
  9
$DIMEXE
 40
1.25
  9
$DIMTP
 40
0.0
  9
$DIMTM
 40
0.0
  9
$DIMTXT
 40
30.0
  9
$DIMCEN
 40
50.0
  9
$DIMTSZ
 40
0.0
  9
$DIMTOL
 70
     0
  9
$DIMLIM
 70
     0
  9
$DIMTIH
 70
     0
  9
$DIMTOH
 70
     0
  9
$DIMSE1
 70
     0
  9
$DIMSE2
 70
     0
  9
$DIMTAD
 70
     1
  9
$DIMZIN
 70
     8
  9
$DIMBLK
  1

  9
$DIMASO
 70
     1
  9
$DIMSHO
 70
     1
  9
$DIMPOST
  1

  9
$DIMAPOST
  1

  9
$DIMALT
 70
     0
  9
$DIMALTD
 70
     4
  9
$DIMALTF
 40
0.0394
  9
$DIMLFAC
 40
1.0
  9
$DIMTOFL
 70
     1
  9
$DIMTVP
 40
0.0
  9
$DIMTIX
 70
     0
  9
$DIMSOXD
 70
     0
  9
$DIMSAH
 70
     1
  9
$DIMBLK1
  1
_OPEN
  9
$DIMBLK2
  1
_OPEN
  9
$DIMSTYLE
  2
ED20
  9
$DIMCLRD
 70
     0
  9
$DIMCLRE
 70
     0
  9
$DIMCLRT
 70
     0
  9
$DIMTFAC
 40
1.0
  9
$DIMGAP
 40
3.0
  9
$DIMJUST
 70
     0
  9
$DIMSD1
 70
     0
  9
$DIMSD2
 70
     0
  9
$DIMTOLJ
 70
     1
  9
$DIMTZIN
 70
     8
  9
$DIMALTZ
 70
     0
  9
$DIMALTTZ
 70
     0
  9
$DIMFIT
 70
     3
  9
$DIMUPT
 70
     0
  9
$DIMUNIT
 70
     2
  9
$DIMDEC
 70
     0
  9
$DIMTDEC
 70
     1
  9
$DIMALTU
 70
     8
  9
$DIMALTTD
 70
     4
  9
$DIMTXSTY
  7
ED
  9
$DIMAUNIT
 70
     0
  9
$LUNITS
 70
     2
  9
$LUPREC
 70
     4
  9
$SKETCHINC
 40
1.0
  9
$FILLETRAD
 40
0.0
  9
$AUNITS
 70
     0
  9
$AUPREC
 70
     0
  9
$MENU
  1
.
  9
$ELEVATION
 40
0.0
  9
$PELEVATION
 40
0.0
  9
$THICKNESS
 40
0.0
  9
$LIMCHECK
 70
     0
  9
$BLIPMODE
 70
     0
  9
$CHAMFERA
 40
10.0
  9
$CHAMFERB
 40
10.0
  9
$CHAMFERC
 40
20.0
  9
$CHAMFERD
 40
0.0
  9
$SKPOLY
 70
     1
  9
$TDCREATE
 40
2451196.643769328
  9
$TDUPDATE
 40
2452919.701950231
  9
$TDINDWG
 40
0.3790814815
  9
$TDUSRTIMER
 40
0.3790814815
  9
$USRTIMER
 70
     1
  9
$ANGBASE
 50
0.0
  9
$ANGDIR
 70
     0
  9
$PDMODE
 70
     3
  9
$PDSIZE
 40
15.0
  9
$PLINEWID
 40
0.0
  9
$COORDS
 70
     1
  9
$SPLFRAME
 70
     0
  9
$SPLINETYPE
 70
     6
  9
$SPLINESEGS
 70
     8
  9
$ATTDIA
 70
     0
  9
$ATTREQ
 70
     1
  9
$HANDLING
 70
     1
  9
$HANDSEED
  5
881
  9
$SURFTAB1
 70
     6
  9
$SURFTAB2
 70
     6
  9
$SURFTYPE
 70
     6
  9
$SURFU
 70
     6
  9
$SURFV
 70
     6
  9
$UCSNAME
  2

  9
$UCSORG
 10
714.2644724051948
 20
-1.205727925487281
 30
0.0
  9
$UCSXDIR
 10
1.0
 20
0.0
 30
0.0
  9
$UCSYDIR
 10
0.0
 20
1.0
 30
0.0
  9
$PUCSNAME
  2

  9
$PUCSORG
 10
0.0
 20
0.0
 30
0.0
  9
$PUCSXDIR
 10
1.0
 20
0.0
 30
0.0
  9
$PUCSYDIR
 10
0.0
 20
1.0
 30
0.0
  9
$USERI1
 70
     0
  9
$USERI2
 70
     0
  9
$USERI3
 70
     0
  9
$USERI4
 70
     0
  9
$USERI5
 70
     0
  9
$USERR1
 40
0.0
  9
$USERR2
 40
0.0
  9
$USERR3
 40
0.0
  9
$USERR4
 40
0.0
  9
$USERR5
 40
0.0
  9
$WORLDVIEW
 70
     1
  9
$SHADEDGE
 70
     3
  9
$SHADEDIF
 70
    70
  9
$TILEMODE
 70
     1
  9
$MAXACTVP
 70
    48
  9
$PINSBASE
 10
0.0
 20
0.0
 30
0.0
  9
$PLIMCHECK
 70
     0
  9
$PEXTMIN
 10
1.000000E+20
 20
1.000000E+20
 30
1.000000E+20
  9
$PEXTMAX
 10
-1.000000E+20
 20
-1.000000E+20
 30
-1.000000E+20
  9
$PLIMMIN
 10
0.0
 20
0.0
  9
$PLIMMAX
 10
420.0
 20
297.0
  9
$UNITMODE
 70
     0
  9
$VISRETAIN
 70
     1
  9
$PLINEGEN
 70
     0
  9
$PSLTSCALE
 70
     0
  9
$TREEDEPTH
 70
  3020
  9
$PICKSTYLE
 70
     1
  9
$CMLSTYLE
  2
STANDARD
  9
$CMLJUST
 70
     0
  9
$CMLSCALE
 40
1.0
  9
$PROXYGRAPHICS
 70
     1
  9
$MEASUREMENT
 70
     0
  0
ENDSEC
  0
SECTION
  2
CLASSES
  0
CLASS
  1
DICTIONARYVAR
  2
AcDbDictionaryVar
  3
"AutoCAD"
 90
        0
280
     0
281
     0
  0
CLASS
  1
LWPOLYLINE
  2
AcDbPolyline
  3
"AutoCAD"
 90
        0
280
     0
281
     1
  0
CLASS
  1
HATCH
  2
AcDbHatch
  3
"ACAD_SEDONA"
 90
        0
280
     0
281
     1
  0
ENDSEC
  0
SECTION
  2
TABLES
  0
TABLE
  2
VPORT
  5
12
100
AcDbSymbolTable
 70
     2
  0
VPORT
  5
880
100
AcDbSymbolTableRecord
100
AcDbViewportTableRecord
  2
*ACTIVE
 70
     0
 10
0.0
 20
0.0
 11
1.0
 21
1.0
 12
408.259571
 22
-145.557815
 13
0.0
 23
0.0
 14
10.0
 24
10.0
 15
10.0
 25
10.0
 16
0.0
 26
0.0
 36
1.0
 17
0.0
 27
0.0
 37
0.0
 40
895.46786
 41
1.730469
 42
50.0
 43
0.0
 44
0.0
 50
0.0
 51
0.0
 71
     0
 72
   100
 73
     1
 74
     1
 75
     0
 76
     0
 77
     0
 78
     0
  0
ENDTAB
  0
TABLE
  2
LTYPE
  5
D
100
AcDbSymbolTable
 70
     2
  0
LTYPE
  5
E
100
AcDbSymbolTableRecord
100
AcDbLinetypeTableRecord
  2
BYBLOCK
 70
     0
  3

 72
    65
 73
     0
 40
0.0
  0
LTYPE
  5
F
100
AcDbSymbolTableRecord
100
AcDbLinetypeTableRecord
  2
BYLAYER
 70
     0
  3

 72
    65
 73
     0
 40
0.0
  0
LTYPE
  5
5
100
AcDbSymbolTableRecord
100
AcDbLinetypeTableRecord
  2
CONTINUOUS
 70
     0
  3
Solid line
 72
    65
 73
     0
 40
0.0
  0
LTYPE
  5
2E
100
AcDbSymbolTableRecord
100
AcDbLinetypeTableRecord
  2
DASHDOT
 70
     0
  3
Dash dot __ . __ . __ . __ . __ . __ . __ . __
 72
    65
 73
     4
 40
25.4
 49
12.7
 74
     0
 49
-6.35
 74
     0
 49
0.0
 74
     0
 49
-6.35
 74
     0
  0
ENDTAB
  0
TABLE
  2
LAYER
  5
A
100
AcDbSymbolTable
 70
     6
  0
LAYER
  5
4
100
AcDbSymbolTableRecord
100
AcDbLayerTableRecord
  2
0
 70
     0
 62
     7
  6
CONTINUOUS
  0
LAYER
  5
27
100
AcDbSymbolTableRecord
100
AcDbLayerTableRecord
  2
V0-OBRYS
 70
     0
 62
    90
  6
CONTINUOUS
  0
LAYER
  5
2D
100
AcDbSymbolTableRecord
100
AcDbLayerTableRecord
  2
V0-VYPLNE
 70
     0
 62
    52
  6
CONTINUOUS
  0
LAYER
  5
31
100
AcDbSymbolTableRecord
100
AcDbLayerTableRecord
  2
V0-NAZVY
 70
     0
 62
   210
  6
CONTINUOUS
  0
LAYER
  5
1B
100
AcDbSymbolTableRecord
100
AcDbLayerTableRecord
  2
V0-ZBYTEK
 70
     0
 62
    51
  6
CONTINUOUS
  0
LAYER
  5
193
100
AcDbSymbolTableRecord
100
AcDbLayerTableRecord
  2
DEFPOINTS
 70
     0
 62
     7
  6
CONTINUOUS
  0
ENDTAB
  0
TABLE
  2
STYLE
  5
B
100
AcDbSymbolTable
 70
     4
  0
STYLE
  5
C
100
AcDbSymbolTableRecord
100
AcDbTextStyleTableRecord
  2
STANDARD
 70
     0
 40
0.0
 41
1.0
 50
0.0
 71
     0
 42
2.5
  3
ISOCP
  4

  0
STYLE
  5
1F
100
AcDbSymbolTableRecord
100
AcDbTextStyleTableRecord
  2
ED
 70
     0
 40
20.0
 41
1.0
 50
0.0
 71
     0
 42
2.5
  3
ISOCP.shx
  4

  0
STYLE
  5
1C
100
AcDbSymbolTableRecord
100
AcDbTextStyleTableRecord
  2
ED40
 70
     0
 40
50.0
 41
1.0
 50
0.0
 71
     0
 42
25.0
  3
ISOCP.shx
  4

  0
STYLE
  5
31F
100
AcDbSymbolTableRecord
100
AcDbTextStyleTableRecord
  2
ED10
 70
     0
 40
10.0
 41
1.0
 50
0.0
 71
     0
 42
10.0
  3
ISOCP.shx
  4

  0
ENDTAB
  0
TABLE
  2
VIEW
  5
10
100
AcDbSymbolTable
 70
     0
  0
ENDTAB
  0
TABLE
  2
UCS
  5
11
100
AcDbSymbolTable
 70
     0
  0
ENDTAB
  0
TABLE
  2
APPID
  5
14
100
AcDbSymbolTable
 70
     3
  0
APPID
  5
15
100
AcDbSymbolTableRecord
100
AcDbRegAppTableRecord
  2
ACAD
 70
     0
  0
APPID
  5
3C3
100
AcDbSymbolTableRecord
100
AcDbRegAppTableRecord
  2
CONTENTBLOCKICON
 70
     0
  0
APPID
  5
3C4
100
AcDbSymbolTableRecord
100
AcDbRegAppTableRecord
  2
CONTENTBLOCKDESCRIPTION
 70
     0
  0
ENDTAB
  0
TABLE
  2
DIMSTYLE
  5
16
100
AcDbSymbolTable
 70
     3
  0
DIMSTYLE
105
1E
100
AcDbSymbolTableRecord
100
AcDbDimStyleTableRecord
  2
ED40
 70
     0
  3

  4

  5

  6
_OPEN
  7
_OPEN
 40
1.0
 41
50.0
 42
0.625
 43
3.75
 44
1.25
 45
0.0
 46
0.0
 47
0.0
 48
0.0
140
50.0
141
50.0
142
0.0
143
0.0394
144
1.0
145
0.0
146
1.0
147
3.0
 71
     0
 72
     0
 73
     0
 74
     0
 75
     0
 76
     0
 77
     1
 78
     8
170
     0
171
     4
172
     1
173
     1
174
     0
175
     0
176
     0
177
     0
178
     0
270
     2
271
     0
272
     1
273
     8
274
     4
340
1F
275
     0
280
     0
281
     0
282
     0
283
     1
284
     8
285
     0
286
     0
287
     3
288
     0
  0
DIMSTYLE
105
284
102
{ACAD_REACTORS
330
2AB
330
2B8
330
307
330
349
330
5D0
102
}
100
AcDbSymbolTableRecord
100
AcDbDimStyleTableRecord
  2
ED20
 70
     0
  3

  4

  5

  6
_OPEN
  7
_OPEN
 40
1.0
 41
50.0
 42
0.625
 43
3.75
 44
1.25
 45
0.0
 46
0.0
 47
0.0
 48
0.0
140
50.0
141
50.0
142
0.0
143
0.0394
144
1.0
145
0.0
146
1.0
147
3.0
 71
     0
 72
     0
 73
     0
 74
     0
 75
     0
 76
     0
 77
     1
 78
     8
170
     0
171
     4
172
     1
173
     1
174
     0
175
     0
176
     0
177
     0
178
     0
270
     2
271
     0
272
     1
273
     8
274
     4
340
1C
275
     0
280
     0
281
     0
282
     0
283
     1
284
     8
285
     0
286
     0
287
     3
288
     0
  0
DIMSTYLE
105
320
100
AcDbSymbolTableRecord
100
AcDbDimStyleTableRecord
  2
ED10
 70
     0
  3

  4

  5

  6
_OPEN
  7
_OPEN
 40
1.0
 41
10.0
 42
1.0
 43
3.75
 44
1.25
 45
0.0
 46
0.0
 47
0.0
 48
0.0
140
10.0
141
2.0
142
0.0
143
0.0394
144
1.0
145
0.0
146
1.0
147
1.5
 71
     0
 72
     0
 73
     0
 74
     0
 75
     0
 76
     0
 77
     1
 78
     8
170
     0
171
     4
172
     1
173
     1
174
     0
175
     0
176
     0
177
     0
178
     0
270
     2
271
     0
272
     1
273
     8
274
     4
340
31F
275
     0
280
     0
281
     0
282
     0
283
     1
284
     8
285
     0
286
     0
287
     3
288
     0
  0
ENDTAB
  0
TABLE
  2
BLOCK_RECORD
  5
1
100
AcDbSymbolTable
 70
     6
  0
BLOCK_RECORD
  5
2
100
AcDbSymbolTableRecord
100
AcDbBlockTableRecord
  2
*MODEL_SPACE
  0
BLOCK_RECORD
  5
7
100
AcDbSymbolTableRecord
100
AcDbBlockTableRecord
  2
*PAPER_SPACE
  0
BLOCK_RECORD
  5
20
100
AcDbSymbolTableRecord
100
AcDbBlockTableRecord
  2
_OPEN
  0
BLOCK_RECORD
  5
29F
100
AcDbSymbolTableRecord
100
AcDbBlockTableRecord
  2
*D1
  0
BLOCK_RECORD
  5
2AC
100
AcDbSymbolTableRecord
100
AcDbBlockTableRecord
  2
*D2
  0
BLOCK_RECORD
  5
2FB
100
AcDbSymbolTableRecord
100
AcDbBlockTableRecord
  2
*D3
  0
BLOCK_RECORD
  5
33D
100
AcDbSymbolTableRecord
100
AcDbBlockTableRecord
  2
*D4
  0
BLOCK_RECORD
  5
5C5
100
AcDbSymbolTableRecord
100
AcDbBlockTableRecord
  2
*D5
  0
ENDTAB
  0
ENDSEC
  0
SECTION
  2
BLOCKS
  0
BLOCK
  5
3
100
AcDbEntity
  8
0
100
AcDbBlockBegin
  2
*MODEL_SPACE
 70
     0
 10
0.0
 20
0.0
 30
0.0
  3
*MODEL_SPACE
  1

  0
ENDBLK
  5
6
100
AcDbEntity
  8
0
100
AcDbBlockEnd
  0
BLOCK
  5
8
100
AcDbEntity
 67
     1
  8
0
100
AcDbBlockBegin
  2
*PAPER_SPACE
 70
     0
 10
0.0
 20
0.0
 30
0.0
  3
*PAPER_SPACE
  1

  0
ENDBLK
  5
9
100
AcDbEntity
 67
     1
  8
0
100
AcDbBlockEnd
  0
BLOCK
  5
24
100
AcDbEntity
  8
0
100
AcDbBlockBegin
  2
_OPEN
 70
     0
 10
0.0
 20
0.0
 30
0.0
  3
_OPEN
  1

  0
LINE
  5
21
100
AcDbEntity
  8
0
  6
BYBLOCK
 62
     0
100
AcDbLine
 10
-1.0
 20
0.166667
 30
0.0
 11
0.0
 21
0.0
 31
0.0
  0
LINE
  5
22
100
AcDbEntity
  8
0
  6
BYBLOCK
 62
     0
100
AcDbLine
 10
0.0
 20
0.0
 30
0.0
 11
-1.0
 21
-0.166667
 31
0.0
  0
LINE
  5
23
100
AcDbEntity
  8
0
  6
BYBLOCK
 62
     0
100
AcDbLine
 10
0.0
 20
0.0
 30
0.0
 11
-1.0
 21
0.0
 31
0.0
  0
ENDBLK
  5
25
100
AcDbEntity
  8
0
100
AcDbBlockEnd
  0
BLOCK
  5
694
100
AcDbEntity
  8
0
 48
3.0
100
AcDbBlockBegin
  2
*D1
 70
     1
 10
0.0
 20
0.0
 30
0.0
  3
*D1
  1

  0
LINE
  5
695
100
AcDbEntity
  8
0
  6
BYBLOCK
 62
     0
 48
3.0
100
AcDbLine
 10
250.7433
 20
196.218609
 30
0.0
 11
46.827261
 21
196.218609
 31
0.0
  0
LINE
  5
696
100
AcDbEntity
  8
0
  6
BYBLOCK
 62
     0
 48
3.0
100
AcDbLine
 10
87.020893
 20
-214.795518
 30
0.0
 11
46.827261
 21
-214.795518
 31
0.0
  0
LINE
  5
697
100
AcDbEntity
  8
0
  6
BYBLOCK
 62
     0
 48
3.0
100
AcDbLine
 10
48.077261
 20
166.218609
 30
0.0
 11
48.077261
 21
-184.795518
 31
0.0
  0
INSERT
  5
698
100
AcDbEntity
  8
0
  6
BYBLOCK
 62
     0
 48
3.0
100
AcDbBlockReference
  2
_OPEN
 10
48.077261
 20
196.218609
 30
0.0
 41
30.0
 42
30.0
 43
30.0
 50
90.0
  0
INSERT
  5
699
100
AcDbEntity
  8
0
  6
BYBLOCK
 62
     0
 48
3.0
100
AcDbBlockReference
  2
_OPEN
 10
48.077261
 20
-214.795518
 30
0.0
 41
30.0
 42
30.0
 43
30.0
 50
270.0
  0
MTEXT
  5
69A
100
AcDbEntity
  8
0
  6
BYBLOCK
 62
     0
 48
3.0
100
AcDbMText
 10
35.077261
 20
-9.288454
 30
0.0
 40
20.0
 41
0.0
 71
     5
 72
     1
  1
\A1;411
  7
ED
 11
0.0
 21
1.0
 31
0.0
  0
POINT
  5
69B
100
AcDbEntity
  8
DEFPOINTS
  6
BYBLOCK
 62
     0
 48
3.0
100
AcDbPoint
 10
251.3683
 20
196.218609
 30
0.0
  0
POINT
  5
69C
100
AcDbEntity
  8
DEFPOINTS
  6
BYBLOCK
 62
     0
 48
3.0
100
AcDbPoint
 10
87.645893
 20
-214.795518
 30
0.0
  0
POINT
  5
69D
100
AcDbEntity
  8
DEFPOINTS
  6
BYBLOCK
 62
     0
 48
3.0
100
AcDbPoint
 10
48.077261
 20
-214.795518
 30
0.0
  0
ENDBLK
  5
69E
100
AcDbEntity
  8
0
 48
3.0
100
AcDbBlockEnd
  0
BLOCK
  5
6B7
100
AcDbEntity
  8
0
 48
3.0
100
AcDbBlockBegin
  2
*D2
 70
     1
 10
0.0
 20
0.0
 30
0.0
  3
*D2
  1

  0
LINE
  5
6B8
100
AcDbEntity
  8
0
  6
BYBLOCK
 62
     0
 48
3.0
100
AcDbLine
 10
540.379225
 20
30.158205
 30
0.0
 11
540.379225
 21
227.757373
 31
0.0
  0
LINE
  5
6B9
100
AcDbEntity
  8
0
  6
BYBLOCK
 62
     0
 48
3.0
100
AcDbLine
 10
737.419225
 20
30.158201
 30
0.0
 11
737.419225
 21
227.757373
 31
0.0
  0
LINE
  5
6BA
100
AcDbEntity
  8
0
  6
BYBLOCK
 62
     0
 48
3.0
100
AcDbLine
 10
570.379225
 20
226.507373
 30
0.0
 11
707.419225
 21
226.507373
 31
0.0
  0
INSERT
  5
6BB
100
AcDbEntity
  8
0
  6
BYBLOCK
 62
     0
 48
3.0
100
AcDbBlockReference
  2
_OPEN
 10
540.379225
 20
226.507373
 30
0.0
 41
30.0
 42
30.0
 43
30.0
 50
180.0
  0
INSERT
  5
6BC
100
AcDbEntity
  8
0
  6
BYBLOCK
 62
     0
 48
3.0
100
AcDbBlockReference
  2
_OPEN
 10
737.419225
 20
226.507373
 30
0.0
 41
30.0
 42
30.0
 43
30.0
  0
MTEXT
  5
6BD
100
AcDbEntity
  8
0
  6
BYBLOCK
 62
     0
 48
3.0
100
AcDbMText
 10
646.0051
 20
239.507373
 30
0.0
 40
20.0
 41
0.0
 71
     5
 72
     1
  1
\A1;197
  7
ED
  0
POINT
  5
6BE
100
AcDbEntity
  8
DEFPOINTS
  6
BYBLOCK
 62
     0
 48
3.0
100
AcDbPoint
 10
540.379225
 20
29.533205
 30
0.0
  0
POINT
  5
6BF
100
AcDbEntity
  8
DEFPOINTS
  6
BYBLOCK
 62
     0
 48
3.0
100
AcDbPoint
 10
737.419225
 20
29.533201
 30
0.0
  0
POINT
  5
6C0
100
AcDbEntity
  8
DEFPOINTS
  6
BYBLOCK
 62
     0
 48
3.0
100
AcDbPoint
 10
737.419225
 20
226.507373
 30
0.0
  0
ENDBLK
  5
6C1
100
AcDbEntity
  8
0
 48
3.0
100
AcDbBlockEnd
  0
BLOCK
  5
6C2
100
AcDbEntity
  8
0
 48
3.0
100
AcDbBlockBegin
  2
*D3
 70
     1
 10
0.0
 20
0.0
 30
0.0
  3
*D3
  1

  0
LINE
  5
6C3
100
AcDbEntity
  8
0
  6
BYBLOCK
 62
     0
 48
3.0
100
AcDbLine
 10
204.618662
 20
11.100195
 30
0.0
 11
204.86022
 21
10.480899
 31
0.0
  0
LINE
  5
6C4
100
AcDbEntity
  8
0
  6
BYBLOCK
 62
     0
 48
3.0
100
AcDbLine
 10
297.37664
 20
47.280726
 30
0.0
 11
297.618199
 21
46.66143
 31
0.0
  0
LINE
  5
6C5
100
AcDbEntity
  8
0
  6
BYBLOCK
 62
     0
 48
3.0
100
AcDbLine
 10
232.35512
 20
22.547091
 30
0.0
 11
269.214829
 21
36.924332
 31
0.0
  0
INSERT
  5
6C6
100
AcDbEntity
  8
0
  6
BYBLOCK
 62
     0
 48
3.0
100
AcDbBlockReference
  2
_OPEN
 10
204.405985
 20
11.645446
 30
0.0
 41
30.0
 42
30.0
 43
30.0
 50
201.308421
  0
INSERT
  5
6C7
100
AcDbEntity
  8
0
  6
BYBLOCK
 62
     0
 48
3.0
100
AcDbBlockReference
  2
_OPEN
 10
297.163964
 20
47.825977
 30
0.0
 41
30.0
 42
30.0
 43
30.0
 50
21.308421
  0
MTEXT
  5
6C8
100
AcDbEntity
  8
0
  6
BYBLOCK
 62
     0
 48
3.0
100
AcDbMText
 10
246.060928
 20
41.847003
 30
0.0
 40
20.0
 41
0.0
 71
     5
 72
     1
  1
\A1;\U+2205100
  7
ED
 11
0.931638
 21
0.363388
 31
0.0
  0
POINT
  5
6C9
100
AcDbEntity
  8
DEFPOINTS
  6
BYBLOCK
 62
     0
 48
3.0
100
AcDbPoint
 10
204.391544
 20
11.682469
 30
0.0
  0
POINT
  5
6CA
100
AcDbEntity
  8
DEFPOINTS
  6
BYBLOCK
 62
     0
 48
3.0
100
AcDbPoint
 10
297.149523
 20
47.863
 30
0.0
  0
POINT
  5
6CB
100
AcDbEntity
  8
DEFPOINTS
  6
BYBLOCK
 62
     0
 48
3.0
100
AcDbPoint
 10
297.163964
 20
47.825977
 30
0.0
  0
ENDBLK
  5
6CC
100
AcDbEntity
  8
0
 48
3.0
100
AcDbBlockEnd
  0
BLOCK
  5
69F
100
AcDbEntity
  8
0
 48
3.0
100
AcDbBlockBegin
  2
*D4
 70
     1
 10
0.0
 20
0.0
 30
0.0
  3
*D4
  1

  0
LINE
  5
6A0
100
AcDbEntity
  8
0
  6
BYBLOCK
 62
     0
 48
3.0
100
AcDbLine
 10
85.007862
 20
31.016492
 30
0.0
 11
85.007862
 21
226.15807
 31
0.0
  0
LINE
  5
6A1
100
AcDbEntity
  8
0
  6
BYBLOCK
 62
     0
 48
3.0
100
AcDbLine
 10
436.913541
 20
37.689477
 30
0.0
 11
436.913541
 21
226.15807
 31
0.0
  0
LINE
  5
6A2
100
AcDbEntity
  8
0
  6
BYBLOCK
 62
     0
 48
3.0
100
AcDbLine
 10
115.007862
 20
224.90807
 30
0.0
 11
406.913541
 21
224.90807
 31
0.0
  0
INSERT
  5
6A3
100
AcDbEntity
  8
0
  6
BYBLOCK
 62
     0
 48
3.0
100
AcDbBlockReference
  2
_OPEN
 10
85.007862
 20
224.90807
 30
0.0
 41
30.0
 42
30.0
 43
30.0
 50
180.0
  0
INSERT
  5
6A4
100
AcDbEntity
  8
0
  6
BYBLOCK
 62
     0
 48
3.0
100
AcDbBlockReference
  2
_OPEN
 10
436.913541
 20
224.90807
 30
0.0
 41
30.0
 42
30.0
 43
30.0
  0
MTEXT
  5
6A5
100
AcDbEntity
  8
0
  6
BYBLOCK
 62
     0
 48
3.0
100
AcDbMText
 10
260.960702
 20
237.910039
 30
0.0
 40
20.0
 41
0.0
 71
     5
 72
     1
  1
\A1;352
  7
ED
  0
POINT
  5
6A6
100
AcDbEntity
  8
DEFPOINTS
  6
BYBLOCK
 62
     0
 48
3.0
100
AcDbPoint
 10
85.007862
 20
30.391492
 30
0.0
  0
POINT
  5
6A7
100
AcDbEntity
  8
DEFPOINTS
  6
BYBLOCK
 62
     0
 48
3.0
100
AcDbPoint
 10
436.913541
 20
37.064477
 30
0.0
  0
POINT
  5
6A8
100
AcDbEntity
  8
DEFPOINTS
  6
BYBLOCK
 62
     0
 48
3.0
100
AcDbPoint
 10
436.913541
 20
224.90807
 30
0.0
  0
ENDBLK
  5
6A9
100
AcDbEntity
  8
0
 48
3.0
100
AcDbBlockEnd
  0
BLOCK
  5
5C6
100
AcDbEntity
  8
0
 48
3.0
100
AcDbBlockBegin
  2
*D5
 70
     1
 10
0.0
 20
0.0
 30
0.0
  3
*D5
  1

  0
LINE
  5
5C7
100
AcDbEntity
  8
0
  6
BYBLOCK
 62
     0
 48
3.0
100
AcDbLine
 10
542.968957
 20
-194.423411
 30
0.0
 11
647.317844
 21
-174.746805
 31
0.0
  0
LINE
  5
5C8
100
AcDbEntity
  8
0
  6
BYBLOCK
 62
     0
 48
3.0
100
AcDbLine
 10
745.440607
 20
-156.244231
 30
0.0
 11
774.921067
 21
-150.685231
 31
0.0
  0
MTEXT
  5
5C9
100
AcDbEntity
  8
0
  6
BYBLOCK
 62
     0
 48
3.0
100
AcDbMText
 10
564.152163
 20
-177.199886
 30
0.0
 40
20.0
 41
0.0
 71
     5
 72
     1
  1
\A1;\U+220540
  7
ED
 11
0.982682
 21
0.1853
 31
0.0
  0
LINE
  5
5CA
100
AcDbEntity
  8
0
  6
BYBLOCK
 62
     0
 48
3.0
100
AcDbLine
 10
715.960147
 20
-161.80323
 30
0.0
 11
676.798304
 21
-169.187805
 31
0.0
  0
INSERT
  5
5CB
100
AcDbEntity
  8
0
  6
BYBLOCK
 62
     0
 48
3.0
100
AcDbBlockReference
  2
_OPEN
 10
715.960147
 20
-161.80323
 30
0.0
 41
30.0
 42
30.0
 43
30.0
 50
190.678623
  0
INSERT
  5
5CC
100
AcDbEntity
  8
0
  6
BYBLOCK
 62
     0
 48
3.0
100
AcDbBlockReference
  2
_OPEN
 10
676.798304
 20
-169.187805
 30
0.0
 41
30.0
 42
30.0
 43
30.0
 50
10.678623
  0
POINT
  5
5CD
100
AcDbEntity
  8
DEFPOINTS
  6
BYBLOCK
 62
     0
 48
3.0
100
AcDbPoint
 10
676.798304
 20
-169.187805
 30
0.0
  0
POINT
  5
5CE
100
AcDbEntity
  8
DEFPOINTS
  6
BYBLOCK
 62
     0
 48
3.0
100
AcDbPoint
 10
715.960147
 20
-161.80323
 30
0.0
  0
ENDBLK
  5
5CF
100
AcDbEntity
  8
0
 48
3.0
100
AcDbBlockEnd
  0
ENDSEC
  0
SECTION
  2
ENTITIES
  0
ARC
  5
84
100
AcDbEntity
  8
V0-OBRYS
  6
CONTINUOUS
 62
    90
 48
3.0
100
AcDbCircle
 10
252.078993
 20
11.947905
 30
0.0
 40
184.244877
100
AcDbArc
 50
2.435915
 51
92.151179
  0
ARC
  5
85
100
AcDbEntity
  8
V0-OBRYS
  6
CONTINUOUS
 62
    90
 48
3.0
100
AcDbCircle
 10
253.71126
 20
27.423874
 30
0.0
 40
168.84074
100
AcDbArc
 50
92.902037
 51
182.595273
  0
ARC
  5
87
100
AcDbEntity
  8
V0-OBRYS
  6
CONTINUOUS
 62
    90
 48
3.0
100
AcDbCircle
 10
286.549277
 20
21.331921
 30
0.0
 40
201.493707
100
AcDbArc
 50
180.441679
 51
222.563343
  0
LINE
  5
88
100
AcDbEntity
  8
V0-OBRYS
  6
CONTINUOUS
 62
    90
 48
3.0
100
AcDbLine
 10
250.785726
 20
-194.298147
 30
0.0
 11
97.905893
 21
-194.298147
 31
0.0
  0
LINE
  5
89
100
AcDbEntity
  8
V0-OBRYS
  6
CONTINUOUS
 62
    90
 48
3.0
100
AcDbLine
 10
168.134878
 20
-154.692889
 30
0.0
 11
97.905893
 21
-154.692889
 31
0.0
  0
LINE
  5
8D
100
AcDbEntity
  8
V0-OBRYS
  6
CONTINUOUS
 62
    90
 48
3.0
100
AcDbLine
 10
87.645893
 20
-134.195518
 30
0.0
 11
87.645893
 21
-214.795518
 31
0.0
  0
CIRCLE
  5
8E
100
AcDbEntity
  8
V0-OBRYS
  6
CONTINUOUS
 62
    90
 48
3.0
100
AcDbCircle
 10
251.3683
 20
29.5332
 30
0.0
 40
149.172673
  0
CIRCLE
  5
8F
100
AcDbEntity
  8
V0-OBRYS
  6
CONTINUOUS
 62
    90
 48
3.0
100
AcDbCircle
 10
251.3683
 20
29.5332
 30
0.0
 40
140.397806
  0
CIRCLE
  5
90
100
AcDbEntity
  8
V0-OBRYS
  6
CONTINUOUS
 62
    90
 48
3.0
100
AcDbCircle
 10
250.640056
 20
29.84936
 30
0.0
 40
69.761009
  0
CIRCLE
  5
91
100
AcDbEntity
  8
V0-OBRYS
  6
CONTINUOUS
 62
    90
 48
3.0
100
AcDbCircle
 10
250.640056
 20
29.84936
 30
0.0
 40
49.912877
  0
LINE
  5
92
100
AcDbEntity
  8
V0-VYPLNE
  6
DASHDOT
 62
    63
 48
3.0
100
AcDbLine
 10
84.879758
 20
29.5332
 30
0.0
 11
457.270808
 21
29.5332
 31
0.0
  0
LINE
  5
93
100
AcDbEntity
  8
V0-VYPLNE
  6
DASHDOT
 62
    63
 48
3.0
100
AcDbLine
 10
251.3683
 20
-193.960121
 30
0.0
 11
251.3683
 21
209.614264
 31
0.0
  0
CIRCLE
  5
94
100
AcDbEntity
  8
V0-VYPLNE
  6
DASHDOT
 62
    63
 48
3.0
100
AcDbCircle
 10
250.640056
 20
29.84936
 30
0.0
 40
60.902472
  0
ARC
  5
95
100
AcDbEntity
  8
V0-OBRYS
  6
CONTINUOUS
 62
    90
 48
3.0
100
AcDbCircle
 10
230.101152
 20
11.219765
 30
0.0
 40
206.246446
100
AcDbArc
 50
275.645187
 51
2.378368
  0
LINE
  5
9A
100
AcDbEntity
  8
V0-OBRYS
  6
CONTINUOUS
 62
    90
 48
3.0
100
AcDbLine
 10
97.905893
 20
-134.195518
 30
0.0
 11
97.905893
 21
-214.795518
 31
0.0
  0
LINE
  5
9E
100
AcDbEntity
  8
V0-VYPLNE
  6
DASHDOT
 62
    63
 48
3.0
100
AcDbLine
 10
251.3683
 20
-174.495518
 30
0.0
 11
63.490402
 21
-174.495518
 31
0.0
  0
LINE
  5
9F
100
AcDbEntity
  8
V0-OBRYS
  6
CONTINUOUS
 62
    90
 48
3.0
100
AcDbLine
 10
97.905893
 20
-134.195518
 30
0.0
 11
87.645893
 21
-134.195518
 31
0.0
  0
LINE
  5
A0
100
AcDbEntity
  8
V0-OBRYS
  6
CONTINUOUS
 62
    90
 48
3.0
100
AcDbLine
 10
97.905893
 20
-214.795518
 30
0.0
 11
87.645893
 21
-214.795518
 31
0.0
  0
LINE
  5
A1
100
AcDbEntity
  8
V0-OBRYS
  6
CONTINUOUS
 62
    90
 48
3.0
100
AcDbLine
 10
129.583119
 20
-151.506751
 30
0.0
 11
139.517475
 21
-126.398137
 31
0.0
  0
ARC
  5
A2
100
AcDbEntity
  8
V0-OBRYS
  6
CONTINUOUS
 62
    90
 48
3.0
100
AcDbCircle
 10
133.025005
 20
-121.376274
 30
0.0
 40
8.208
100
AcDbArc
 50
322.278394
 51
51.424018
  0
ARC
  5
A3
100
AcDbEntity
  8
V0-OBRYS
  6
CONTINUOUS
 62
    90
 48
3.0
100
AcDbCircle
 10
123.09065
 20
-146.484889
 30
0.0
 40
8.208
100
AcDbArc
 50
270.0
 51
322.278394
  0
LINE
  5
A5
100
AcDbEntity
  8
V0-OBRYS
  6
CONTINUOUS
 62
    90
 48
3.0
100
AcDbLine
 10
151.084145
 20
-213.902047
 30
0.0
 11
296.496166
 21
-213.902047
 31
0.0
  0
LINE
  5
A8
100
AcDbEntity
  8
V0-OBRYS
  6
CONTINUOUS
 62
    90
 48
3.0
100
AcDbLine
 10
151.084145
 20
-213.902047
 30
0.0
 11
151.084145
 21
-195.11732
 31
0.0
  0
LINE
  5
A9
100
AcDbEntity
  8
V0-OBRYS
  6
CONTINUOUS
 62
    90
 48
3.0
100
AcDbLine
 10
151.084145
 20
-213.902047
 30
0.0
 11
151.084145
 21
-219.436312
 31
0.0
  0
LINE
  5
AA
100
AcDbEntity
  8
V0-OBRYS
  6
CONTINUOUS
 62
    90
 48
3.0
100
AcDbLine
 10
151.084145
 20
-219.436312
 30
0.0
 11
179.121006
 21
-219.436312
 31
0.0
  0
LINE
  5
AB
100
AcDbEntity
  8
V0-OBRYS
  6
CONTINUOUS
 62
    90
 48
3.0
100
AcDbLine
 10
296.916157
 20
-219.436312
 30
0.0
 11
296.916157
 21
-213.942651
 31
0.0
  0
LINE
  5
AC
100
AcDbEntity
  8
V0-OBRYS
  6
CONTINUOUS
 62
    90
 48
3.0
100
AcDbLine
 10
179.029511
 20
-219.092959
 30
0.0
 11
179.029511
 21
-216.346128
 31
0.0
  0
LINE
  5
AD
100
AcDbEntity
  8
V0-OBRYS
  6
CONTINUOUS
 62
    90
 48
3.0
100
AcDbLine
 10
179.029511
 20
-216.346128
 30
0.0
 11
203.431703
 21
-216.346128
 31
0.0
  0
LINE
  5
AE
100
AcDbEntity
  8
V0-OBRYS
  6
CONTINUOUS
 62
    90
 48
3.0
100
AcDbLine
 10
203.431703
 20
-216.346128
 30
0.0
 11
203.431703
 21
-219.436312
 31
0.0
  0
LINE
  5
AF
100
AcDbEntity
  8
V0-OBRYS
  6
CONTINUOUS
 62
    90
 48
3.0
100
AcDbLine
 10
268.5508
 20
-216.346128
 30
0.0
 11
244.148608
 21
-216.346128
 31
0.0
  0
LINE
  5
B0
100
AcDbEntity
  8
V0-OBRYS
  6
CONTINUOUS
 62
    90
 48
3.0
100
AcDbLine
 10
268.5508
 20
-219.092959
 30
0.0
 11
268.5508
 21
-216.346128
 31
0.0
  0
LINE
  5
B1
100
AcDbEntity
  8
V0-OBRYS
  6
CONTINUOUS
 62
    90
 48
3.0
100
AcDbLine
 10
244.148608
 20
-216.346128
 30
0.0
 11
244.148608
 21
-219.436312
 31
0.0
  0
LINE
  5
B2
100
AcDbEntity
  8
V0-OBRYS
  6
CONTINUOUS
 62
    90
 48
3.0
100
AcDbLine
 10
203.431703
 20
-219.436312
 30
0.0
 11
244.148608
 21
-219.436312
 31
0.0
  0
LINE
  5
B3
100
AcDbEntity
  8
V0-OBRYS
  6
CONTINUOUS
 62
    90
 48
3.0
100
AcDbLine
 10
268.441265
 20
-219.436312
 30
0.0
 11
296.916157
 21
-219.436312
 31
0.0
  0
CIRCLE
  5
B4
100
AcDbEntity
  8
V0-OBRYS
  6
CONTINUOUS
 62
    90
 48
3.0
100
AcDbCircle
 10
207.575505
 20
72.913911
 30
0.0
 40
4.531555
  0
CIRCLE
  5
B5
100
AcDbEntity
  8
V0-OBRYS
  6
CONTINUOUS
 62
    90
 48
3.0
100
AcDbCircle
 10
207.575505
 20
-13.215191
 30
0.0
 40
4.531555
  0
CIRCLE
  5
B6
100
AcDbEntity
  8
V0-OBRYS
  6
CONTINUOUS
 62
    90
 48
3.0
100
AcDbCircle
 10
293.704607
 20
-13.215191
 30
0.0
 40
4.531555
  0
CIRCLE
  5
B7
100
AcDbEntity
  8
V0-OBRYS
  6
CONTINUOUS
 62
    90
 48
3.0
100
AcDbCircle
 10
293.704607
 20
72.913911
 30
0.0
 40
4.531555
  0
LINE
  5
B9
100
AcDbEntity
  8
V0-VYPLNE
  6
DASHDOT
 62
    63
 48
3.0
100
AcDbLine
 10
696.379225
 20
-219.436312
 30
0.0
 11
696.379225
 21
209.614264
 31
0.0
  0
LINE
  5
BA
100
AcDbEntity
  8
V0-VYPLNE
  6
DASHDOT
 62
    63
 48
3.0
100
AcDbLine
 10
528.030684
 20
29.533205
 30
0.0
 11
754.780064
 21
29.5332
 31
0.0
  0
LINE
  5
BB
100
AcDbEntity
  8
V0-VYPLNE
  6
DASHDOT
 62
    63
 48
3.0
100
AcDbLine
 10
784.127856
 20
-174.495518
 30
0.0
 11
601.127415
 21
-174.495518
 31
0.0
  0
CIRCLE
  5
BD
100
AcDbEntity
  8
V0-OBRYS
  6
CONTINUOUS
 62
    90
 48
3.0
100
AcDbCircle
 10
696.379225
 20
-174.495518
 30
0.0
 40
31.5495
  0
LINE
  5
C0
100
AcDbEntity
  8
V0-OBRYS
  6
CONTINUOUS
 62
    90
 48
3.0
100
AcDbLine
 10
551.920119
 20
105.032133
 30
0.0
 11
655.339223
 21
105.032128
 31
0.0
  0
LINE
  5
C2
100
AcDbEntity
  8
V0-OBRYS
  6
CONTINUOUS
 62
    90
 48
3.0
100
AcDbLine
 10
583.298345
 20
105.032128
 30
0.0
 11
583.298345
 21
29.533198
 31
0.0
  0
ARC
  5
C4
100
AcDbEntity
  8
V0-OBRYS
  6
CONTINUOUS
 62
    90
 48
3.0
100
AcDbCircle
 10
921.652775
 20
30.741641
 30
0.0
 40
381.275464
100
AcDbArc
 50
169.404955
 51
180.181597
  0
ARC
  5
C5
100
AcDbEntity
  8
V0-OBRYS
  6
CONTINUOUS
 62
    90
 48
3.0
100
AcDbCircle
 10
551.920119
 20
99.902133
 30
0.0
 40
5.13
100
AcDbArc
 50
90.0
 51
169.404955
  0
ARC
  5
C6
100
AcDbEntity
  8
V0-OBRYS
  6
CONTINUOUS
 62
    90
 48
3.0
100
AcDbCircle
 10
921.652775
 20
28.324776
 30
0.0
 40
381.275464
100
AcDbArc
 50
179.818405
 51
190.595047
  0
LINE
  5
C7
100
AcDbEntity
  8
V0-OBRYS
  6
CONTINUOUS
 62
    90
 48
3.0
100
AcDbLine
 10
583.298347
 20
-45.965731
 30
0.0
 11
583.298345
 21
29.533199
 31
0.0
  0
LINE
  5
C8
100
AcDbEntity
  8
V0-VYPLNE
  6
DASHDOT
 62
    63
 48
3.0
100
AcDbLine
 10
528.030684
 20
29.5332
 30
0.0
 11
655.339225
 21
29.533199
 31
0.0
  0
LINE
  5
C9
100
AcDbEntity
  8
V0-OBRYS
  6
CONTINUOUS
 62
    90
 48
3.0
100
AcDbLine
 10
551.920121
 20
-45.965727
 30
0.0
 11
655.339228
 21
-45.965729
 31
0.0
  0
ARC
  5
CA
100
AcDbEntity
  8
V0-OBRYS
  6
CONTINUOUS
 62
    90
 48
3.0
100
AcDbCircle
 10
551.920121
 20
-40.835727
 30
0.0
 40
5.13
100
AcDbArc
 50
190.595047
 51
270.000002
  0
LINE
  5
CB
100
AcDbEntity
  8
V0-OBRYS
  6
CONTINUOUS
 62
    90
 48
3.0
100
AcDbLine
 10
660.469221
 20
182.257902
 30
0.0
 11
660.469231
 21
-174.495518
 31
0.0
  0
LINE
  5
CE
100
AcDbEntity
  8
V0-OBRYS
  6
CONTINUOUS
 62
    90
 48
3.0
100
AcDbLine
 10
732.28923
 20
182.257902
 30
0.0
 11
732.289239
 21
-174.495516
 31
0.0
  0
ARC
  5
D4
100
AcDbEntity
  8
V0-OBRYS
  6
CONTINUOUS
 62
    90
 48
3.0
100
AcDbCircle
 10
696.379225
 20
120.699889
 30
0.0
 40
75.712
100
AcDbArc
 50
65.771559
 51
114.228441
  0
ARC
  5
D7
100
AcDbEntity
  8
V0-OBRYS
  6
CONTINUOUS
 62
    90
 48
3.0
100
AcDbCircle
 10
668.677221
 20
182.257902
 30
0.0
 40
8.208
100
AcDbArc
 50
114.228441
 51
180.000002
  0
ARC
  5
D8
100
AcDbEntity
  8
V0-OBRYS
  6
CONTINUOUS
 62
    90
 48
3.0
100
AcDbCircle
 10
724.08123
 20
182.257902
 30
0.0
 40
8.208
100
AcDbArc
 50
359.999998
 51
65.771559
  0
LINE
  5
E5
100
AcDbEntity
  8
V0-OBRYS
  6
CONTINUOUS
 62
    90
 48
3.0
100
AcDbLine
 10
583.298345
 20
99.977919
 30
0.0
 11
655.339223
 21
99.977919
 31
0.0
  0
LINE
  5
E6
100
AcDbEntity
  8
V0-OBRYS
  6
CONTINUOUS
 62
    90
 48
3.0
100
AcDbLine
 10
583.298345
 20
94.92371
 30
0.0
 11
655.339224
 21
94.92371
 31
0.0
  0
LINE
  5
E7
100
AcDbEntity
  8
V0-OBRYS
  6
CONTINUOUS
 62
    90
 48
3.0
100
AcDbLine
 10
583.298345
 20
84.815291
 30
0.0
 11
655.339224
 21
84.815291
 31
0.0
  0
LINE
  5
E8
100
AcDbEntity
  8
V0-OBRYS
  6
CONTINUOUS
 62
    90
 48
3.0
100
AcDbLine
 10
583.298345
 20
89.869501
 30
0.0
 11
655.339224
 21
89.869501
 31
0.0
  0
LINE
  5
E9
100
AcDbEntity
  8
V0-OBRYS
  6
CONTINUOUS
 62
    90
 48
3.0
100
AcDbLine
 10
583.298345
 20
69.652663
 30
0.0
 11
655.339224
 21
69.652663
 31
0.0
  0
LINE
  5
EA
100
AcDbEntity
  8
V0-OBRYS
  6
CONTINUOUS
 62
    90
 48
3.0
100
AcDbLine
 10
583.298345
 20
64.598454
 30
0.0
 11
655.339224
 21
64.598454
 31
0.0
  0
LINE
  5
EB
100
AcDbEntity
  8
V0-OBRYS
  6
CONTINUOUS
 62
    90
 48
3.0
100
AcDbLine
 10
583.298345
 20
74.706873
 30
0.0
 11
655.339224
 21
74.706873
 31
0.0
  0
LINE
  5
EC
100
AcDbEntity
  8
V0-OBRYS
  6
CONTINUOUS
 62
    90
 48
3.0
100
AcDbLine
 10
583.298345
 20
79.761082
 30
0.0
 11
655.339224
 21
79.761082
 31
0.0
  0
LINE
  5
ED
100
AcDbEntity
  8
V0-OBRYS
  6
CONTINUOUS
 62
    90
 48
3.0
100
AcDbLine
 10
583.298345
 20
39.327408
 30
0.0
 11
655.339225
 21
39.327408
 31
0.0
  0
LINE
  5
EE
100
AcDbEntity
  8
V0-OBRYS
  6
CONTINUOUS
 62
    90
 48
3.0
100
AcDbLine
 10
583.298345
 20
34.273199
 30
0.0
 11
655.339225
 21
34.273199
 31
0.0
  0
LINE
  5
F0
100
AcDbEntity
  8
V0-OBRYS
  6
CONTINUOUS
 62
    90
 48
3.0
100
AcDbLine
 10
583.298345
 20
29.218989
 30
0.0
 11
660.213855
 21
29.218989
 31
0.0
  0
LINE
  5
F1
100
AcDbEntity
  8
V0-OBRYS
  6
CONTINUOUS
 62
    90
 48
3.0
100
AcDbLine
 10
583.298345
 20
49.435826
 30
0.0
 11
655.339225
 21
49.435826
 31
0.0
  0
LINE
  5
F2
100
AcDbEntity
  8
V0-OBRYS
  6
CONTINUOUS
 62
    90
 48
3.0
100
AcDbLine
 10
583.298345
 20
44.381617
 30
0.0
 11
655.339225
 21
44.381617
 31
0.0
  0
LINE
  5
F3
100
AcDbEntity
  8
V0-OBRYS
  6
CONTINUOUS
 62
    90
 48
3.0
100
AcDbLine
 10
583.298345
 20
54.490036
 30
0.0
 11
655.339225
 21
54.490036
 31
0.0
  0
LINE
  5
F4
100
AcDbEntity
  8
V0-OBRYS
  6
CONTINUOUS
 62
    90
 48
3.0
100
AcDbLine
 10
583.298345
 20
59.544245
 30
0.0
 11
655.339225
 21
59.544245
 31
0.0
  0
LINE
  5
F5
100
AcDbEntity
  8
V0-OBRYS
  6
CONTINUOUS
 62
    90
 48
3.0
100
AcDbLine
 10
583.298345
 20
-16.268894
 30
0.0
 11
647.896574
 21
-16.268894
 31
0.0
  0
LINE
  5
F6
100
AcDbEntity
  8
V0-OBRYS
  6
CONTINUOUS
 62
    90
 48
3.0
100
AcDbLine
 10
583.298345
 20
-21.323103
 30
0.0
 11
646.509197
 21
-21.323103
 31
0.0
  0
LINE
  5
F7
100
AcDbEntity
  8
V0-OBRYS
  6
CONTINUOUS
 62
    90
 48
3.0
100
AcDbLine
 10
583.298345
 20
-31.431522
 30
0.0
 11
643.734441
 21
-31.431522
 31
0.0
  0
LINE
  5
F8
100
AcDbEntity
  8
V0-OBRYS
  6
CONTINUOUS
 62
    90
 48
3.0
100
AcDbLine
 10
583.298345
 20
-26.377313
 30
0.0
 11
645.121819
 21
-26.377313
 31
0.0
  0
LINE
  5
F9
100
AcDbEntity
  8
V0-OBRYS
  6
CONTINUOUS
 62
    90
 48
3.0
100
AcDbLine
 10
583.298345
 20
-41.539941
 30
0.0
 11
640.959685
 21
-41.539941
 31
0.0
  0
LINE
  5
FA
100
AcDbEntity
  8
V0-OBRYS
  6
CONTINUOUS
 62
    90
 48
3.0
100
AcDbLine
 10
583.298345
 20
-36.485731
 30
0.0
 11
642.347063
 21
-36.485731
 31
0.0
  0
LINE
  5
FB
100
AcDbEntity
  8
V0-OBRYS
  6
CONTINUOUS
 62
    90
 48
3.0
100
AcDbLine
 10
583.298345
 20
3.947943
 30
0.0
 11
653.446086
 21
3.947943
 31
0.0
  0
LINE
  5
FC
100
AcDbEntity
  8
V0-OBRYS
  6
CONTINUOUS
 62
    90
 48
3.0
100
AcDbLine
 10
583.298345
 20
-1.106266
 30
0.0
 11
652.058708
 21
-1.106266
 31
0.0
  0
LINE
  5
FD
100
AcDbEntity
  8
V0-OBRYS
  6
CONTINUOUS
 62
    90
 48
3.0
100
AcDbLine
 10
583.298345
 20
-11.214685
 30
0.0
 11
649.283952
 21
-11.214685
 31
0.0
  0
LINE
  5
FE
100
AcDbEntity
  8
V0-OBRYS
  6
CONTINUOUS
 62
    90
 48
3.0
100
AcDbLine
 10
583.298345
 20
-6.160476
 30
0.0
 11
650.67133
 21
-6.160476
 31
0.0
  0
LINE
  5
FF
100
AcDbEntity
  8
V0-OBRYS
  6
CONTINUOUS
 62
    90
 48
3.0
100
AcDbLine
 10
583.298345
 20
14.056361
 30
0.0
 11
655.339226
 21
14.056361
 31
0.0
  0
LINE
  5
100
100
AcDbEntity
  8
V0-OBRYS
  6
CONTINUOUS
 62
    90
 48
3.0
100
AcDbLine
 10
583.298345
 20
9.002152
 30
0.0
 11
654.833464
 21
9.002152
 31
0.0
  0
LINE
  5
101
100
AcDbEntity
  8
V0-OBRYS
  6
CONTINUOUS
 62
    90
 48
3.0
100
AcDbLine
 10
583.298345
 20
19.110571
 30
0.0
 11
655.339226
 21
19.110571
 31
0.0
  0
LINE
  5
102
100
AcDbEntity
  8
V0-OBRYS
  6
CONTINUOUS
 62
    90
 48
3.0
100
AcDbLine
 10
583.298345
 20
24.16478
 30
0.0
 11
655.339226
 21
24.16478
 31
0.0
  0
CIRCLE
  5
103
100
AcDbEntity
  8
V0-OBRYS
  6
CONTINUOUS
 62
    90
 48
3.0
100
AcDbCircle
 10
678.544102
 20
-156.660396
 30
0.0
 40
3.15495
  0
CIRCLE
  5
104
100
AcDbEntity
  8
V0-OBRYS
  6
CONTINUOUS
 62
    90
 48
3.0
100
AcDbCircle
 10
678.544103
 20
-192.330641
 30
0.0
 40
3.15495
  0
CIRCLE
  5
105
100
AcDbEntity
  8
V0-OBRYS
  6
CONTINUOUS
 62
    90
 48
3.0
100
AcDbCircle
 10
714.214349
 20
-192.33064
 30
0.0
 40
3.15495
  0
CIRCLE
  5
106
100
AcDbEntity
  8
V0-OBRYS
  6
CONTINUOUS
 62
    90
 48
3.0
100
AcDbCircle
 10
714.214347
 20
-156.660394
 30
0.0
 40
3.15495
  0
CIRCLE
  5
107
100
AcDbEntity
  8
V0-VYPLNE
  6
DASHDOT
 62
    63
 48
3.0
100
AcDbCircle
 10
696.379225
 20
-174.495518
 30
0.0
 40
25.222673
  0
LINE
  5
10C
100
AcDbEntity
  8
V0-OBRYS
  6
CONTINUOUS
 62
    90
 48
3.0
100
AcDbLine
 10
597.271225
 20
-213.942651
 30
0.0
 11
747.859465
 21
-213.942651
 31
0.0
  0
LINE
  5
10D
100
AcDbEntity
  8
V0-OBRYS
  6
CONTINUOUS
 62
    90
 48
3.0
100
AcDbLine
 10
597.271225
 20
-219.436312
 30
0.0
 11
747.679225
 21
-219.436312
 31
0.0
  0
LINE
  5
10F
100
AcDbEntity
  8
V0-OBRYS
  6
CONTINUOUS
 62
    90
 48
3.0
100
AcDbLine
 10
719.693267
 20
-195.751727
 30
0.0
 11
746.035182
 21
-214.008743
 31
0.0
  0
LINE
  5
110
100
AcDbEntity
  8
V0-OBRYS
  6
CONTINUOUS
 62
    90
 48
3.0
100
AcDbLine
 10
747.859465
 20
-213.942651
 30
0.0
 11
747.859465
 21
-217.487332
 31
0.0
  0
LINE
  5
111
100
AcDbEntity
  8
V0-OBRYS
  6
CONTINUOUS
 62
    90
 48
3.0
100
AcDbLine
 10
597.271225
 20
-213.942651
 30
0.0
 11
597.271225
 21
-219.436312
 31
0.0
  0
LINE
  5
114
100
AcDbEntity
  8
V0-OBRYS
  6
CONTINUOUS
 62
    90
 48
3.0
100
AcDbLine
 10
655.339221
 20
174.881577
 30
0.0
 11
655.339229
 21
-133.815182
 31
0.0
  0
LINE
  5
116
100
AcDbEntity
  8
V0-OBRYS
  6
CONTINUOUS
 62
    90
 48
3.0
100
AcDbLine
 10
655.339221
 20
174.881577
 30
0.0
 11
660.701231
 21
174.881577
 31
0.0
  0
LINE
  5
117
100
AcDbEntity
  8
V0-OBRYS
  6
CONTINUOUS
 62
    90
 48
3.0
100
AcDbLine
 10
671.139628
 20
-149.477111
 30
0.0
 11
674.437261
 21
-149.477111
 31
0.0
  0
LINE
  5
125
100
AcDbEntity
  8
V0-OBRYS
  6
CONTINUOUS
 62
    90
 48
3.0
100
AcDbLine
 10
421.561001
 20
-461.351744
 30
0.0
 11
102.975113
 21
-461.351752
 31
0.0
  0
LINE
  5
126
100
AcDbEntity
  8
V0-OBRYS
  6
CONTINUOUS
 62
    90
 48
3.0
100
AcDbLine
 10
414.184677
 20
-456.221744
 30
0.0
 11
107.019917
 21
-456.221752
 31
0.0
  0
LINE
  5
127
100
AcDbEntity
  8
V0-VYPLNE
  6
DASHDOT
 62
    63
 48
3.0
100
AcDbLine
 10
59.729411
 20
-497.261748
 30
0.0
 11
448.917364
 21
-497.261748
 31
0.0
  0
LINE
  5
128
100
AcDbEntity
  8
V0-OBRYS
  6
CONTINUOUS
 62
    90
 48
3.0
100
AcDbLine
 10
421.561001
 20
-533.171752
 30
0.0
 11
102.975113
 21
-533.171744
 31
0.0
  0
ARC
  5
129
100
AcDbEntity
  8
V0-OBRYS
  6
CONTINUOUS
 62
    90
 48
3.0
100
AcDbCircle
 10
252.576735
 20
-722.765297
 30
0.0
 40
381.275464
100
AcDbArc
 50
79.404955
 51
90.181597
  0
LINE
  5
12A
100
AcDbEntity
  8
V0-OBRYS
  6
CONTINUOUS
 62
    90
 48
3.0
100
AcDbLine
 10
326.867228
 20
-384.963387
 30
0.0
 11
251.368297
 21
-384.963387
 31
0.0
  0
LINE
  5
133
100
AcDbEntity
  8
V0-VYPLNE
  6
DASHDOT
 62
    63
 48
3.0
100
AcDbLine
 10
251.3683
 20
-329.143206
 30
0.0
 11
251.3683
 21
-551.95131
 31
0.0
  0
LINE
  5
13A
100
AcDbEntity
  8
V0-OBRYS
  6
CONTINUOUS
 62
    90
 48
3.0
100
AcDbLine
 10
107.019917
 20
-456.221752
 30
0.0
 11
107.019917
 21
-461.583757
 31
0.0
  0
LINE
  5
13B
100
AcDbEntity
  8
V0-VYPLNE
  6
DASHDOT
 62
    63
 48
3.0
100
AcDbLine
 10
251.368294
 20
-329.143206
 30
0.0
 11
251.368298
 21
-456.221748
 31
0.0
  0
LINE
  5
13C
100
AcDbEntity
  8
V0-OBRYS
  6
CONTINUOUS
 62
    90
 48
3.0
100
AcDbLine
 10
175.869367
 20
-353.032644
 30
0.0
 11
175.86937
 21
-456.22175
 31
0.0
  0
ARC
  5
13D
100
AcDbEntity
  8
V0-OBRYS
  6
CONTINUOUS
 62
    90
 48
3.0
100
AcDbCircle
 10
250.15987
 20
-722.765297
 30
0.0
 40
381.275464
100
AcDbArc
 50
89.818405
 51
100.595047
  0
ARC
  5
13E
100
AcDbEntity
  8
V0-OBRYS
  6
CONTINUOUS
 62
    90
 48
3.0
100
AcDbCircle
 10
180.999367
 20
-353.032644
 30
0.0
 40
5.13
100
AcDbArc
 50
100.595047
 51
180.000002
  0
LINE
  5
13F
100
AcDbEntity
  8
V0-OBRYS
  6
CONTINUOUS
 62
    90
 48
3.0
100
AcDbLine
 10
175.869368
 20
-384.963389
 30
0.0
 11
251.368299
 21
-384.963387
 31
0.0
  0
LINE
  5
140
100
AcDbEntity
  8
V0-OBRYS
  6
CONTINUOUS
 62
    90
 48
3.0
100
AcDbLine
 10
190.403577
 20
-384.963387
 30
0.0
 11
190.403577
 21
-456.22175
 31
0.0
  0
LINE
  5
141
100
AcDbEntity
  8
V0-OBRYS
  6
CONTINUOUS
 62
    90
 48
3.0
100
AcDbLine
 10
185.349368
 20
-384.963387
 30
0.0
 11
185.349368
 21
-456.22175
 31
0.0
  0
LINE
  5
142
100
AcDbEntity
  8
V0-OBRYS
  6
CONTINUOUS
 62
    90
 48
3.0
100
AcDbLine
 10
180.295159
 20
-384.963387
 30
0.0
 11
180.295159
 21
-456.22175
 31
0.0
  0
LINE
  5
143
100
AcDbEntity
  8
V0-OBRYS
  6
CONTINUOUS
 62
    90
 48
3.0
100
AcDbLine
 10
235.891461
 20
-384.963387
 30
0.0
 11
235.891461
 21
-456.221748
 31
0.0
  0
LINE
  5
144
100
AcDbEntity
  8
V0-OBRYS
  6
CONTINUOUS
 62
    90
 48
3.0
100
AcDbLine
 10
240.94567
 20
-384.963387
 30
0.0
 11
240.94567
 21
-456.221748
 31
0.0
  0
LINE
  5
145
100
AcDbEntity
  8
V0-OBRYS
  6
CONTINUOUS
 62
    90
 48
3.0
100
AcDbLine
 10
245.999879
 20
-384.963387
 30
0.0
 11
245.999879
 21
-456.221748
 31
0.0
  0
LINE
  5
146
100
AcDbEntity
  8
V0-OBRYS
  6
CONTINUOUS
 62
    90
 48
3.0
100
AcDbLine
 10
256.108298
 20
-384.963387
 30
0.0
 11
256.108298
 21
-456.221748
 31
0.0
  0
LINE
  5
147
100
AcDbEntity
  8
V0-OBRYS
  6
CONTINUOUS
 62
    90
 48
3.0
100
AcDbLine
 10
261.162507
 20
-384.963387
 30
0.0
 11
261.162507
 21
-456.221748
 31
0.0
  0
LINE
  5
148
100
AcDbEntity
  8
V0-OBRYS
  6
CONTINUOUS
 62
    90
 48
3.0
100
AcDbLine
 10
266.216716
 20
-384.963387
 30
0.0
 11
266.216716
 21
-456.221747
 31
0.0
  0
LINE
  5
149
100
AcDbEntity
  8
V0-OBRYS
  6
CONTINUOUS
 62
    90
 48
3.0
100
AcDbLine
 10
271.270926
 20
-384.963387
 30
0.0
 11
271.270926
 21
-456.221747
 31
0.0
  0
LINE
  5
14A
100
AcDbEntity
  8
V0-OBRYS
  6
CONTINUOUS
 62
    90
 48
3.0
100
AcDbLine
 10
276.325135
 20
-384.963387
 30
0.0
 11
276.325135
 21
-456.221747
 31
0.0
  0
LINE
  5
14B
100
AcDbEntity
  8
V0-OBRYS
  6
CONTINUOUS
 62
    90
 48
3.0
100
AcDbLine
 10
230.837251
 20
-384.963387
 30
0.0
 11
230.837251
 21
-455.715986
 31
0.0
  0
LINE
  5
14C
100
AcDbEntity
  8
V0-OBRYS
  6
CONTINUOUS
 62
    90
 48
3.0
100
AcDbLine
 10
225.783042
 20
-384.963387
 30
0.0
 11
225.783042
 21
-456.221749
 31
0.0
  0
LINE
  5
14D
100
AcDbEntity
  8
V0-OBRYS
  6
CONTINUOUS
 62
    90
 48
3.0
100
AcDbLine
 10
220.728833
 20
-384.963387
 30
0.0
 11
220.728833
 21
-456.221749
 31
0.0
  0
LINE
  5
14E
100
AcDbEntity
  8
V0-OBRYS
  6
CONTINUOUS
 62
    90
 48
3.0
100
AcDbLine
 10
251.054088
 20
-384.963387
 30
0.0
 11
251.054088
 21
-461.096377
 31
0.0
  0
LINE
  5
14F
100
AcDbEntity
  8
V0-OBRYS
  6
CONTINUOUS
 62
    90
 48
3.0
100
AcDbLine
 10
215.674624
 20
-384.963387
 30
0.0
 11
215.674624
 21
-456.221749
 31
0.0
  0
LINE
  5
150
100
AcDbEntity
  8
V0-OBRYS
  6
CONTINUOUS
 62
    90
 48
3.0
100
AcDbLine
 10
210.620414
 20
-384.963387
 30
0.0
 11
210.620414
 21
-456.221749
 31
0.0
  0
LINE
  5
151
100
AcDbEntity
  8
V0-OBRYS
  6
CONTINUOUS
 62
    90
 48
3.0
100
AcDbLine
 10
205.566205
 20
-384.963387
 30
0.0
 11
205.566205
 21
-456.221749
 31
0.0
  0
LINE
  5
152
100
AcDbEntity
  8
V0-OBRYS
  6
CONTINUOUS
 62
    90
 48
3.0
100
AcDbLine
 10
200.511996
 20
-384.963387
 30
0.0
 11
200.511996
 21
-456.221749
 31
0.0
  0
LINE
  5
153
100
AcDbEntity
  8
V0-OBRYS
  6
CONTINUOUS
 62
    90
 48
3.0
100
AcDbLine
 10
195.457786
 20
-384.963387
 30
0.0
 11
195.457786
 21
-456.22175
 31
0.0
  0
ARC
  5
156
100
AcDbEntity
  8
V0-OBRYS
  6
CONTINUOUS
 62
    90
 48
3.0
100
AcDbCircle
 10
360.002988
 20
-497.261748
 30
0.0
 40
75.712
100
AcDbArc
 50
335.771559
 51
24.228441
  0
LINE
  5
157
100
AcDbEntity
  8
V0-OBRYS
  6
CONTINUOUS
 62
    90
 48
3.0
100
AcDbLine
 10
326.867228
 20
-353.032642
 30
0.0
 11
326.867228
 21
-456.221746
 31
0.0
  0
ARC
  5
158
100
AcDbEntity
  8
V0-OBRYS
  6
CONTINUOUS
 62
    90
 48
3.0
100
AcDbCircle
 10
321.737228
 20
-353.032642
 30
0.0
 40
5.13
100
AcDbArc
 50
0.0
 51
79.404955
  0
LINE
  5
159
100
AcDbEntity
  8
V0-OBRYS
  6
CONTINUOUS
 62
    90
 48
3.0
100
AcDbLine
 10
281.379344
 20
-384.963387
 30
0.0
 11
281.379344
 21
-456.221747
 31
0.0
  0
LINE
  5
15A
100
AcDbEntity
  8
V0-OBRYS
  6
CONTINUOUS
 62
    90
 48
3.0
100
AcDbLine
 10
286.433553
 20
-384.963387
 30
0.0
 11
286.433553
 21
-456.221747
 31
0.0
  0
LINE
  5
15B
100
AcDbEntity
  8
V0-OBRYS
  6
CONTINUOUS
 62
    90
 48
3.0
100
AcDbLine
 10
291.487763
 20
-384.963387
 30
0.0
 11
291.487763
 21
-456.221747
 31
0.0
  0
LINE
  5
15C
100
AcDbEntity
  8
V0-OBRYS
  6
CONTINUOUS
 62
    90
 48
3.0
100
AcDbLine
 10
296.541972
 20
-384.963387
 30
0.0
 11
296.541972
 21
-456.221747
 31
0.0
  0
LINE
  5
15D
100
AcDbEntity
  8
V0-OBRYS
  6
CONTINUOUS
 62
    90
 48
3.0
100
AcDbLine
 10
301.596181
 20
-384.963387
 30
0.0
 11
301.596181
 21
-456.221746
 31
0.0
  0
LINE
  5
15E
100
AcDbEntity
  8
V0-OBRYS
  6
CONTINUOUS
 62
    90
 48
3.0
100
AcDbLine
 10
306.65039
 20
-384.963387
 30
0.0
 11
306.65039
 21
-456.221746
 31
0.0
  0
LINE
  5
15F
100
AcDbEntity
  8
V0-OBRYS
  6
CONTINUOUS
 62
    90
 48
3.0
100
AcDbLine
 10
311.7046
 20
-384.963387
 30
0.0
 11
311.7046
 21
-456.221746
 31
0.0
  0
LINE
  5
160
100
AcDbEntity
  8
V0-OBRYS
  6
CONTINUOUS
 62
    90
 48
3.0
100
AcDbLine
 10
316.758809
 20
-384.963387
 30
0.0
 11
316.758809
 21
-456.221746
 31
0.0
  0
LINE
  5
161
100
AcDbEntity
  8
V0-OBRYS
  6
CONTINUOUS
 62
    90
 48
3.0
100
AcDbLine
 10
321.813018
 20
-384.963387
 30
0.0
 11
321.813018
 21
-456.221746
 31
0.0
  0
ARC
  5
162
100
AcDbEntity
  8
V0-OBRYS
  6
CONTINUOUS
 62
    90
 48
3.0
100
AcDbCircle
 10
421.561001
 20
-469.559744
 30
0.0
 40
8.208
100
AcDbArc
 50
24.228441
 51
90.000002
  0
LINE
  5
163
100
AcDbEntity
  8
V0-OBRYS
  6
CONTINUOUS
 62
    90
 48
3.0
100
AcDbLine
 10
414.184677
 20
-456.221744
 30
0.0
 11
414.184677
 21
-461.583753
 31
0.0
  0
ARC
  5
164
100
AcDbEntity
  8
V0-OBRYS
  6
CONTINUOUS
 62
    90
 48
3.0
100
AcDbCircle
 10
421.561001
 20
-524.963752
 30
0.0
 40
8.208
100
AcDbArc
 50
269.999998
 51
335.771559
  0
ARC
  5
16D
100
AcDbEntity
  8
V0-OBRYS
  6
CONTINUOUS
 62
    90
 48
3.0
100
AcDbCircle
 10
102.975113
 20
-524.963752
 30
0.0
 40
8.208
100
AcDbArc
 50
204.228441
 51
270.000002
  0
ARC
  5
16E
100
AcDbEntity
  8
V0-OBRYS
  6
CONTINUOUS
 62
    90
 48
3.0
100
AcDbCircle
 10
164.533126
 20
-497.261748
 30
0.0
 40
75.712
100
AcDbArc
 50
155.771559
 51
204.228441
  0
ARC
  5
16F
100
AcDbEntity
  8
V0-OBRYS
  6
CONTINUOUS
 62
    90
 48
3.0
100
AcDbCircle
 10
102.975113
 20
-469.559744
 30
0.0
 40
8.208
100
AcDbArc
 50
89.999998
 51
155.771559
  0
LINE
  5
172
100
AcDbEntity
  8
V0-OBRYS
  6
CONTINUOUS
 62
    90
 48
3.0
100
AcDbLine
 10
151.765947
 20
-400.023976
 30
0.0
 11
151.765947
 21
-455.612394
 31
0.0
  0
LINE
  5
173
100
AcDbEntity
  8
V0-OBRYS
  6
CONTINUOUS
 62
    90
 48
3.0
100
AcDbLine
 10
345.839699
 20
-400.023976
 30
0.0
 11
345.839699
 21
-456.221746
 31
0.0
  0
LINE
  5
174
100
AcDbEntity
  8
V0-OBRYS
  6
CONTINUOUS
 62
    90
 48
3.0
100
AcDbLine
 10
342.761699
 20
-396.945976
 30
0.0
 11
326.867228
 21
-396.945976
 31
0.0
  0
LINE
  5
175
100
AcDbEntity
  8
V0-OBRYS
  6
CONTINUOUS
 62
    90
 48
3.0
100
AcDbLine
 10
156.895947
 20
-396.945976
 30
0.0
 11
156.895947
 21
-455.612394
 31
0.0
  0
LINE
  5
176
100
AcDbEntity
  8
V0-OBRYS
  6
CONTINUOUS
 62
    90
 48
3.0
100
AcDbLine
 10
340.709699
 20
-396.945976
 30
0.0
 11
340.709699
 21
-456.221746
 31
0.0
  0
LINE
  5
177
100
AcDbEntity
  8
V0-OBRYS
  6
CONTINUOUS
 62
    90
 48
3.0
100
AcDbLine
 10
175.869368
 20
-396.945976
 30
0.0
 11
154.843947
 21
-396.945976
 31
0.0
  0
ARC
  5
17A
100
AcDbEntity
  8
V0-OBRYS
  6
CONTINUOUS
 62
    90
 48
3.0
100
AcDbCircle
 10
154.843947
 20
-400.023976
 30
0.0
 40
3.078
100
AcDbArc
 50
90.0
 51
180.0
  0
ARC
  5
17B
100
AcDbEntity
  8
V0-OBRYS
  6
CONTINUOUS
 62
    90
 48
3.0
100
AcDbCircle
 10
342.761699
 20
-400.023976
 30
0.0
 40
3.078
100
AcDbArc
 50
0.0
 51
90.0
  0
LINE
  5
17C
100
AcDbEntity
  8
V0-OBRYS
  6
CONTINUOUS
 62
    90
 48
3.0
100
AcDbLine
 10
326.867228
 20
-538.30175
 30
0.0
 11
175.869372
 21
-538.301746
 31
0.0
  0
LINE
  5
180
100
AcDbEntity
  8
V0-OBRYS
  6
CONTINUOUS
 62
    90
 48
3.0
100
AcDbLine
 10
175.869372
 20
-533.171746
 30
0.0
 11
175.869372
 21
-538.301746
 31
0.0
  0
LINE
  5
181
100
AcDbEntity
  8
V0-OBRYS
  6
CONTINUOUS
 62
    90
 48
3.0
100
AcDbLine
 10
326.867228
 20
-533.17175
 30
0.0
 11
326.867228
 21
-538.30175
 31
0.0
  0
LINE
  5
182
100
AcDbEntity
  8
V0-OBRYS
  6
CONTINUOUS
 62
    90
 48
3.0
100
AcDbLine
 10
655.339221
 20
174.881577
 30
0.0
 11
655.339229
 21
-133.815182
 31
0.0
  0
LINE
  5
183
100
AcDbEntity
  8
V0-OBRYS
  6
CONTINUOUS
 62
    90
 48
3.0
100
AcDbLine
 10
737.419228
 20
105.032128
 30
0.0
 11
737.419223
 21
-45.965727
 31
0.0
  0
LINE
  5
184
100
AcDbEntity
  8
V0-OBRYS
  6
CONTINUOUS
 62
    90
 48
3.0
100
AcDbLine
 10
732.289228
 20
105.032128
 30
0.0
 11
737.419228
 21
105.032128
 31
0.0
  0
LINE
  5
185
100
AcDbEntity
  8
V0-OBRYS
  6
CONTINUOUS
 62
    90
 48
3.0
100
AcDbLine
 10
732.289223
 20
-45.965727
 30
0.0
 11
737.419223
 21
-45.965727
 31
0.0
  0
ARC
  5
188
100
AcDbEntity
  8
V0-OBRYS
  6
CONTINUOUS
 62
    90
 48
3.0
100
AcDbCircle
 10
168.134878
 20
-149.562889
 30
0.0
 40
5.13
100
AcDbArc
 50
270.0
 51
0.0
  0
CIRCLE
  5
277
100
AcDbEntity
  8
V0-OBRYS
  6
CONTINUOUS
 62
    90
 48
3.0
100
AcDbCircle
 10
696.379225
 20
-174.495518
 30
0.0
 40
19.926
  0
DIMENSION
  5
2AB
100
AcDbEntity
  8
V0-VYPLNE
  6
CONTINUOUS
 62
    41
 48
3.0
100
AcDbDimension
  2
*D1
 10
48.077261
 20
-214.795518
 30
0.0
 11
35.077261
 21
-9.288454
 31
0.0
 70
    32
  3
ED20
100
AcDbAlignedDimension
 13
251.3683
 23
196.218609
 33
0.0
 14
87.645893
 24
-214.795518
 34
0.0
 50
90.0
100
AcDbRotatedDimension
1001
ACAD
1000
DSTYLE
1002
{
1070
   140
1040
30.0
1070
   340
1005
1F
1070
    41
1040
30.0
1002
}
  0
DIMENSION
  5
2B8
100
AcDbEntity
  8
V0-VYPLNE
  6
CONTINUOUS
 62
    41
 48
3.0
100
AcDbDimension
  2
*D2
 10
737.419225
 20
226.507373
 30
0.0
 11
646.0051
 21
226.507373
 31
0.0
 70
   160
  3
ED20
100
AcDbAlignedDimension
 13
540.379225
 23
29.533205
 33
0.0
 14
737.419225
 24
29.533201
 34
0.0
100
AcDbRotatedDimension
1001
ACAD
1000
DSTYLE
1002
{
1070
   140
1040
30.0
1070
   340
1005
1F
1070
    41
1040
30.0
1002
}
  0
DIMENSION
  5
307
100
AcDbEntity
  8
V0-VYPLNE
  6
CONTINUOUS
 62
    41
 48
3.0
100
AcDbDimension
  2
*D3
 10
297.163964
 20
47.825977
 30
0.0
 11
246.060928
 21
41.847003
 31
0.0
 70
    33
  1
%%c<>
  3
ED20
100
AcDbAlignedDimension
 13
204.391544
 23
11.682469
 33
0.0
 14
297.149523
 24
47.863
 34
0.0
1001
ACAD
1000
DSTYLE
1002
{
1070
   140
1040
30.0
1070
   340
1005
1F
1070
    41
1040
30.0
1002
}
  0
MTEXT
  5
329
100
AcDbEntity
  8
V0-ZBYTEK
 62
    51
100
AcDbMText
 10
677.92635
 20
-462.419312
 30
0.0
 40
23.814
 41
674.60364
 71
     5
 72
     5
  1
SPECIALNI RADIALNI\PVENTILATOR
  7
ED10
  0
MTEXT
  5
32A
100
AcDbEntity
  8
V0-NAZVY
100
AcDbMText
 10
667.012463
 20
-380.684202
 30
0.0
 40
42.525
 41
349.7945
 71
     5
 72
     5
  1
CBT-40
  7
ED10
  0
MTEXT
  5
32B
100
AcDbEntity
  8
V0-NAZVY
100
AcDbMText
 10
568.561323
 20
-97.621669
 30
0.0
 40
29.7675
 41
244.8562
 71
     5
 72
     5
  1
CBT-40
  7
ED10
  0
MTEXT
  5
32C
100
AcDbEntity
  8
V0-NAZVY
100
AcDbMText
 10
242.074457
 20
-256.470815
 30
0.0
 40
29.7675
 41
244.8562
 71
     5
 72
     5
  1
CBT-40
  7
ED10
  0
MTEXT
  5
32D
100
AcDbEntity
  8
V0-NAZVY
100
AcDbMText
 10
245.958506
 20
-574.708536
 30
0.0
 40
29.7675
 41
244.8562
 71
     5
 72
     5
  1
CBT-40
  7
ED10
  0
DIMENSION
  5
349
100
AcDbEntity
  8
V0-VYPLNE
  6
CONTINUOUS
 62
    41
 48
3.0
100
AcDbDimension
  2
*D4
 10
436.913541
 20
224.90807
 30
0.0
 11
260.960702
 21
237.910039
 31
0.0
 70
    32
  3
ED20
100
AcDbAlignedDimension
 13
85.007862
 23
30.391492
 33
0.0
 14
436.913541
 24
37.064477
 34
0.0
100
AcDbRotatedDimension
1001
ACAD
1000
DSTYLE
1002
{
1070
   140
1040
30.0
1070
   340
1005
1F
1070
    41
1040
30.0
1002
}
  0
POINT
  5
364
100
AcDbEntity
  8
V0-VYPLNE
  6
CONTINUOUS
 62
    41
 48
3.0
100
AcDbPoint
 10
87.645893
 20
-174.495518
 30
0.0
  0
POINT
  5
365
100
AcDbEntity
  8
V0-VYPLNE
  6
CONTINUOUS
 62
    41
 48
3.0
100
AcDbPoint
 10
84.645893
 20
-496.965913
 30
0.0
  0
POINT
  5
366
100
AcDbEntity
  8
V0-VYPLNE
  6
CONTINUOUS
 62
    41
 48
3.0
100
AcDbPoint
 10
696.379225
 20
-174.495518
 30
0.0
  0
DIMENSION
  5
5D0
100
AcDbEntity
  8
V0-VYPLNE
  6
CONTINUOUS
 62
    41
 48
3.0
100
AcDbDimension
  2
*D5
 10
715.960147
 20
-170.80323
 30
0.0
 11
566.561063
 21
-198.974752
 31
0.0
 12
0.0
 22
-9.0
 32
0.0
 70
   163
  3
ED20
100
AcDbDiametricDimension
 15
676.798304
 25
-178.187805
 35
0.0
 40
0.0
1001
ACAD
1000
DSTYLE
1002
{
1070
   288
1070
     1
1070
   140
1040
30.0
1070
   340
1005
1F
1070
    41
1040
30.0
1002
}
  0
LINE
  5
5D1
100
AcDbEntity
  8
V0-OBRYS
  6
CONTINUOUS
 62
    90
 48
3.0
100
AcDbLine
 10
655.339229
 20
-133.815182
 30
0.0
 11
660.875326
 21
-133.815182
 31
0.0
  0
ARC
  5
5D2
100
AcDbEntity
  8
V0-OBRYS
  6
CONTINUOUS
 62
    90
 48
3.0
100
AcDbCircle
 10
696.379235
 20
-174.495517
 30
0.0
 40
35.910004
100
AcDbArc
 50
180.000002
 51
0.000002
  0
LINE
  5
6AA
100
AcDbEntity
  8
V0-OBRYS
  6
CONTINUOUS
 62
    90
 48
3.0
100
AcDbLine
 10
296.496166
 20
-213.902047
 30
0.0
 11
361.894074
 21
-148.939593
 31
0.0
  0
LINE
  5
6B6
100
AcDbEntity
  8
V0-OBRYS
  6
CONTINUOUS
 62
    90
 48
3.0
100
AcDbLine
 10
663.513409
 20
-189.96495
 30
0.0
 11
605.36109
 21
-214.019889
 31
0.0
  0
LINE
  5
6E5
100
AcDbEntity
  8
V0-OBRYS
  6
CONTINUOUS
 62
    90
 48
3.0
100
AcDbLine
 10
94.905893
 20
-456.665913
 30
0.0
 11
94.905893
 21
-467.523634
 31
0.0
  0
LINE
  5
6E6
100
AcDbEntity
  8
V0-OBRYS
  6
CONTINUOUS
 62
    90
 48
3.0
100
AcDbLine
 10
84.645893
 20
-456.665913
 30
0.0
 11
84.645893
 21
-537.265913
 31
0.0
  0
LINE
  5
6E7
100
AcDbEntity
  8
V0-OBRYS
  6
CONTINUOUS
 62
    90
 48
3.0
100
AcDbLine
 10
94.905893
 20
-537.265913
 30
0.0
 11
84.645893
 21
-537.265913
 31
0.0
  0
LINE
  5
6E8
100
AcDbEntity
  8
V0-OBRYS
  6
CONTINUOUS
 62
    90
 48
3.0
100
AcDbLine
 10
94.905893
 20
-456.665913
 30
0.0
 11
84.645893
 21
-456.665913
 31
0.0
  0
LINE
  5
6E9
100
AcDbEntity
  8
V0-OBRYS
  6
CONTINUOUS
 62
    90
 48
3.0
100
AcDbLine
 10
94.905893
 20
-526.999861
 30
0.0
 11
94.905893
 21
-537.265913
 31
0.0
  0
ENDSEC
  0
SECTION
  2
OBJECTS
  0
DICTIONARY
  5
1A
100
AcDbDictionary
  3
ACAD_GROUP
350
18
  3
ACAD_MLINESTYLE
350
19
  3
ACDBVARIABLEDICTIONARY
350
D9
  0
DICTIONARY
  5
18
102
{ACAD_REACTORS
330
1A
102
}
100
AcDbDictionary
  0
DICTIONARY
  5
19
102
{ACAD_REACTORS
330
1A
102
}
100
AcDbDictionary
  3
STANDARD
350
1D
  0
DICTIONARY
  5
D9
102
{ACAD_REACTORS
330
1A
102
}
100
AcDbDictionary
  3
SORTENTS
350
DA
  0
MLINESTYLE
  5
1D
102
{ACAD_REACTORS
330
19
102
}
100
AcDbMlineStyle
  2
STANDARD
 70
     0
  3

 62
     0
 51
90.0
 52
90.0
 71
     2
 49
0.5
 62
   256
  6
BYLAYER
 49
-0.5
 62
   256
  6
BYLAYER
  0
DICTIONARYVAR
  5
DA
102
{ACAD_REACTORS
330
D9
102
}
100
DictionaryVariables
280
     0
  1
96
  0
ENDSEC
  0
EOF
