  0
SECTION
  2
HEADER
  9
$ACADVER
  1
AC1014
  9
$ACADMAINTVER
 70
     9
  9
$DWGCODEPAGE
  3
ANSI_1250
  9
$INSBASE
 10
0.0
 20
0.0
 30
0.0
  9
$EXTMIN
 10
-393.4791474285716
 20
-997.374287
 30
0.0
  9
$EXTMAX
 10
1143.398791343017
 20
127.4300022307692
 30
0.0
  9
$LIMMIN
 10
0.0
 20
0.0
  9
$LIMMAX
 10
0.0
 20
0.0
  9
$ORTHOMODE
 70
     1
  9
$REGENMODE
 70
     1
  9
$FILLMODE
 70
     1
  9
$QTEXTMODE
 70
     0
  9
$MIRRTEXT
 70
     1
  9
$DRAGMODE
 70
     2
  9
$LTSCALE
 40
1.0
  9
$OSMODE
 70
    37
  9
$ATTMODE
 70
     1
  9
$TEXTSIZE
 40
0.2
  9
$TRACEWID
 40
0.05
  9
$TEXTSTYLE
  7
ED30
  9
$CLAYER
  8
V0-OBRYS
  9
$CELTYPE
  6
CONTINUOUS
  9
$CECOLOR
 62
    90
  9
$CELTSCALE
 40
1.0
  9
$DELOBJ
 70
     1
  9
$DISPSILH
 70
     0
  9
$DIMSCALE
 40
1.0
  9
$DIMASZ
 40
20.0
  9
$DIMEXO
 40
1.0
  9
$DIMDLI
 40
0.38
  9
$DIMRND
 40
0.0
  9
$DIMDLE
 40
0.0
  9
$DIMEXE
 40
1.25
  9
$DIMTP
 40
0.0
  9
$DIMTM
 40
0.0
  9
$DIMTXT
 40
20.0
  9
$DIMCEN
 40
0.09
  9
$DIMTSZ
 40
0.0
  9
$DIMTOL
 70
     0
  9
$DIMLIM
 70
     0
  9
$DIMTIH
 70
     0
  9
$DIMTOH
 70
     0
  9
$DIMSE1
 70
     0
  9
$DIMSE2
 70
     0
  9
$DIMTAD
 70
     1
  9
$DIMZIN
 70
     0
  9
$DIMBLK
  1
OPEN
  9
$DIMASO
 70
     1
  9
$DIMSHO
 70
     1
  9
$DIMPOST
  1

  9
$DIMAPOST
  1

  9
$DIMALT
 70
     0
  9
$DIMALTD
 70
     2
  9
$DIMALTF
 40
25.4
  9
$DIMLFAC
 40
1.0
  9
$DIMTOFL
 70
     1
  9
$DIMTVP
 40
0.0
  9
$DIMTIX
 70
     1
  9
$DIMSOXD
 70
     0
  9
$DIMSAH
 70
     0
  9
$DIMBLK1
  1

  9
$DIMBLK2
  1

  9
$DIMSTYLE
  2
ED20
  9
$DIMCLRD
 70
     0
  9
$DIMCLRE
 70
     0
  9
$DIMCLRT
 70
     0
  9
$DIMTFAC
 40
1.0
  9
$DIMGAP
 40
1.5
  9
$DIMJUST
 70
     0
  9
$DIMSD1
 70
     0
  9
$DIMSD2
 70
     0
  9
$DIMTOLJ
 70
     1
  9
$DIMTZIN
 70
     0
  9
$DIMALTZ
 70
     0
  9
$DIMALTTZ
 70
     0
  9
$DIMFIT
 70
     3
  9
$DIMUPT
 70
     1
  9
$DIMUNIT
 70
     2
  9
$DIMDEC
 70
     0
  9
$DIMTDEC
 70
     4
  9
$DIMALTU
 70
     2
  9
$DIMALTTD
 70
     2
  9
$DIMTXSTY
  7
ED20
  9
$DIMAUNIT
 70
     0
  9
$LUNITS
 70
     2
  9
$LUPREC
 70
     4
  9
$SKETCHINC
 40
0.1
  9
$FILLETRAD
 40
0.5
  9
$AUNITS
 70
     0
  9
$AUPREC
 70
     0
  9
$MENU
  1
.
  9
$ELEVATION
 40
0.0
  9
$PELEVATION
 40
0.0
  9
$THICKNESS
 40
0.0
  9
$LIMCHECK
 70
     0
  9
$BLIPMODE
 70
     0
  9
$CHAMFERA
 40
0.5
  9
$CHAMFERB
 40
0.5
  9
$CHAMFERC
 40
1.0
  9
$CHAMFERD
 40
0.0
  9
$SKPOLY
 70
     0
  9
$TDCREATE
 40
2455644.623930301
  9
$TDUPDATE
 40
2455644.623930313
  9
$TDINDWG
 40
0.0000000116
  9
$TDUSRTIMER
 40
0.0000000116
  9
$USRTIMER
 70
     1
  9
$ANGBASE
 50
0.0
  9
$ANGDIR
 70
     0
  9
$PDMODE
 70
     3
  9
$PDSIZE
 40
20.0
  9
$PLINEWID
 40
0.0
  9
$COORDS
 70
     1
  9
$SPLFRAME
 70
     0
  9
$SPLINETYPE
 70
     6
  9
$SPLINESEGS
 70
     8
  9
$ATTDIA
 70
     0
  9
$ATTREQ
 70
     1
  9
$HANDLING
 70
     1
  9
$HANDSEED
  5
196A
  9
$SURFTAB1
 70
     6
  9
$SURFTAB2
 70
     6
  9
$SURFTYPE
 70
     6
  9
$SURFU
 70
     6
  9
$SURFV
 70
     6
  9
$UCSNAME
  2

  9
$UCSORG
 10
0.0
 20
0.0
 30
0.0
  9
$UCSXDIR
 10
1.0
 20
0.0
 30
0.0
  9
$UCSYDIR
 10
0.0
 20
1.0
 30
0.0
  9
$PUCSNAME
  2

  9
$PUCSORG
 10
0.0
 20
0.0
 30
0.0
  9
$PUCSXDIR
 10
1.0
 20
0.0
 30
0.0
  9
$PUCSYDIR
 10
0.0
 20
1.0
 30
0.0
  9
$USERI1
 70
     0
  9
$USERI2
 70
     0
  9
$USERI3
 70
     0
  9
$USERI4
 70
     0
  9
$USERI5
 70
     0
  9
$USERR1
 40
0.0
  9
$USERR2
 40
0.0
  9
$USERR3
 40
0.0
  9
$USERR4
 40
0.0
  9
$USERR5
 40
0.0
  9
$WORLDVIEW
 70
     1
  9
$SHADEDGE
 70
     3
  9
$SHADEDIF
 70
    70
  9
$TILEMODE
 70
     1
  9
$MAXACTVP
 70
    64
  9
$PINSBASE
 10
0.0
 20
0.0
 30
0.0
  9
$PLIMCHECK
 70
     0
  9
$PEXTMIN
 10
1.000000000000000E+20
 20
1.000000000000000E+20
 30
1.000000000000000E+20
  9
$PEXTMAX
 10
-1.000000000000000E+20
 20
-1.000000000000000E+20
 30
-1.000000000000000E+20
  9
$PLIMMIN
 10
0.0
 20
0.0
  9
$PLIMMAX
 10
0.0
 20
0.0
  9
$UNITMODE
 70
     0
  9
$VISRETAIN
 70
     1
  9
$PLINEGEN
 70
     0
  9
$PSLTSCALE
 70
     1
  9
$TREEDEPTH
 70
  3020
  9
$PICKSTYLE
 70
     1
  9
$CMLSTYLE
  2
STANDARD
  9
$CMLJUST
 70
     0
  9
$CMLSCALE
 40
1.0
  9
$PROXYGRAPHICS
 70
     1
  9
$MEASUREMENT
 70
     0
  0
ENDSEC
  0
SECTION
  2
CLASSES
  0
CLASS
  1
ACDBDICTIONARYWDFLT
  2
AcDbDictionaryWithDefault
  3
ObjectDBX Classes
 90
        0
280
     0
281
     0
  0
CLASS
  1
XRECORD
  2
AcDbXrecord
  3
AutoCAD 2000
 90
        0
280
     0
281
     0
  0
CLASS
  1
LWPOLYLINE
  2
AcDbPolyline
  3
AutoCAD 2000
 90
        0
280
     0
281
     1
  0
CLASS
  1
HATCH
  2
AcDbHatch
  3
AutoCAD 2000
 90
        0
280
     0
281
     1
  0
CLASS
  1
ACDBPLACEHOLDER
  2
AcDbPlaceHolder
  3
ObjectDBX Classes
 90
        0
280
     0
281
     0
  0
CLASS
  1
LAYOUT
  2
AcDbLayout
  3
ObjectDBX Classes
 90
        0
280
     0
281
     0
  0
ENDSEC
  0
SECTION
  2
TABLES
  0
TABLE
  2
VPORT
  5
18BB
330
0
100
AcDbSymbolTable
 70
     2
  0
VPORT
  5
18DC
102
{ACAD_XDICTIONARY
360
1968
102
}
330
18BB
100
AcDbSymbolTableRecord
100
AcDbViewportTableRecord
  2
*ACTIVE
 70
     0
 10
0.0
 20
0.0
 11
1.0
 21
1.0
 12
457.928161
 22
-405.980553
 13
0.0
 23
0.0
 14
10.0
 24
10.0
 15
10.0
 25
10.0
 16
0.0
 26
0.0
 36
1.0
 17
0.0
 27
0.0
 37
0.0
 40
1278.20709
 41
0.013891924786345
 42
50.0
 43
0.0
 44
0.0
 50
0.0
 51
0.0000000000007958
 71
     0
 72
   100
 73
     1
 74
     3
 75
     0
 76
     0
 77
     0
 78
     0
  0
ENDTAB
  0
TABLE
  2
LTYPE
  5
18B8
330
0
100
AcDbSymbolTable
 70
    25
  0
LTYPE
  5
18C7
330
18B8
100
AcDbSymbolTableRecord
100
AcDbLinetypeTableRecord
  2
BYBLOCK
 70
     0
  3

 72
    65
 73
     0
 40
0.0
  0
LTYPE
  5
18C8
330
18B8
100
AcDbSymbolTableRecord
100
AcDbLinetypeTableRecord
  2
BYLAYER
 70
     0
  3

 72
    65
 73
     0
 40
0.0
  0
LTYPE
  5
18C9
330
18B8
100
AcDbSymbolTableRecord
100
AcDbLinetypeTableRecord
  2
CONTINUOUS
 70
     0
  3
Solid line
 72
    65
 73
     0
 40
0.0
  0
LTYPE
  5
18E4
330
18B8
100
AcDbSymbolTableRecord
100
AcDbLinetypeTableRecord
  2
CENTER
 70
     0
  3
Center ____ _ ____ _ ____ _ ____ _ ____ _ ____
 72
    65
 73
     4
 40
2.0
 49
1.25
 74
     0
 49
-0.25
 74
     0
 49
0.25
 74
     0
 49
-0.25
 74
     0
  0
LTYPE
  5
18E5
330
18B8
100
AcDbSymbolTableRecord
100
AcDbLinetypeTableRecord
  2
DASHDOT
 70
     0
  3
Dashdot __ . __ . __ . __ . __ . __ . __ . __
 72
    65
 73
     4
 40
1.0
 49
0.5
 74
     0
 49
-0.25
 74
     0
 49
0.0
 74
     0
 49
-0.25
 74
     0
  0
LTYPE
  5
18E6
330
18B8
100
AcDbSymbolTableRecord
100
AcDbLinetypeTableRecord
  2
DASHED
 70
     0
  3
Dashed __ __ __ __ __ __ __ __ __ __ __ __ __ _
 72
    65
 73
     2
 40
0.75
 49
0.5
 74
     0
 49
-0.25
 74
     0
  0
LTYPE
  5
18E7
330
18B8
100
AcDbSymbolTableRecord
100
AcDbLinetypeTableRecord
  2
HIDDEN
 70
     0
  3
Hidden __ __ __ __ __ __ __ __ __ __ __ __ __ __
 72
    65
 73
     2
 40
0.375
 49
0.25
 74
     0
 49
-0.125
 74
     0
  0
LTYPE
  5
18E8
330
18B8
100
AcDbSymbolTableRecord
100
AcDbLinetypeTableRecord
  2
HIDDEN2
 70
     0
  3
Hidden2 _ _ _ _ _ _ _ _ _ _ _ _ _ _ _ _ _ 
 72
    65
 73
     2
 40
0.1875
 49
0.125
 74
     0
 49
-0.0625
 74
     0
  0
LTYPE
  5
18E9
330
18B8
100
AcDbSymbolTableRecord
100
AcDbLinetypeTableRecord
  2
BORDER
 70
     0
  3
Border __ __ . __ __ . __ __ . __ __ . __ __ .
 72
    65
 73
     6
 40
1.75
 49
0.5
 74
     0
 49
-0.25
 74
     0
 49
0.5
 74
     0
 49
-0.25
 74
     0
 49
0.0
 74
     0
 49
-0.25
 74
     0
  0
LTYPE
  5
18EA
330
18B8
100
AcDbSymbolTableRecord
100
AcDbLinetypeTableRecord
  2
BORDER2
 70
     0
  3
Border2 __.__.__.__.__.__.__.__.__.__.__.
 72
    65
 73
     6
 40
0.875
 49
0.25
 74
     0
 49
-0.125
 74
     0
 49
0.25
 74
     0
 49
-0.125
 74
     0
 49
0.0
 74
     0
 49
-0.125
 74
     0
  0
LTYPE
  5
18EB
330
18B8
100
AcDbSymbolTableRecord
100
AcDbLinetypeTableRecord
  2
BORDERX2
 70
     0
  3
Borderx2  ____  ____  .  ____  ____  .  ___
 72
    65
 73
     6
 40
3.5
 49
1.0
 74
     0
 49
-0.5
 74
     0
 49
1.0
 74
     0
 49
-0.5
 74
     0
 49
0.0
 74
     0
 49
-0.5
 74
     0
  0
LTYPE
  5
18EC
330
18B8
100
AcDbSymbolTableRecord
100
AcDbLinetypeTableRecord
  2
CENTER2
 70
     0
  3
Center2  ___ _ ___ _ ___ _ ___ _ ___ _ ___
 72
    65
 73
     4
 40
1.125
 49
0.75
 74
     0
 49
-0.125
 74
     0
 49
0.125
 74
     0
 49
-0.125
 74
     0
  0
LTYPE
  5
18ED
330
18B8
100
AcDbSymbolTableRecord
100
AcDbLinetypeTableRecord
  2
CENTERX2
 70
     0
  3
Centerx2  ________  __  ________  __  _____
 72
    65
 73
     4
 40
4.0
 49
2.5
 74
     0
 49
-0.5
 74
     0
 49
0.5
 74
     0
 49
-0.5
 74
     0
  0
LTYPE
  5
18EE
330
18B8
100
AcDbSymbolTableRecord
100
AcDbLinetypeTableRecord
  2
DASHDOT2
 70
     0
  3
Dashdot2  _._._._._._._._._._._._._._._.
 72
    65
 73
     4
 40
0.5
 49
0.25
 74
     0
 49
-0.125
 74
     0
 49
0.0
 74
     0
 49
-0.125
 74
     0
  0
LTYPE
  5
18EF
330
18B8
100
AcDbSymbolTableRecord
100
AcDbLinetypeTableRecord
  2
DASHDOTX2
 70
     0
  3
Dashdotx2 ____  .  ____  .  ____  .  ___
 72
    65
 73
     4
 40
2.0
 49
1.0
 74
     0
 49
-0.5
 74
     0
 49
0.0
 74
     0
 49
-0.5
 74
     0
  0
LTYPE
  5
18F0
330
18B8
100
AcDbSymbolTableRecord
100
AcDbLinetypeTableRecord
  2
DASHED2
 70
     0
  3
Dashed2 _ _ _ _ _ _ _ _ _ _ _ _ _ _ _ _ _ 
 72
    65
 73
     2
 40
0.375
 49
0.25
 74
     0
 49
-0.125
 74
     0
  0
LTYPE
  5
18F1
330
18B8
100
AcDbSymbolTableRecord
100
AcDbLinetypeTableRecord
  2
DASHEDX2
 70
     0
  3
Dashedx2 ____  ____  ____  ____  ____  ___
 72
    65
 73
     2
 40
1.5
 49
1.0
 74
     0
 49
-0.5
 74
     0
  0
LTYPE
  5
18F2
330
18B8
100
AcDbSymbolTableRecord
100
AcDbLinetypeTableRecord
  2
DIVIDE
 70
     0
  3
Divide ____ . . ____ . . ____ . . ____ . . ____
 72
    65
 73
     6
 40
1.25
 49
0.5
 74
     0
 49
-0.25
 74
     0
 49
0.0
 74
     0
 49
-0.25
 74
     0
 49
0.0
 74
     0
 49
-0.25
 74
     0
  0
LTYPE
  5
18F3
330
18B8
100
AcDbSymbolTableRecord
100
AcDbLinetypeTableRecord
  2
DIVIDE2
 70
     0
  3
Divide2 __..__..__..__..__..__..__..__.._
 72
    65
 73
     6
 40
0.625
 49
0.25
 74
     0
 49
-0.125
 74
     0
 49
0.0
 74
     0
 49
-0.125
 74
     0
 49
0.0
 74
     0
 49
-0.125
 74
     0
  0
LTYPE
  5
18F4
330
18B8
100
AcDbSymbolTableRecord
100
AcDbLinetypeTableRecord
  2
DIVIDEX2
 70
     0
  3
Dividex2 ________  .  .  ________  .  .  _
 72
    65
 73
     6
 40
2.5
 49
1.0
 74
     0
 49
-0.5
 74
     0
 49
0.0
 74
     0
 49
-0.5
 74
     0
 49
0.0
 74
     0
 49
-0.5
 74
     0
  0
LTYPE
  5
18F5
330
18B8
100
AcDbSymbolTableRecord
100
AcDbLinetypeTableRecord
  2
DOT
 70
     0
  3
Dot . . . . . . . . . . . . . . . . . . . . . . . .
 72
    65
 73
     2
 40
0.25
 49
0.0
 74
     0
 49
-0.25
 74
     0
  0
LTYPE
  5
18F6
330
18B8
100
AcDbSymbolTableRecord
100
AcDbLinetypeTableRecord
  2
DOT2
 70
     0
  3
Dot2 ........................................
 72
    65
 73
     2
 40
0.125
 49
0.0
 74
     0
 49
-0.125
 74
     0
  0
LTYPE
  5
18F7
330
18B8
100
AcDbSymbolTableRecord
100
AcDbLinetypeTableRecord
  2
DOTX2
 70
     0
  3
Dotx2 .  .  .  .  .  .  .  .  .  .  .  .  .  .
 72
    65
 73
     2
 40
0.5
 49
0.0
 74
     0
 49
-0.5
 74
     0
  0
LTYPE
  5
18F8
330
18B8
100
AcDbSymbolTableRecord
100
AcDbLinetypeTableRecord
  2
HIDDENX2
 70
     0
  3
Hiddenx2 ____ ____ ____ ____ ____ ____ ____ 
 72
    65
 73
     2
 40
0.75
 49
0.5
 74
     0
 49
-0.25
 74
     0
  0
LTYPE
  5
18F9
330
18B8
100
AcDbSymbolTableRecord
100
AcDbLinetypeTableRecord
  2
PHANTOM
 70
     0
  3
Phantom ______  __  __  ______  __  __  ______ 
 72
    65
 73
     6
 40
2.5
 49
1.25
 74
     0
 49
-0.25
 74
     0
 49
0.25
 74
     0
 49
-0.25
 74
     0
 49
0.25
 74
     0
 49
-0.25
 74
     0
  0
LTYPE
  5
18FA
330
18B8
100
AcDbSymbolTableRecord
100
AcDbLinetypeTableRecord
  2
PHANTOM2
 70
     0
  3
Phantom2 ___ _ _ ___ _ _ ___ _ _ ___ _ _
 72
    65
 73
     6
 40
1.25
 49
0.625
 74
     0
 49
-0.125
 74
     0
 49
0.125
 74
     0
 49
-0.125
 74
     0
 49
0.125
 74
     0
 49
-0.125
 74
     0
  0
LTYPE
  5
18FB
330
18B8
100
AcDbSymbolTableRecord
100
AcDbLinetypeTableRecord
  2
PHANTOMX2
 70
     0
  3
Phantomx2 ____________    ____    ____   _
 72
    65
 73
     6
 40
5.0
 49
2.5
 74
     0
 49
-0.5
 74
     0
 49
0.5
 74
     0
 49
-0.5
 74
     0
 49
0.5
 74
     0
 49
-0.5
 74
     0
  0
ENDTAB
  0
TABLE
  2
LAYER
  5
18B5
330
0
100
AcDbSymbolTable
 70
     6
  0
LAYER
  5
18C3
330
18B5
100
AcDbSymbolTableRecord
100
AcDbLayerTableRecord
  2
0
 70
     0
 62
     7
  6
CONTINUOUS
  0
LAYER
  5
9E
330
18B5
100
AcDbSymbolTableRecord
100
AcDbLayerTableRecord
  2
DEFPOINTS
 70
     0
 62
     7
  6
CONTINUOUS
  0
LAYER
  5
377
330
18B5
100
AcDbSymbolTableRecord
100
AcDbLayerTableRecord
  2
V0-OBRYS
 70
     0
 62
    90
  6
CONTINUOUS
  0
LAYER
  5
378
330
18B5
100
AcDbSymbolTableRecord
100
AcDbLayerTableRecord
  2
V0-VYPLNE
 70
     0
 62
    63
  6
DASHDOT
  0
LAYER
  5
37A
330
18B5
100
AcDbSymbolTableRecord
100
AcDbLayerTableRecord
  2
V0-NAZVY
 70
     0
 62
   210
  6
CONTINUOUS
  0
LAYER
  5
559
330
18B5
100
AcDbSymbolTableRecord
100
AcDbLayerTableRecord
  2
V0-ZBYTEK
 70
     0
 62
    51
  6
CONTINUOUS
  0
ENDTAB
  0
TABLE
  2
STYLE
  5
18B6
330
0
100
AcDbSymbolTable
 70
     5
  0
STYLE
  5
18C4
330
18B6
100
AcDbSymbolTableRecord
100
AcDbTextStyleTableRecord
  2
STANDARD
 70
     0
 40
0.0
 41
1.0
 50
0.0
 71
     0
 42
0.2
  3
ISOCP.shx
  4

1001
ACAD
1000
ISOCP.shx
1071
        0
  0
STYLE
  5
331
330
18B6
100
AcDbSymbolTableRecord
100
AcDbTextStyleTableRecord
  2
ED20
 70
     0
 40
25.0
 41
1.0
 50
0.0
 71
     0
 42
0.2
  3
ISOCP.shx
  4

1001
ACAD
1000
ISOCP.shx
1071
        0
  0
STYLE
  5
648
330
18B6
100
AcDbSymbolTableRecord
100
AcDbTextStyleTableRecord
  2
ED10
 70
     0
 40
10.0
 41
1.0
 50
0.0
 71
     0
 42
0.2
  3
ISOCP.shx
  4

1001
ACAD
1000
ISOCP.shx
1071
        0
  0
STYLE
  5
F38
330
18B6
100
AcDbSymbolTableRecord
100
AcDbTextStyleTableRecord
  2
ED30
 70
     0
 40
30.0
 41
1.0
 50
0.0
 71
     0
 42
0.2
  3
ISOCP.shx
  4

1001
ACAD
1000
ISOCP.shx
1071
        0
  0
STYLE
  5
F39
330
18B6
100
AcDbSymbolTableRecord
100
AcDbTextStyleTableRecord
  2
ED40
 70
     0
 40
40.0
 41
1.0
 50
0.0
 71
     0
 42
0.2
  3
ISOCP.shx
  4

1001
ACAD
1000
ISOCP.shx
1071
        0
  0
ENDTAB
  0
TABLE
  2
VIEW
  5
18B9
330
0
100
AcDbSymbolTable
 70
     0
  0
ENDTAB
  0
TABLE
  2
UCS
  5
18BA
330
0
100
AcDbSymbolTable
 70
     0
  0
ENDTAB
  0
TABLE
  2
APPID
  5
18BC
330
0
100
AcDbSymbolTable
 70
     6
  0
APPID
  5
18C5
330
18BC
100
AcDbSymbolTableRecord
100
AcDbRegAppTableRecord
  2
ACAD
 70
     0
  0
APPID
  5
18DD
330
18BC
100
AcDbSymbolTableRecord
100
AcDbRegAppTableRecord
  2
VD_INVISIBLE_NOT_FOR_READ
 70
     0
  0
APPID
  5
18DE
330
18BC
100
AcDbSymbolTableRecord
100
AcDbRegAppTableRecord
  2
VD_TEMPHATCH
 70
     0
  0
APPID
  5
18DF
330
18BC
100
AcDbSymbolTableRecord
100
AcDbRegAppTableRecord
  2
VDEXTRAPARAM
 70
     0
  0
APPID
  5
18E0
330
18BC
100
AcDbSymbolTableRecord
100
AcDbRegAppTableRecord
  2
PE_URL
 70
     0
  0
APPID
  5
18E1
330
18BC
100
AcDbSymbolTableRecord
100
AcDbRegAppTableRecord
  2
VD_UNKNOWN
 70
     0
  0
ENDTAB
  0
TABLE
  2
DIMSTYLE
  5
18BD
330
0
100
AcDbSymbolTable
 70
     5
  0
DIMSTYLE
105
18DA
330
18BD
100
AcDbSymbolTableRecord
100
AcDbDimStyleTableRecord
  2
STANDARD
 70
     0
  3

  4

  5
OPEN
  6

  7

 40
1.0
 41
15.0
 42
0.625
 43
0.38
 44
1.25
 45
0.0
 46
0.0
 47
0.0
 48
0.0
140
15.0
141
0.09
142
0.0
143
25.4
144
1.0
145
0.0
146
1.0
147
3.0
 71
     0
 72
     0
 73
     0
 74
     0
 75
     0
 76
     0
 77
     1
 78
     0
170
     0
171
     2
172
     1
173
     0
174
     1
175
     0
176
     0
177
     0
178
     0
270
     2
271
     0
272
     4
273
     2
274
     2
340
331
275
     0
280
     0
281
     0
282
     0
283
     1
284
     0
285
     0
286
     0
287
     3
288
     1
  0
DIMSTYLE
105
397
330
18BD
100
AcDbSymbolTableRecord
100
AcDbDimStyleTableRecord
  2
ED40
 70
     0
  3

  4

  5
OPEN
  6

  7

 40
1.0
 41
35.0
 42
1.0
 43
0.38
 44
1.25
 45
0.0
 46
0.0
 47
0.0
 48
0.0
140
40.0
141
0.09
142
0.0
143
25.4
144
1.0
145
0.0
146
1.0
147
4.0
 71
     0
 72
     0
 73
     0
 74
     0
 75
     0
 76
     0
 77
     1
 78
     0
170
     0
171
     2
172
     1
173
     0
174
     1
175
     0
176
     0
177
     0
178
     0
270
     2
271
     0
272
     4
273
     2
274
     2
340
F39
275
     0
280
     0
281
     0
282
     0
283
     1
284
     0
285
     0
286
     0
287
     3
288
     1
  0
DIMSTYLE
105
FEA
330
18BD
100
AcDbSymbolTableRecord
100
AcDbDimStyleTableRecord
  2
ED30
 70
     0
  3

  4

  5
OPEN
  6

  7

 40
1.0
 41
25.0
 42
1.0
 43
0.38
 44
1.25
 45
0.0
 46
0.0
 47
0.0
 48
0.0
140
30.0
141
0.09
142
0.0
143
25.4
144
1.0
145
0.0
146
1.0
147
4.0
 71
     0
 72
     0
 73
     0
 74
     0
 75
     0
 76
     0
 77
     1
 78
     0
170
     0
171
     2
172
     1
173
     0
174
     1
175
     0
176
     0
177
     0
178
     0
270
     2
271
     0
272
     4
273
     2
274
     2
340
F38
275
     0
280
     0
281
     0
282
     0
283
     1
284
     0
285
     0
286
     0
287
     3
288
     1
  0
DIMSTYLE
105
1457
102
{ACAD_REACTORS
330
1469
330
1476
330
1483
330
1490
330
14E2
102
}
330
18BD
100
AcDbSymbolTableRecord
100
AcDbDimStyleTableRecord
  2
ED20
 70
     0
  3

  4

  5
OPEN
  6

  7

 40
1.0
 41
20.0
 42
1.0
 43
0.38
 44
1.25
 45
0.0
 46
0.0
 47
0.0
 48
0.0
140
20.0
141
0.09
142
0.0
143
25.4
144
1.0
145
0.0
146
1.0
147
1.5
 71
     0
 72
     0
 73
     0
 74
     0
 75
     0
 76
     0
 77
     1
 78
     0
170
     0
171
     2
172
     1
173
     0
174
     1
175
     0
176
     0
177
     0
178
     0
270
     2
271
     0
272
     4
273
     2
274
     2
340
331
275
     0
280
     0
281
     0
282
     0
283
     1
284
     0
285
     0
286
     0
287
     3
288
     1
  0
DIMSTYLE
105
1458
330
18BD
100
AcDbSymbolTableRecord
100
AcDbDimStyleTableRecord
  2
ED10
 70
     0
  3

  4

  5
OPEN
  6

  7

 40
1.0
 41
15.0
 42
1.0
 43
0.38
 44
1.25
 45
0.0
 46
0.0
 47
0.0
 48
0.0
140
10.0
141
0.09
142
0.0
143
25.4
144
1.0
145
0.0
146
1.0
147
1.5
 71
     0
 72
     0
 73
     0
 74
     0
 75
     0
 76
     0
 77
     1
 78
     0
170
     0
171
     2
172
     1
173
     0
174
     1
175
     0
176
     0
177
     0
178
     0
270
     2
271
     0
272
     4
273
     2
274
     2
340
331
275
     0
280
     0
281
     0
282
     0
283
     1
284
     0
285
     0
286
     0
287
     3
288
     1
  0
ENDTAB
  0
TABLE
  2
BLOCK_RECORD
  5
18B4
330
0
100
AcDbSymbolTable
 70
    10
  0
BLOCK_RECORD
  5
18D2
330
18B4
100
AcDbSymbolTableRecord
100
AcDbBlockTableRecord
  2
*MODEL_SPACE
  0
BLOCK_RECORD
  5
18CE
330
18B4
100
AcDbSymbolTableRecord
100
AcDbBlockTableRecord
  2
*PAPER_SPACE
  0
BLOCK_RECORD
  5
90
330
18B4
100
AcDbSymbolTableRecord
100
AcDbBlockTableRecord
  2
_OPEN
  0
BLOCK_RECORD
  5
1459
330
18B4
100
AcDbSymbolTableRecord
100
AcDbBlockTableRecord
  2
A10_100
  0
BLOCK_RECORD
  5
18B0
330
18B4
100
AcDbSymbolTableRecord
100
AcDbBlockTableRecord
  2
VDDIM_DEFAULT
  0
BLOCK_RECORD
  5
18B2
330
18B4
100
AcDbSymbolTableRecord
100
AcDbBlockTableRecord
  2
VDDIM_NONE
  0
BLOCK_RECORD
  5
1905
330
18B4
100
AcDbSymbolTableRecord
100
AcDbBlockTableRecord
  2
*D5
  0
BLOCK_RECORD
  5
1911
330
18B4
100
AcDbSymbolTableRecord
100
AcDbBlockTableRecord
  2
*D6
  0
BLOCK_RECORD
  5
191E
330
18B4
100
AcDbSymbolTableRecord
100
AcDbBlockTableRecord
  2
*D7
  0
BLOCK_RECORD
  5
192B
330
18B4
100
AcDbSymbolTableRecord
100
AcDbBlockTableRecord
  2
*D8
  0
BLOCK_RECORD
  5
1938
330
18B4
100
AcDbSymbolTableRecord
100
AcDbBlockTableRecord
  2
*D9
  0
ENDTAB
  0
ENDSEC
  0
SECTION
  2
BLOCKS
  0
BLOCK
  5
18D3
330
18D2
100
AcDbEntity
  8
0
100
AcDbBlockBegin
  2
*MODEL_SPACE
 70
     0
 71
     0
 10
0.0
 20
0.0
 30
0.0
  3
*MODEL_SPACE
  1

  0
ENDBLK
  5
18D4
330
18D2
100
AcDbEntity
  8
0
100
AcDbBlockEnd
  0
BLOCK
  5
18CF
330
18CE
100
AcDbEntity
 67
     1
  8
0
100
AcDbBlockBegin
  2
*PAPER_SPACE
 70
     0
 71
     0
 10
0.0
 20
0.0
 30
0.0
  3
*PAPER_SPACE
  1

  0
ENDBLK
  5
18D0
330
18CE
100
AcDbEntity
 67
     1
  8
0
100
AcDbBlockEnd
  0
BLOCK
  5
18FC
330
90
100
AcDbEntity
  8
0
100
AcDbBlockBegin
  2
_OPEN
 70
     0
 71
     0
 10
0.0
 20
0.0
 30
0.0
  3
_OPEN
  1

  0
LINE
  5
92
330
90
100
AcDbEntity
  8
0
  6
BYBLOCK
 62
     0
100
AcDbLine
 10
-1.0
 20
0.166667
 30
0.0
 11
0.0
 21
0.0
 31
0.0
  0
LINE
  5
93
330
90
100
AcDbEntity
  8
0
  6
BYBLOCK
 62
     0
100
AcDbLine
 10
0.0
 20
0.0
 30
0.0
 11
-1.0
 21
-0.166667
 31
0.0
  0
LINE
  5
94
330
90
100
AcDbEntity
  8
0
  6
BYBLOCK
 62
     0
100
AcDbLine
 10
0.0
 20
0.0
 30
0.0
 11
-1.0
 21
0.0
 31
0.0
  0
ENDBLK
  5
18FD
330
90
100
AcDbEntity
  8
0
100
AcDbBlockEnd
  0
BLOCK
  5
18FE
330
1459
100
AcDbEntity
  8
0
100
AcDbBlockBegin
  2
A10_100
 70
     0
 71
     0
 10
0.0
 20
0.0
 30
0.0
  3
A10_100
  1

  0
ENDBLK
  5
18FF
330
1459
100
AcDbEntity
  8
0
100
AcDbBlockEnd
  0
BLOCK
  5
1900
330
18B0
100
AcDbEntity
  8
0
100
AcDbBlockBegin
  2
VDDIM_DEFAULT
 70
     0
 71
     0
 10
0.0
 20
0.0
 30
0.0
  3
VDDIM_DEFAULT
  1

  0
LWPOLYLINE
  5
18B1
330
18B0
100
AcDbEntity
  8
0
  6
CONTINUOUS
 62
     0
100
AcDbPolyline
 90
        4
 70
     0
 43
0.0
 10
0.0
 20
0.0
 10
-1.0
 20
-0.1665
 10
-1.0
 20
0.1665
 10
0.0
 20
0.0
1001
VDEXTRAPARAM
1071
        1
1071
        0
1071
        0
1040
1.0
1000

1000

1040
0.0
1040
0.0
  0
HATCH
  5
1904
330
18B0
100
AcDbEntity
  8
0
  6
CONTINUOUS
 62
     0
100
AcDbHatch
 10
0.0
 20
0.0
 30
0.0
210
0.0
220
0.0
230
1.0
  2
SOLID
 70
     1
 71
     0
 91
        1
 92
        2
 72
     0
 73
     1
 93
        3
 10
0.0
 20
0.0
 10
-1.0
 20
-0.1665
 10
-1.0
 20
0.1665
 97
        0
 75
     0
 76
     1
 98
        1
 10
0.0
 20
0.0
1001
VDEXTRAPARAM
1071
        1
1071
        0
1071
        0
1040
1.0
1000

1000

1040
0.0
1040
0.0
1001
VD_TEMPHATCH
1000
VD_TEMPHATCH
  0
ENDBLK
  5
1901
330
18B0
100
AcDbEntity
  8
0
100
AcDbBlockEnd
  0
BLOCK
  5
1902
330
18B2
100
AcDbEntity
  8
0
100
AcDbBlockBegin
  2
VDDIM_NONE
 70
     0
 71
     0
 10
0.0
 20
0.0
 30
0.0
  3
VDDIM_NONE
  1

  0
ENDBLK
  5
1903
330
18B2
100
AcDbEntity
  8
0
100
AcDbBlockEnd
  0
BLOCK
  5
190F
330
1905
100
AcDbEntity
  8
0
100
AcDbBlockBegin
  2
*D5
 70
     1
 71
     0
 10
0.0
 20
0.0
 30
0.0
  3
*D5
  1

  0
LINE
  5
1906
330
1905
100
AcDbEntity
  8
V0-VYPLNE
 62
     0
100
AcDbLine
 10
81.141239
 20
-277.166006
 30
0.0
 11
81.14123899999996
 21
-317.3058190000011
 31
0.0
  0
LINE
  5
1907
330
1905
100
AcDbEntity
  8
V0-VYPLNE
 62
     0
100
AcDbLine
 10
331.141239
 20
-277.166006
 30
0.0
 11
331.141239
 21
-317.3058190000011
 31
0.0
  0
LINE
  5
1908
330
1905
100
AcDbEntity
  8
V0-VYPLNE
 62
     0
100
AcDbLine
 10
101.141239
 20
-316.0558190000011
 30
0.0
 11
311.141239
 21
-316.0558190000011
 31
0.0
  0
INSERT
  5
1909
330
1905
100
AcDbEntity
  8
V0-VYPLNE
 62
     0
100
AcDbBlockReference
  2
_OPEN
 10
81.14123899999996
 20
-316.0558190000011
 30
0.0
 41
20.0
 42
20.0
 43
20.0
 50
180.0
  0
INSERT
  5
190A
330
1905
100
AcDbEntity
  8
V0-VYPLNE
 62
     0
100
AcDbBlockReference
  2
_OPEN
 10
331.141239
 20
-316.0558190000011
 30
0.0
 41
20.0
 42
20.0
 43
20.0
  0
MTEXT
  5
190B
330
1905
100
AcDbEntity
  8
V0-VYPLNE
 62
     0
100
AcDbMText
 10
206.141239
 20
-304.5558190000011
 30
0.0
 40
20.0
 41
0.0
 71
     5
 72
     1
  1
%%c\A1;250
  7
ED20
  0
POINT
  5
190C
330
1905
100
AcDbEntity
  8
DEFPOINTS
 62
     0
100
AcDbPoint
 10
81.141239
 20
-276.166006
 30
0.0
  0
POINT
  5
190D
330
1905
100
AcDbEntity
  8
DEFPOINTS
 62
     0
100
AcDbPoint
 10
331.141239
 20
-276.166006
 30
0.0
  0
POINT
  5
190E
330
1905
100
AcDbEntity
  8
DEFPOINTS
 62
     0
100
AcDbPoint
 10
331.141239
 20
-316.0558190000011
 30
0.0
  0
ENDBLK
  5
1910
330
1905
100
AcDbEntity
  8
0
100
AcDbBlockEnd
  0
BLOCK
  5
191C
330
1911
100
AcDbEntity
  8
0
100
AcDbBlockBegin
  2
*D6
 70
     1
 71
     0
 10
0.0
 20
0.0
 30
0.0
  3
*D6
  1

  0
LINE
  5
1912
330
1911
100
AcDbEntity
  8
V0-VYPLNE
 62
     0
100
AcDbLine
 10
41.141239
 20
-277.166006
 30
0.0
 11
41.14123899999999
 21
-369.3589769999962
 31
0.0
  0
LINE
  5
1913
330
1911
100
AcDbEntity
  8
V0-VYPLNE
 62
     0
100
AcDbLine
 10
371.141239
 20
-277.166006
 30
0.0
 11
371.141239
 21
-369.3589769999962
 31
0.0
  0
LINE
  5
1914
330
1911
100
AcDbEntity
  8
V0-VYPLNE
 62
     0
100
AcDbLine
 10
61.14123899999999
 20
-368.1089769999962
 30
0.0
 11
178.9269532857143
 21
-368.1089769999962
 31
0.0
  0
LINE
  5
1915
330
1911
100
AcDbEntity
  8
V0-VYPLNE
 62
     0
100
AcDbLine
 10
351.141239
 20
-368.1089769999962
 30
0.0
 11
233.3555247142857
 21
-368.1089769999962
 31
0.0
  0
INSERT
  5
1916
330
1911
100
AcDbEntity
  8
V0-VYPLNE
 62
     0
100
AcDbBlockReference
  2
_OPEN
 10
41.14123899999999
 20
-368.1089769999962
 30
0.0
 41
20.0
 42
20.0
 43
20.0
 50
180.0
  0
INSERT
  5
1917
330
1911
100
AcDbEntity
  8
V0-VYPLNE
 62
     0
100
AcDbBlockReference
  2
_OPEN
 10
371.141239
 20
-368.1089769999962
 30
0.0
 41
20.0
 42
20.0
 43
20.0
  0
MTEXT
  5
1918
330
1911
100
AcDbEntity
  8
V0-VYPLNE
 62
     0
100
AcDbMText
 10
206.141239
 20
-368.108977
 30
0.0
 40
20.0
 41
0.0
 71
     5
 72
     1
  1
\A1;330
  7
ED20
  0
POINT
  5
1919
330
1911
100
AcDbEntity
  8
DEFPOINTS
 62
     0
100
AcDbPoint
 10
41.141239
 20
-276.166006
 30
0.0
  0
POINT
  5
191A
330
1911
100
AcDbEntity
  8
DEFPOINTS
 62
     0
100
AcDbPoint
 10
371.141239
 20
-276.166006
 30
0.0
  0
POINT
  5
191B
330
1911
100
AcDbEntity
  8
DEFPOINTS
 62
     0
100
AcDbPoint
 10
371.141239
 20
-368.1089769999962
 30
0.0
  0
ENDBLK
  5
191D
330
1911
100
AcDbEntity
  8
0
100
AcDbBlockEnd
  0
BLOCK
  5
1929
330
191E
100
AcDbEntity
  8
0
100
AcDbBlockBegin
  2
*D7
 70
     1
 71
     0
 10
0.0
 20
0.0
 30
0.0
  3
*D7
  1

  0
LINE
  5
191F
330
191E
100
AcDbEntity
  8
V0-VYPLNE
 62
     0
100
AcDbLine
 10
-11.358761
 20
-277.166006
 30
0.0
 11
-11.35876100000007
 21
-414.6058540000231
 31
0.0
  0
LINE
  5
1920
330
191E
100
AcDbEntity
  8
V0-VYPLNE
 62
     0
100
AcDbLine
 10
423.641239
 20
-277.166006
 30
0.0
 11
423.641239
 21
-414.6058540000231
 31
0.0
  0
LINE
  5
1921
330
191E
100
AcDbEntity
  8
V0-VYPLNE
 62
     0
100
AcDbLine
 10
8.641238999999928
 20
-413.3558540000231
 30
0.0
 11
178.9269532857143
 21
-413.3558540000231
 31
0.0
  0
LINE
  5
1922
330
191E
100
AcDbEntity
  8
V0-VYPLNE
 62
     0
100
AcDbLine
 10
403.641239
 20
-413.3558540000231
 30
0.0
 11
233.3555247142857
 21
-413.3558540000231
 31
0.0
  0
INSERT
  5
1923
330
191E
100
AcDbEntity
  8
V0-VYPLNE
 62
     0
100
AcDbBlockReference
  2
_OPEN
 10
-11.35876100000007
 20
-413.3558540000231
 30
0.0
 41
20.0
 42
20.0
 43
20.0
 50
180.0
  0
INSERT
  5
1924
330
191E
100
AcDbEntity
  8
V0-VYPLNE
 62
     0
100
AcDbBlockReference
  2
_OPEN
 10
423.641239
 20
-413.3558540000231
 30
0.0
 41
20.0
 42
20.0
 43
20.0
  0
MTEXT
  5
1925
330
191E
100
AcDbEntity
  8
V0-VYPLNE
 62
     0
100
AcDbMText
 10
206.141239
 20
-413.355854
 30
0.0
 40
20.0
 41
0.0
 71
     5
 72
     1
  1
\A1;435
  7
ED20
  0
POINT
  5
1926
330
191E
100
AcDbEntity
  8
DEFPOINTS
 62
     0
100
AcDbPoint
 10
-11.358761
 20
-276.166006
 30
0.0
  0
POINT
  5
1927
330
191E
100
AcDbEntity
  8
DEFPOINTS
 62
     0
100
AcDbPoint
 10
423.641239
 20
-276.166006
 30
0.0
  0
POINT
  5
1928
330
191E
100
AcDbEntity
  8
DEFPOINTS
 62
     0
100
AcDbPoint
 10
423.641239
 20
-413.3558540000231
 30
0.0
  0
ENDBLK
  5
192A
330
191E
100
AcDbEntity
  8
0
100
AcDbBlockEnd
  0
BLOCK
  5
1936
330
192B
100
AcDbEntity
  8
0
100
AcDbBlockBegin
  2
*D8
 70
     1
 71
     0
 10
0.0
 20
0.0
 30
0.0
  3
*D8
  1

  0
LINE
  5
192C
330
192B
100
AcDbEntity
  8
V0-VYPLNE
 62
     0
100
AcDbLine
 10
424.641239
 20
-276.166006
 30
0.0
 11
538.3524989999975
 21
-276.166006
 31
0.0
  0
LINE
  5
192D
330
192B
100
AcDbEntity
  8
V0-VYPLNE
 62
     0
100
AcDbLine
 10
207.141239
 20
63.833994
 30
0.0
 11
538.3524989999975
 21
63.83399399999998
 31
0.0
  0
LINE
  5
192E
330
192B
100
AcDbEntity
  8
V0-VYPLNE
 62
     0
100
AcDbLine
 10
537.1024989999975
 20
-256.166006
 30
0.0
 11
537.1024989999975
 21
-133.3802917142857
 31
0.0
  0
LINE
  5
192F
330
192B
100
AcDbEntity
  8
V0-VYPLNE
 62
     0
100
AcDbLine
 10
537.1024989999975
 20
43.83399399999996
 30
0.0
 11
537.1024989999975
 21
-78.9517202857143
 31
0.0
  0
INSERT
  5
1930
330
192B
100
AcDbEntity
  8
V0-VYPLNE
 62
     0
100
AcDbBlockReference
  2
_OPEN
 10
537.1024989999975
 20
-276.166006
 30
0.0
 41
20.0
 42
20.0
 43
20.0
 50
270.0
  0
INSERT
  5
1931
330
192B
100
AcDbEntity
  8
V0-VYPLNE
 62
     0
100
AcDbBlockReference
  2
_OPEN
 10
537.1024989999975
 20
63.83399399999996
 30
0.0
 41
20.0
 42
20.0
 43
20.0
 50
90.0
  0
MTEXT
  5
1932
330
192B
100
AcDbEntity
  8
V0-VYPLNE
 62
     0
100
AcDbMText
 10
537.102499
 20
-106.166006
 30
0.0
 40
20.0
 41
0.0
 71
     5
 72
     1
  1
\A1;340
  7
ED20
 11
0.0
 21
-1.0
 31
0.0
  0
POINT
  5
1933
330
192B
100
AcDbEntity
  8
DEFPOINTS
 62
     0
100
AcDbPoint
 10
423.641239
 20
-276.166006
 30
0.0
  0
POINT
  5
1934
330
192B
100
AcDbEntity
  8
DEFPOINTS
 62
     0
100
AcDbPoint
 10
206.141239
 20
63.833994
 30
0.0
  0
POINT
  5
1935
330
192B
100
AcDbEntity
  8
DEFPOINTS
 62
     0
100
AcDbPoint
 10
537.1024989999975
 20
63.83399399999998
 30
0.0
  0
ENDBLK
  5
1937
330
192B
100
AcDbEntity
  8
0
100
AcDbBlockEnd
  0
BLOCK
  5
1943
330
1938
100
AcDbEntity
  8
0
100
AcDbBlockBegin
  2
*D9
 70
     1
 71
     0
 10
0.0
 20
0.0
 30
0.0
  3
*D9
  1

  0
LINE
  5
1939
330
1938
100
AcDbEntity
  8
V0-VYPLNE
 62
     0
100
AcDbLine
 10
-74.358761
 20
-28.664643
 30
0.0
 11
-74.35876100000002
 21
112.5742329999994
 31
0.0
  0
LINE
  5
193A
330
1938
100
AcDbEntity
  8
V0-VYPLNE
 62
     0
100
AcDbLine
 10
486.641239
 20
-28.664643
 30
0.0
 11
486.641239
 21
112.5742329999994
 31
0.0
  0
LINE
  5
193B
330
1938
100
AcDbEntity
  8
V0-VYPLNE
 62
     0
100
AcDbLine
 10
-54.35876100000002
 20
111.3242329999994
 30
0.0
 11
172.7364770952381
 21
111.3242329999994
 31
0.0
  0
LINE
  5
193C
330
1938
100
AcDbEntity
  8
V0-VYPLNE
 62
     0
100
AcDbLine
 10
466.641239
 20
111.3242329999994
 30
0.0
 11
239.5460009047619
 21
111.3242329999994
 31
0.0
  0
INSERT
  5
193D
330
1938
100
AcDbEntity
  8
V0-VYPLNE
 62
     0
100
AcDbBlockReference
  2
_OPEN
 10
-74.35876100000002
 20
111.3242329999994
 30
0.0
 41
20.0
 42
20.0
 43
20.0
 50
180.0
  0
INSERT
  5
193E
330
1938
100
AcDbEntity
  8
V0-VYPLNE
 62
     0
100
AcDbBlockReference
  2
_OPEN
 10
486.641239
 20
111.3242329999994
 30
0.0
 41
20.0
 42
20.0
 43
20.0
 50
360.0
  0
MTEXT
  5
193F
330
1938
100
AcDbEntity
  8
V0-VYPLNE
 62
     0
100
AcDbMText
 10
206.141239
 20
111.324233
 30
0.0
 40
20.0
 41
0.0
 71
     5
 72
     1
  1
%%c\A1;561
  7
ED20
  0
POINT
  5
1940
330
1938
100
AcDbEntity
  8
DEFPOINTS
 62
     0
100
AcDbPoint
 10
-74.358761
 20
-29.664643
 30
0.0
  0
POINT
  5
1941
330
1938
100
AcDbEntity
  8
DEFPOINTS
 62
     0
100
AcDbPoint
 10
486.641239
 20
-29.664643
 30
0.0
  0
POINT
  5
1942
330
1938
100
AcDbEntity
  8
DEFPOINTS
 62
     0
100
AcDbPoint
 10
486.641239
 20
111.3242329999994
 30
0.0
  0
ENDBLK
  5
1944
330
1938
100
AcDbEntity
  8
0
100
AcDbBlockEnd
  0
ENDSEC
  0
SECTION
  2
ENTITIES
  0
LINE
  5
1127
330
18D2
100
AcDbEntity
  8
V0-VYPLNE
  6
DASHDOT
 62
    63
100
AcDbLine
 10
206.141239
 20
-478.564391
 30
0.0
 11
206.141239
 21
-964.530925
 31
0.0
  0
CIRCLE
  5
11B0
330
18D2
100
AcDbEntity
  8
V0-VYPLNE
  6
DASHED
 62
    56
100
AcDbCircle
 10
371.332489
 20
-552.058037
 30
0.0
 40
4.71975
  0
LINE
  5
11B1
330
18D2
100
AcDbEntity
  8
V0-VYPLNE
 62
    63
100
AcDbLine
 10
371.332489
 20
-572.285537
 30
0.0
 11
371.332489
 21
-531.8305370000001
 31
0.0
  0
LINE
  5
11BB
330
18D2
100
AcDbEntity
  8
V0-VYPLNE
100
AcDbLine
 10
206.141239
 20
63.833994
 30
0.0
 11
206.141239
 21
-272.319392
 31
0.0
  0
LINE
  5
11BE
330
18D2
100
AcDbEntity
  8
V0-VYPLNE
100
AcDbLine
 10
41.141239
 20
-286.166006
 30
0.0
 11
41.141239
 21
-236.166006
 31
0.0
  0
LINE
  5
11BF
330
18D2
100
AcDbEntity
  8
V0-VYPLNE
100
AcDbLine
 10
371.141239
 20
-286.166006
 30
0.0
 11
371.141239
 21
-236.166006
 31
0.0
  0
POINT
  5
12BC
330
18D2
100
AcDbEntity
  8
V0-VYPLNE
  6
CONTINUOUS
 62
    41
100
AcDbPoint
 10
206.141239
 20
-717.249287
 30
0.0
  0
POINT
  5
12BD
330
18D2
100
AcDbEntity
  8
V0-VYPLNE
  6
CONTINUOUS
 62
    41
100
AcDbPoint
 10
206.141239
 20
-276.166006
 30
0.0
  0
LINE
  5
13BB
330
18D2
100
AcDbEntity
  8
V0-VYPLNE
  6
DASHDOT
 62
    63
100
AcDbLine
 10
-32.543657
 20
-717.249287
 30
0.0
 11
453.422878
 21
-717.249287
 31
0.0
  0
CIRCLE
  5
13BE
330
18D2
100
AcDbEntity
  8
V0-OBRYS
  6
CONTINUOUS
 62
    90
100
AcDbCircle
 10
206.141239
 20
-717.249287
 30
0.0
 40
280.125
  0
CIRCLE
  5
13BF
330
18D2
100
AcDbEntity
  8
V0-OBRYS
  6
CONTINUOUS
 62
    90
100
AcDbCircle
 10
206.141239
 20
-717.249287
 30
0.0
 40
261.750219
  0
CIRCLE
  5
13C0
330
18D2
100
AcDbEntity
  8
V0-VYPLNE
  6
DASHED
 62
    52
100
AcDbCircle
 10
206.141239
 20
-717.249287
 30
0.0
 40
124.3375
  0
LINE
  5
13C2
330
18D2
100
AcDbEntity
  8
V0-VYPLNE
 62
    63
100
AcDbLine
 10
391.559989
 20
-552.058037
 30
0.0
 11
351.104989
 21
-552.058037
 31
0.0
  0
LINE
  5
13C5
330
18D2
100
AcDbEntity
  8
V0-VYPLNE
 62
    63
100
AcDbLine
 10
61.177489
 20
-552.058037
 30
0.0
 11
20.722489
 21
-552.058037
 31
0.0
  0
LINE
  5
13C6
330
18D2
100
AcDbEntity
  8
V0-VYPLNE
 62
    63
100
AcDbLine
 10
40.949989
 20
-531.8305370000001
 30
0.0
 11
40.949989
 21
-572.285537
 31
0.0
  0
CIRCLE
  5
13C7
330
18D2
100
AcDbEntity
  8
V0-VYPLNE
  6
DASHED
 62
    56
100
AcDbCircle
 10
40.949989
 20
-552.058037
 30
0.0
 40
4.71975
  0
LINE
  5
13C8
330
18D2
100
AcDbEntity
  8
V0-VYPLNE
 62
    63
100
AcDbLine
 10
40.949989
 20
-862.213037
 30
0.0
 11
40.949989
 21
-902.668037
 31
0.0
  0
LINE
  5
13C9
330
18D2
100
AcDbEntity
  8
V0-VYPLNE
 62
    63
100
AcDbLine
 10
20.722489
 20
-882.440537
 30
0.0
 11
61.17748899999999
 21
-882.440537
 31
0.0
  0
CIRCLE
  5
13CA
330
18D2
100
AcDbEntity
  8
V0-VYPLNE
  6
DASHED
 62
    56
100
AcDbCircle
 10
40.949989
 20
-882.440537
 30
0.0
 40
4.71975
  0
LINE
  5
13CB
330
18D2
100
AcDbEntity
  8
V0-VYPLNE
 62
    63
100
AcDbLine
 10
351.104989
 20
-882.440537
 30
0.0
 11
391.559989
 21
-882.440537
 31
0.0
  0
LINE
  5
13CC
330
18D2
100
AcDbEntity
  8
V0-VYPLNE
 62
    63
100
AcDbLine
 10
371.332489
 20
-902.668037
 30
0.0
 11
371.332489
 21
-862.213037
 31
0.0
  0
CIRCLE
  5
13CD
330
18D2
100
AcDbEntity
  8
V0-VYPLNE
  6
DASHED
 62
    56
100
AcDbCircle
 10
371.332489
 20
-882.440537
 30
0.0
 40
4.71975
  0
LINE
  5
13CE
330
18D2
100
AcDbEntity
  8
V0-VYPLNE
  6
DASHED
 62
    52
100
AcDbLine
 10
423.641239
 20
-499.749287
 30
0.0
 11
-11.35876100000002
 21
-499.749287
 31
0.0
  0
LINE
  5
13CF
330
18D2
100
AcDbEntity
  8
V0-VYPLNE
  6
DASHED
 62
    52
100
AcDbLine
 10
-11.358761
 20
-499.749287
 30
0.0
 11
-11.358761
 21
-934.749287
 31
0.0
  0
LINE
  5
13D0
330
18D2
100
AcDbEntity
  8
V0-VYPLNE
  6
DASHED
 62
    52
100
AcDbLine
 10
-11.358761
 20
-934.749287
 30
0.0
 11
423.641239
 21
-934.749287
 31
0.0
  0
LINE
  5
13D1
330
18D2
100
AcDbEntity
  8
V0-VYPLNE
  6
DASHED
 62
    52
100
AcDbLine
 10
423.641239
 20
-934.749287
 30
0.0
 11
423.641239
 21
-499.749287
 31
0.0
  0
LINE
  5
13D2
330
18D2
100
AcDbEntity
  8
V0-OBRYS
  6
CONTINUOUS
 62
    90
100
AcDbLine
 10
-11.358761
 20
-276.166006
 30
0.0
 11
423.641239
 21
-276.166006
 31
0.0
  0
LINE
  5
13D3
330
18D2
100
AcDbEntity
  8
V0-OBRYS
  6
CONTINUOUS
 62
    90
100
AcDbLine
 10
423.641239
 20
-276.166006
 30
0.0
 11
423.641239
 21
-261.166006
 31
0.0
  0
LINE
  5
13D4
330
18D2
100
AcDbEntity
  8
V0-OBRYS
  6
CONTINUOUS
 62
    90
100
AcDbLine
 10
423.641239
 20
-261.166006
 30
0.0
 11
-11.35876100000002
 21
-261.166006
 31
0.0
  0
LINE
  5
13D5
330
18D2
100
AcDbEntity
  8
V0-OBRYS
  6
CONTINUOUS
 62
    90
100
AcDbLine
 10
-11.358761
 20
-261.166006
 30
0.0
 11
-11.358761
 21
-276.166006
 31
0.0
  0
LINE
  5
13D6
330
18D2
100
AcDbEntity
  8
V0-OBRYS
  6
CONTINUOUS
 62
    90
100
AcDbLine
 10
28.641239
 20
-261.166006
 30
0.0
 11
28.641239
 21
-258.166006
 31
0.0
  0
LINE
  5
13D7
330
18D2
100
AcDbEntity
  8
V0-OBRYS
  6
CONTINUOUS
 62
    90
100
AcDbLine
 10
28.641239
 20
-258.166006
 30
0.0
 11
383.641239
 21
-258.166006
 31
0.0
  0
LINE
  5
13D8
330
18D2
100
AcDbEntity
  8
V0-OBRYS
  6
CONTINUOUS
 62
    90
100
AcDbLine
 10
383.641239
 20
-258.166006
 30
0.0
 11
383.641239
 21
-261.166006
 31
0.0
  0
LINE
  5
13D9
330
18D2
100
AcDbEntity
  8
V0-OBRYS
  6
CONTINUOUS
 62
    90
100
AcDbLine
 10
326.141239
 20
-258.166006
 30
0.0
 11
326.141239
 21
-29.66464300000001
 31
0.0
  0
ARC
  5
13DB
330
18D2
100
AcDbEntity
  8
V0-OBRYS
  6
CONTINUOUS
 62
    90
100
AcDbCircle
 10
279.141239
 20
-213.166006
 30
0.0
 40
277.0
100
AcDbArc
 50
41.487741
 51
45.576167
  0
LINE
  5
13DD
330
18D2
100
AcDbEntity
  8
V0-OBRYS
  6
CONTINUOUS
 62
    90
100
AcDbLine
 10
-74.358761
 20
-29.664643
 30
0.0
 11
486.641239
 21
-29.664643
 31
0.0
  0
LINE
  5
13DE
330
18D2
100
AcDbEntity
  8
V0-OBRYS
  6
CONTINUOUS
 62
    90
100
AcDbLine
 10
353.641239
 20
-258.166006
 30
0.0
 11
418.827153
 21
-29.66464300000001
 31
0.0
  0
LINE
  5
13E1
330
18D2
100
AcDbEntity
  8
V0-OBRYS
  6
CONTINUOUS
 62
    90
100
AcDbLine
 10
-60.747813
 20
-15.337707
 30
0.0
 11
473.03029
 21
-15.337707
 31
0.0
  0
LINE
  5
13E2
330
18D2
100
AcDbEntity
  8
V0-OBRYS
  6
CONTINUOUS
 62
    90
100
AcDbLine
 10
-54.722551
 20
-9.607177
 30
0.0
 11
467.005028
 21
-9.607177
 31
0.0
  0
ARC
  5
13E3
330
18D2
100
AcDbEntity
  8
V0-OBRYS
  6
CONTINUOUS
 62
    90
100
AcDbCircle
 10
133.141239
 20
-213.166006
 30
0.0
 40
277.0
100
AcDbArc
 50
134.423833
 51
138.512259
  0
LINE
  5
13E4
330
18D2
100
AcDbEntity
  8
V0-OBRYS
  6
CONTINUOUS
 62
    90
100
AcDbLine
 10
-54.722551
 20
-9.607177
 30
0.0
 11
-54.722551
 21
-15.310434
 31
0.0
  0
ARC
  5
13E6
330
18D2
100
AcDbEntity
  8
V0-OBRYS
  6
CONTINUOUS
 62
    90
100
AcDbCircle
 10
206.141239
 20
-436.182009
 30
0.0
 40
500.016004
100
AcDbArc
 50
58.552916
 51
121.447084
  0
LINE
  5
13E7
330
18D2
100
AcDbEntity
  8
V0-OBRYS
  6
CONTINUOUS
 62
    90
100
AcDbLine
 10
467.005028
 20
-9.607177
 30
0.0
 11
467.005028
 21
-15.296768
 31
0.0
  0
LINE
  5
13E8
330
18D2
100
AcDbEntity
  8
V0-OBRYS
  6
CONTINUOUS
 62
    90
100
AcDbLine
 10
119.871072
 20
-226.166006
 30
0.0
 11
292.411405
 21
-226.166006
 31
0.0
  0
LINE
  5
13EA
330
18D2
100
AcDbEntity
  8
V0-OBRYS
  6
CONTINUOUS
 62
    90
100
AcDbLine
 10
331.141239
 20
-256.166006
 30
0.0
 11
331.141239
 21
-276.166006
 31
0.0
  0
LINE
  5
13EC
330
18D2
100
AcDbEntity
  8
V0-OBRYS
  6
CONTINUOUS
 62
    90
100
AcDbLine
 10
311.141239
 20
-29.664643
 30
0.0
 11
311.141239
 21
-201.524989
 31
0.0
  0
ARC
  5
13ED
330
18D2
100
AcDbEntity
  8
V0-OBRYS
  6
CONTINUOUS
 62
    90
100
AcDbCircle
 10
331.141239
 20
-236.166006
 30
0.0
 40
40.0
100
AcDbArc
 50
120.0
 51
213.367013
  0
ARC
  5
13EE
330
18D2
100
AcDbEntity
  8
V0-OBRYS
  6
CONTINUOUS
 62
    90
100
AcDbCircle
 10
81.141239
 20
-236.166006
 30
0.0
 40
40.0
100
AcDbArc
 50
326.632987
 51
59.99999999999999
  0
LINE
  5
13EF
330
18D2
100
AcDbEntity
  8
V0-OBRYS
  6
CONTINUOUS
 62
    90
100
AcDbLine
 10
101.141239
 20
-29.664643
 30
0.0
 11
101.141239
 21
-201.524989
 31
0.0
  0
LINE
  5
13F0
330
18D2
100
AcDbEntity
  8
V0-OBRYS
  6
CONTINUOUS
 62
    90
100
AcDbLine
 10
86.141239
 20
-258.166006
 30
0.0
 11
86.141239
 21
-29.66464300000001
 31
0.0
  0
LINE
  5
13F1
330
18D2
100
AcDbEntity
  8
V0-OBRYS
  6
CONTINUOUS
 62
    90
100
AcDbLine
 10
58.641239
 20
-258.166006
 30
0.0
 11
-6.544675999999996
 21
-29.66464300000001
 31
0.0
  0
LINE
  5
13F2
330
18D2
100
AcDbEntity
  8
V0-OBRYS
  6
CONTINUOUS
 62
    90
100
AcDbLine
 10
111.141239
 20
-209.708493
 30
0.0
 11
111.141239
 21
-29.66464300000001
 31
0.0
  0
LINE
  5
13F3
330
18D2
100
AcDbEntity
  8
V0-OBRYS
  6
CONTINUOUS
 62
    90
100
AcDbLine
 10
301.141239
 20
-209.708493
 30
0.0
 11
301.141239
 21
-29.66464300000001
 31
0.0
  0
LINE
  5
1414
330
18D2
100
AcDbEntity
  8
V0-VYPLNE
  6
CONTINUOUS
 62
    52
100
AcDbLine
 10
86.141239
 20
-29.664643
 30
0.0
 11
326.141239
 21
-29.664643
 31
0.0
  0
LINE
  5
1415
330
18D2
100
AcDbEntity
  8
V0-VYPLNE
  6
CONTINUOUS
 62
    52
100
AcDbLine
 10
326.141239
 20
-29.664643
 30
0.0
 11
326.141239
 21
-258.166006
 31
0.0
  0
LINE
  5
1416
330
18D2
100
AcDbEntity
  8
V0-VYPLNE
  6
CONTINUOUS
 62
    52
100
AcDbLine
 10
326.141239
 20
-258.166006
 30
0.0
 11
86.14123899999999
 21
-258.166006
 31
0.0
  0
LINE
  5
1417
330
18D2
100
AcDbEntity
  8
V0-VYPLNE
  6
CONTINUOUS
 62
    52
100
AcDbLine
 10
86.141239
 20
-258.166006
 30
0.0
 11
86.141239
 21
-29.66464300000001
 31
0.0
  0
HATCH
  5
142F
330
18D2
100
AcDbEntity
  8
V0-VYPLNE
  6
CONTINUOUS
 62
    52
100
AcDbHatch
 10
0.0
 20
0.0
 30
0.0
210
0.0
220
0.0
230
1.0
  2
NET
 70
     0
 71
     0
 91
        1
 92
        3
 72
     0
 73
     1
 93
        4
 10
326.1412387300806
 20
-29.66464323797237
 10
86.14123873008057
 20
-29.66464323797234
 10
86.14123873008066
 20
-258.166005630735
 10
326.1412387300806
 20
-258.166005630735
 97
        0
 75
     0
 76
     2
 52
0.0
 41
5.0
 77
     0
 78
     2
 53
0.0
 43
206.141239
 44
-213.166006
 45
0.0
 46
15.875
 79
     0
 53
90.0
 43
206.141239
 44
-213.166006
 45
-15.875
 46
0.000000000000001
 79
     0
 98
        1
 10
0.0
 20
0.0
1001
VDEXTRAPARAM
1071
       76
1071
        0
1071
        0
1040
5.0
1000
NET
1000

1040
0.0
1040
0.0
  0
LINE
  5
1456
330
18D2
100
AcDbEntity
  8
V0-OBRYS
  6
CONTINUOUS
 62
    90
100
AcDbLine
 10
81.141239
 20
-256.166006
 30
0.0
 11
81.141239
 21
-276.166006
 31
0.0
  0
INSERT
  5
145C
330
18D2
100
AcDbEntity
  8
V0-VYPLNE
  6
CONTINUOUS
 62
    52
100
AcDbBlockReference
  2
A10_100
 10
1091.344077
 20
-456.786598
 30
0.0
  0
DIMENSION
  5
1469
330
18D2
100
AcDbEntity
  8
V0-VYPLNE
  6
CONTINUOUS
 62
    41
100
AcDbDimension
  2
*D5
 10
331.141239
 20
-316.0558190000011
 30
0.0
 11
206.141239
 21
-304.5558190000011
 31
0.0
 70
    32
  1
%%c<>
  3
ED20
100
AcDbAlignedDimension
 13
81.141239
 23
-276.166006
 33
0.0
 14
331.141239
 24
-276.166006
 34
0.0
100
AcDbRotatedDimension
1001
ACAD
1000
DSTYLE
1002
{
1070
    40
1040
1.0
1002
}
  0
DIMENSION
  5
1476
330
18D2
100
AcDbEntity
  8
V0-VYPLNE
  6
CONTINUOUS
 62
    41
100
AcDbDimension
  2
*D6
 10
371.141239
 20
-368.1089769999962
 30
0.0
 11
206.141239
 21
-368.108977
 31
0.0
 70
   160
  3
ED20
100
AcDbAlignedDimension
 13
41.141239
 23
-276.166006
 33
0.0
 14
371.141239
 24
-276.166006
 34
0.0
100
AcDbRotatedDimension
1001
ACAD
1000
DSTYLE
1002
{
1070
    40
1040
1.0
1002
}
  0
DIMENSION
  5
1483
330
18D2
100
AcDbEntity
  8
V0-VYPLNE
  6
CONTINUOUS
 62
    41
100
AcDbDimension
  2
*D7
 10
423.641239
 20
-413.3558540000231
 30
0.0
 11
206.141239
 21
-413.355854
 31
0.0
 70
   160
  3
ED20
100
AcDbAlignedDimension
 13
-11.358761
 23
-276.166006
 33
0.0
 14
423.641239
 24
-276.166006
 34
0.0
100
AcDbRotatedDimension
1001
ACAD
1000
DSTYLE
1002
{
1070
    40
1040
1.0
1002
}
  0
DIMENSION
  5
1490
330
18D2
100
AcDbEntity
  8
V0-VYPLNE
  6
CONTINUOUS
 62
    41
100
AcDbDimension
  2
*D8
 10
537.1024989999975
 20
63.83399399999998
 30
0.0
 11
537.102499
 21
-106.166006
 31
0.0
 70
   160
  3
ED20
100
AcDbAlignedDimension
 13
423.641239
 23
-276.166006
 33
0.0
 14
206.141239
 24
63.833994
 34
0.0
 50
90.0
100
AcDbRotatedDimension
1001
ACAD
1000
DSTYLE
1002
{
1070
    40
1040
1.0
1002
}
  0
LINE
  5
14A6
330
18D2
100
AcDbEntity
  8
V0-VYPLNE
  6
CONTINUOUS
 62
    41
100
AcDbLine
 10
160.488935
 20
-410.679259
 30
0.0
 11
170.923077
 21
-392.030431
 31
0.0
  0
LWPOLYLINE
  5
14A7
330
18D2
100
AcDbEntity
  8
V0-VYPLNE
  6
CONTINUOUS
 62
    41
100
AcDbPolyline
 90
        4
 70
     1
 43
0.0
 10
160.56692
 20
-406.883264
 10
171.664727
 20
-406.883264
 10
171.664727
 20
-395.768671
 10
160.56692
 20
-395.768671
  0
LWPOLYLINE
  5
14A8
330
18D2
100
AcDbEntity
  8
V0-VYPLNE
  6
CONTINUOUS
 62
    41
100
AcDbPolyline
 90
        4
 70
     1
 43
0.0
 10
160.56692
 20
-358.995475
 10
171.664727
 20
-358.995475
 10
171.664727
 20
-347.880883
 10
160.56692
 20
-347.880883
  0
LINE
  5
14A9
330
18D2
100
AcDbEntity
  8
V0-VYPLNE
  6
CONTINUOUS
 62
    41
100
AcDbLine
 10
160.488935
 20
-362.79147
 30
0.0
 11
170.923077
 21
-344.142642
 31
0.0
  0
DIMENSION
  5
14E2
330
18D2
100
AcDbEntity
  8
V0-VYPLNE
  6
CONTINUOUS
 62
    41
100
AcDbDimension
  2
*D9
 10
486.641239
 20
111.3242329999994
 30
0.0
 11
206.141239
 21
111.324233
 31
0.0
 70
   160
  1
%%c<>
  3
ED20
100
AcDbAlignedDimension
 13
-74.358761
 23
-29.664643
 33
0.0
 14
486.641239
 24
-29.664643
 34
0.0
100
AcDbRotatedDimension
1001
ACAD
1000
DSTYLE
1002
{
1070
    40
1040
1.0
1002
}
  0
LINE
  5
1612
330
18D2
100
AcDbEntity
  8
V0-OBRYS
  6
CONTINUOUS
 62
    90
100
AcDbLine
 10
582.39879
 20
-29.664643
 30
0.0
 11
1143.39879
 21
-29.664643
 31
0.0
  0
LINE
  5
1613
330
18D2
100
AcDbEntity
  8
V0-OBRYS
  6
CONTINUOUS
 62
    90
100
AcDbLine
 10
596.009739
 20
-15.337707
 30
0.0
 11
1129.787841
 21
-15.337707
 31
0.0
  0
LINE
  5
1614
330
18D2
100
AcDbEntity
  8
V0-OBRYS
  6
CONTINUOUS
 62
    90
100
AcDbLine
 10
602.035
 20
-9.607177
 30
0.0
 11
1123.76258
 21
-9.607177
 31
0.0
  0
ARC
  5
1615
330
18D2
100
AcDbEntity
  8
V0-OBRYS
  6
CONTINUOUS
 62
    90
100
AcDbCircle
 10
862.89879
 20
-436.182009
 30
0.0
 40
500.016004
100
AcDbArc
 50
58.552916
 51
121.447084
  0
LINE
  5
1617
330
18D2
100
AcDbEntity
  8
V0-OBRYS
  6
CONTINUOUS
 62
    90
100
AcDbLine
 10
1080.39879
 20
-261.166006
 30
0.0
 11
645.39879
 21
-261.166006
 31
0.0
  0
LINE
  5
1618
330
18D2
100
AcDbEntity
  8
V0-OBRYS
  6
CONTINUOUS
 62
    90
100
AcDbLine
 10
645.39879
 20
-276.166006
 30
0.0
 11
1080.39879
 21
-276.166006
 31
0.0
  0
LINE
  5
1619
330
18D2
100
AcDbEntity
  8
V0-OBRYS
  6
CONTINUOUS
 62
    90
100
AcDbLine
 10
685.39879
 20
-258.166006
 30
0.0
 11
1040.39879
 21
-258.166006
 31
0.0
  0
LINE
  5
161A
330
18D2
100
AcDbEntity
  8
V0-OBRYS
  6
CONTINUOUS
 62
    90
100
AcDbLine
 10
715.39879
 20
-258.166006
 30
0.0
 11
650.2128760000001
 21
-29.66464300000001
 31
0.0
  0
LINE
  5
161B
330
18D2
100
AcDbEntity
  8
V0-OBRYS
  6
CONTINUOUS
 62
    90
100
AcDbLine
 10
645.39879
 20
-261.166006
 30
0.0
 11
645.39879
 21
-276.166006
 31
0.0
  0
LINE
  5
161C
330
18D2
100
AcDbEntity
  8
V0-OBRYS
  6
CONTINUOUS
 62
    90
100
AcDbLine
 10
685.39879
 20
-261.166006
 30
0.0
 11
685.39879
 21
-258.166006
 31
0.0
  0
LINE
  5
161D
330
18D2
100
AcDbEntity
  8
V0-VYPLNE
100
AcDbLine
 10
697.89879
 20
-286.166006
 30
0.0
 11
697.89879
 21
-236.166006
 31
0.0
  0
ARC
  5
161E
330
18D2
100
AcDbEntity
  8
V0-OBRYS
  6
CONTINUOUS
 62
    90
100
AcDbCircle
 10
789.89879
 20
-213.166006
 30
0.0
 40
277.0
100
AcDbArc
 50
134.423833
 51
138.512259
  0
LINE
  5
161F
330
18D2
100
AcDbEntity
  8
V0-OBRYS
  6
CONTINUOUS
 62
    90
100
AcDbLine
 10
602.035
 20
-9.607177
 30
0.0
 11
602.035
 21
-15.310434
 31
0.0
  0
LINE
  5
1620
330
18D2
100
AcDbEntity
  8
V0-VYPLNE
  6
CONTINUOUS
 62
    52
100
AcDbLine
 10
742.89879
 20
-29.664643
 30
0.0
 11
982.89879
 21
-29.664643
 31
0.0
  0
HATCH
  5
1621
330
18D2
100
AcDbEntity
  8
V0-VYPLNE
  6
CONTINUOUS
 62
    52
100
AcDbHatch
 10
0.0
 20
0.0
 30
0.0
210
0.0
220
0.0
230
1.0
  2
NET
 70
     0
 71
     0
 91
        1
 92
        3
 72
     0
 73
     1
 93
        4
 10
982.8987901399759
 20
-29.66464323797237
 10
742.8987901399759
 20
-29.66464323797237
 10
742.8987901399759
 20
-258.166005630735
 10
982.8987901399759
 20
-258.166005630735
 97
        0
 75
     0
 76
     2
 52
0.0
 41
5.0
 77
     0
 78
     2
 53
0.0
 43
206.141239
 44
-213.166006
 45
0.0
 46
15.875
 79
     0
 53
90.0
 43
206.141239
 44
-213.166006
 45
-15.875
 46
0.000000000000001
 79
     0
 98
        1
 10
0.0
 20
0.0
1001
VDEXTRAPARAM
1071
       76
1071
        0
1071
        0
1040
5.0
1000
NET
1000

1040
0.0
1040
0.0
  0
LINE
  5
1622
330
18D2
100
AcDbEntity
  8
V0-VYPLNE
  6
CONTINUOUS
 62
    52
100
AcDbLine
 10
982.89879
 20
-258.166006
 30
0.0
 11
742.89879
 21
-258.166006
 31
0.0
  0
LINE
  5
1624
330
18D2
100
AcDbEntity
  8
V0-OBRYS
  6
CONTINUOUS
 62
    90
100
AcDbLine
 10
776.628624
 20
-226.166006
 30
0.0
 11
949.168957
 21
-226.166006
 31
0.0
  0
LINE
  5
1625
330
18D2
100
AcDbEntity
  8
V0-VYPLNE
  6
CONTINUOUS
 62
    52
100
AcDbLine
 10
742.89879
 20
-258.166006
 30
0.0
 11
742.89879
 21
-29.66464300000001
 31
0.0
  0
LINE
  5
1626
330
18D2
100
AcDbEntity
  8
V0-OBRYS
  6
CONTINUOUS
 62
    90
100
AcDbLine
 10
767.89879
 20
-209.708493
 30
0.0
 11
767.89879
 21
-29.66464300000001
 31
0.0
  0
LINE
  5
1627
330
18D2
100
AcDbEntity
  8
V0-OBRYS
  6
CONTINUOUS
 62
    90
100
AcDbLine
 10
742.89879
 20
-258.166006
 30
0.0
 11
742.89879
 21
-29.66464300000001
 31
0.0
  0
LINE
  5
1628
330
18D2
100
AcDbEntity
  8
V0-OBRYS
  6
CONTINUOUS
 62
    90
100
AcDbLine
 10
757.89879
 20
-29.664643
 30
0.0
 11
757.89879
 21
-201.524989
 31
0.0
  0
LINE
  5
1629
330
18D2
100
AcDbEntity
  8
V0-VYPLNE
100
AcDbLine
 10
862.89879
 20
63.833994
 30
0.0
 11
862.89879
 21
-272.319392
 31
0.0
  0
ARC
  5
162A
330
18D2
100
AcDbEntity
  8
V0-OBRYS
  6
CONTINUOUS
 62
    90
100
AcDbCircle
 10
737.89879
 20
-236.166006
 30
0.0
 40
40.0
100
AcDbArc
 50
326.632987
 51
59.99999999999999
  0
LINE
  5
162B
330
18D2
100
AcDbEntity
  8
V0-OBRYS
  6
CONTINUOUS
 62
    90
100
AcDbLine
 10
737.89879
 20
-256.166006
 30
0.0
 11
737.89879
 21
-276.166006
 31
0.0
  0
POINT
  5
162C
330
18D2
100
AcDbEntity
  8
V0-VYPLNE
  6
CONTINUOUS
 62
    41
100
AcDbPoint
 10
862.89879
 20
-276.166006
 30
0.0
  0
LINE
  5
162D
330
18D2
100
AcDbEntity
  8
V0-OBRYS
  6
CONTINUOUS
 62
    90
100
AcDbLine
 10
1010.39879
 20
-258.166006
 30
0.0
 11
1075.584704
 21
-29.66464300000001
 31
0.0
  0
LINE
  5
162E
330
18D2
100
AcDbEntity
  8
V0-VYPLNE
  6
CONTINUOUS
 62
    52
100
AcDbLine
 10
982.89879
 20
-29.664643
 30
0.0
 11
982.89879
 21
-258.166006
 31
0.0
  0
LINE
  5
162F
330
18D2
100
AcDbEntity
  8
V0-OBRYS
  6
CONTINUOUS
 62
    90
100
AcDbLine
 10
957.89879
 20
-209.708493
 30
0.0
 11
957.89879
 21
-29.66464300000001
 31
0.0
  0
LINE
  5
1630
330
18D2
100
AcDbEntity
  8
V0-OBRYS
  6
CONTINUOUS
 62
    90
100
AcDbLine
 10
967.89879
 20
-29.664643
 30
0.0
 11
967.89879
 21
-201.524989
 31
0.0
  0
LINE
  5
1631
330
18D2
100
AcDbEntity
  8
V0-OBRYS
  6
CONTINUOUS
 62
    90
100
AcDbLine
 10
982.89879
 20
-258.166006
 30
0.0
 11
982.89879
 21
-29.66464300000001
 31
0.0
  0
ARC
  5
1632
330
18D2
100
AcDbEntity
  8
V0-OBRYS
  6
CONTINUOUS
 62
    90
100
AcDbCircle
 10
987.89879
 20
-236.166006
 30
0.0
 40
40.0
100
AcDbArc
 50
120.0
 51
213.367013
  0
LINE
  5
1633
330
18D2
100
AcDbEntity
  8
V0-OBRYS
  6
CONTINUOUS
 62
    90
100
AcDbLine
 10
987.89879
 20
-256.166006
 30
0.0
 11
987.89879
 21
-276.166006
 31
0.0
  0
LINE
  5
1634
330
18D2
100
AcDbEntity
  8
V0-VYPLNE
100
AcDbLine
 10
1027.89879
 20
-286.166006
 30
0.0
 11
1027.89879
 21
-236.166006
 31
0.0
  0
LINE
  5
1635
330
18D2
100
AcDbEntity
  8
V0-OBRYS
  6
CONTINUOUS
 62
    90
100
AcDbLine
 10
1040.39879
 20
-258.166006
 30
0.0
 11
1040.39879
 21
-261.166006
 31
0.0
  0
LINE
  5
1636
330
18D2
100
AcDbEntity
  8
V0-OBRYS
  6
CONTINUOUS
 62
    90
100
AcDbLine
 10
1080.39879
 20
-276.166006
 30
0.0
 11
1080.39879
 21
-261.166006
 31
0.0
  0
ARC
  5
1637
330
18D2
100
AcDbEntity
  8
V0-OBRYS
  6
CONTINUOUS
 62
    90
100
AcDbCircle
 10
935.89879
 20
-213.166006
 30
0.0
 40
277.0
100
AcDbArc
 50
41.487741
 51
45.576167
  0
LINE
  5
1638
330
18D2
100
AcDbEntity
  8
V0-OBRYS
  6
CONTINUOUS
 62
    90
100
AcDbLine
 10
1123.76258
 20
-9.607177
 30
0.0
 11
1123.76258
 21
-15.296768
 31
0.0
  0
LINE
  5
16AD
330
18D2
100
AcDbEntity
  8
V0-OBRYS
  6
CONTINUOUS
 62
    90
100
AcDbLine
 10
29.60862
 20
-499.749287
 30
0.0
 11
-11.358761
 21
-499.749287
 31
0.0
  0
LINE
  5
16AE
330
18D2
100
AcDbEntity
  8
V0-OBRYS
  6
CONTINUOUS
 62
    90
100
AcDbLine
 10
-11.358761
 20
-499.749287
 30
0.0
 11
-11.358761
 21
-540.716667
 31
0.0
  0
LINE
  5
16AF
330
18D2
100
AcDbEntity
  8
V0-OBRYS
  6
CONTINUOUS
 62
    90
100
AcDbLine
 10
-11.358761
 20
-893.7819060000001
 30
0.0
 11
-11.358761
 21
-934.749287
 31
0.0
  0
LINE
  5
16B0
330
18D2
100
AcDbEntity
  8
V0-OBRYS
  6
CONTINUOUS
 62
    90
100
AcDbLine
 10
-11.358761
 20
-934.749287
 30
0.0
 11
29.60862
 21
-934.749287
 31
0.0
  0
LINE
  5
16B1
330
18D2
100
AcDbEntity
  8
V0-OBRYS
  6
CONTINUOUS
 62
    90
100
AcDbLine
 10
382.673858
 20
-934.749287
 30
0.0
 11
423.641239
 21
-934.749287
 31
0.0
  0
LINE
  5
16B2
330
18D2
100
AcDbEntity
  8
V0-OBRYS
  6
CONTINUOUS
 62
    90
100
AcDbLine
 10
423.641239
 20
-934.749287
 30
0.0
 11
423.641239
 21
-893.7819060000001
 31
0.0
  0
LINE
  5
16B3
330
18D2
100
AcDbEntity
  8
V0-OBRYS
  6
CONTINUOUS
 62
    90
100
AcDbLine
 10
423.641239
 20
-540.716667
 30
0.0
 11
423.641239
 21
-499.749287
 31
0.0
  0
LINE
  5
16B4
330
18D2
100
AcDbEntity
  8
V0-OBRYS
  6
CONTINUOUS
 62
    90
100
AcDbLine
 10
423.641239
 20
-499.749287
 30
0.0
 11
382.673858
 21
-499.749287
 31
0.0
  0
TEXT
  5
18A2
330
18D2
100
AcDbEntity
  8
V0-NAZVY
  6
CONTINUOUS
100
AcDbText
 10
577.3796569107217
 20
-647.8318359999685
 30
0.0
 40
40.0
  1
CTHB/CTHT 200
  7
ED40
100
AcDbText
  0
LWPOLYLINE
  5
18A5
330
18D2
100
AcDbEntity
  8
V0-VYPLNE
  6
CONTINUOUS
 62
    41
100
AcDbPolyline
 90
        4
 70
     1
 43
0.0
 10
45.79446457356815
 20
-259.8242098211152
 10
60.85012
 20
-273.405018
 10
42.20369734941264
 20
-265.4412228339517
 10
42.20369734941264
 20
-265.4412228339517
1001
VDEXTRAPARAM
1071
       65
1071
        0
1071
        0
1040
1.0
1000

1000

1040
0.0
1040
0.0
  0
HATCH
  5
1945
330
18D2
100
AcDbEntity
  8
V0-VYPLNE
  6
CONTINUOUS
 62
    41
100
AcDbHatch
 10
0.0
 20
0.0
 30
0.0
210
0.0
220
0.0
230
1.0
  2
SOLID
 70
     1
 71
     0
 91
        1
 92
        2
 72
     0
 73
     1
 93
        3
 10
45.79446457356815
 20
-259.8242098211152
 10
60.85012
 20
-273.405018
 10
42.20369734941264
 20
-265.4412228339517
 97
        0
 75
     0
 76
     1
 98
        1
 10
0.0
 20
0.0
1001
VDEXTRAPARAM
1071
       65
1071
        0
1071
        0
1040
1.0
1000

1000

1040
0.0
1040
0.0
1001
VD_TEMPHATCH
1000
VD_TEMPHATCH
  0
LWPOLYLINE
  5
18A6
330
18D2
100
AcDbEntity
  8
V0-VYPLNE
  6
CONTINUOUS
 62
    41
100
AcDbPolyline
 90
        3
 70
     0
 43
0.0
 10
43.99908096149039
 20
-262.6327163275334
 10
-10.550576
 20
-227.760958
 10
-297.852348
 20
-227.760958
  0
TEXT
  5
18AB
330
18D2
100
AcDbEntity
  8
V0-VYPLNE
  6
CONTINUOUS
 62
    41
100
AcDbText
 10
-393.4791474285715
 20
-226.258005
 30
0.0
 40
30.0
  1
4 OTVORY %%c 12
  7
ED40
100
AcDbText
  0
VIEWPORT
  5
1946
330
18CE
100
AcDbEntity
 67
     1
  8
0
 60
     1
100
AcDbViewport
 10
261.517699
 20
148.5
 30
0.0
 40
297.0
 41
297.0
 68
     0
 69
     1
1001
VD_INVISIBLE_NOT_FOR_READ
1000
VD_INVISIBLE_NOT_FOR_READ
1001
ACAD
1000
MVIEW
1002
{
1070
    16
1010
0.0
1020
0.0
1030
0.0
1010
0.0
1020
0.0
1030
1.0
1040
6.2831853071796
1040
297.0
1040
261.517699
1040
148.5
1040
0.0
1040
0.0
1040
0.0
1070
     0
1070
   100
1070
     0
1070
     1
1070
     0
1070
     0
1070
     0
1070
     0
1040
0.0
1040
0.0
1040
0.0
1040
1.0
1040
1.0
1040
0.0
1040
0.0
1070
     0
1002
{
1002
}
1002
}
  0
VIEWPORT
  5
1947
330
18CE
100
AcDbEntity
 67
     1
  8
0
 60
     1
100
AcDbViewport
 10
261.517699
 20
148.5
 30
0.0
 40
297.0
 41
297.0
 68
     0
 69
     2
1001
VD_INVISIBLE_NOT_FOR_READ
1000
VD_INVISIBLE_NOT_FOR_READ
1001
ACAD
1000
MVIEW
1002
{
1070
    16
1010
0.0
1020
0.0
1030
0.0
1010
0.0
1020
0.0
1030
1.0
1040
6.2831853071796
1040
297.0
1040
261.517699
1040
148.5
1040
0.0
1040
0.0
1040
0.0
1070
     0
1070
   100
1070
     0
1070
     1
1070
     0
1070
     0
1070
     0
1070
     0
1040
0.0
1040
0.0
1040
0.0
1040
1.0
1040
1.0
1040
0.0
1040
0.0
1070
     0
1002
{
1002
}
1002
}
  0
ENDSEC
  0
SECTION
  2
OBJECTS
  0
DICTIONARY
  5
18BF
330
0
100
AcDbDictionary
  3
ACAD_GROUP
350
18C0
  3
ACAD_LAYOUT
350
18CD
  3
ACAD_MLINESTYLE
350
18CA
  3
ACAD_PLOTSETTINGS
350
18CC
  3
ACDBHEADERROUNDTRIPXREC
350
1948
  3
VECTORDRAW_OBJECTS
350
18E2
  0
DICTIONARY
  5
1968
330
18DC
100
AcDbDictionary
280
     1
  3
ACAD_XREC_ROUNDTRIP
360
1969
  0
DICTIONARY
  5
18C0
102
{ACAD_REACTORS
330
18BF
102
}
330
18BF
100
AcDbDictionary
  0
DICTIONARY
  5
18CD
102
{ACAD_REACTORS
330
18BF
102
}
330
18BF
100
AcDbDictionary
  0
DICTIONARY
  5
18CA
102
{ACAD_REACTORS
330
18BF
102
}
330
18BF
100
AcDbDictionary
  3
STANDARD
350
18CB
  0
DICTIONARY
  5
18CC
102
{ACAD_REACTORS
330
18BF
102
}
330
18BF
100
AcDbDictionary
  0
DICTIONARY
  5
1948
102
{ACAD_REACTORS
330
18BF
102
}
330
18BF
100
AcDbDictionary
  3
CEPSNTYPE
350
1951
  3
DIMSTYLEDATA
350
1967
  3
FINGERPRINTGUID
350
1952
  3
HYPERLINKBASE
350
194B
  3
INSUNITS
350
1950
  3
LAYOUTDICT
350
194D
  3
LWETCUNION
350
194F
  3
PLOTSETDICT
350
194E
  3
PSVPSCALE
350
1954
  3
PUCSBASE
350
1957
  3
PUCSORGBACK
350
195D
  3
PUCSORGBOTTOM
350
1959
  3
PUCSORGFRONT
350
195C
  3
PUCSORGLEFT
350
195A
  3
PUCSORGRIGHT
350
195B
  3
PUCSORGTOP
350
1958
  3
PUCSORTHOREF
350
1955
  3
PUCSORTHOVIEW
350
1956
  3
STYLESHEET
350
194C
  3
TSTACKALIGN
350
1949
  3
TSTACKSIZE
350
194A
  3
UCSBASE
350
1960
  3
UCSORGBACK
350
1966
  3
UCSORGBOTTOM
350
1962
  3
UCSORGFRONT
350
1965
  3
UCSORGLEFT
350
1963
  3
UCSORGRIGHT
350
1964
  3
UCSORGTOP
350
1961
  3
UCSORTHOREF
350
195E
  3
UCSORTHOVIEW
350
195F
  3
VERSIONGUID
350
1953
  0
DICTIONARY
  5
18E2
102
{ACAD_REACTORS
330
18BF
102
}
330
18BF
100
AcDbDictionary
  3
SERIALNO
350
18E3
  0
XRECORD
  5
1969
102
{ACAD_REACTORS
330
1968
102
}
330
1968
100
AcDbXrecord
102
UCS
 74
     0
 71
     1
 10
0.0
 20
0.0
 30
0.0
 10
1.0
 20
0.0
 30
0.0
 10
0.0
 20
1.0
 30
0.0
146
0.0
 79
     0
102
VIEW
281
     0
  0
MLINESTYLE
  5
18CB
102
{ACAD_REACTORS
330
18CA
102
}
330
18CA
100
AcDbMlineStyle
  2
Standard
 70
     0
  3

 62
   256
 51
90.0
 52
90.0
 71
     2
 49
0.5
 62
   256
  6
BYLAYER
 49
-0.5
 62
   256
  6
BYLAYER
  0
XRECORD
  5
1951
102
{ACAD_REACTORS
330
1948
102
}
330
1948
100
AcDbXrecord
 90
        0
  0
XRECORD
  5
1967
102
{ACAD_REACTORS
330
1948
102
}
330
1948
100
AcDbXrecord
1000
DSTYLE
1002
{
1070
    41
 40
20.0
1070
   342
340
90
1070
   271
 70
     0
1070
    44
 40
1.25
1070
    42
 40
1.0
1070
   147
 40
1.5
1070
    77
 70
     1
1070
    73
 70
     0
1070
   174
 70
     1
1070
   172
 70
     1
1070
    74
 70
     0
1070
   340
340
331
1070
   140
 40
20.0
1070
   288
 70
     1
1002
}
  0
XRECORD
  5
1952
102
{ACAD_REACTORS
330
1948
102
}
330
1948
100
AcDbXrecord
  1
{FAEB1C30-E019-11D5-929B-00C0DF256EC4}
  0
XRECORD
  5
194B
102
{ACAD_REACTORS
330
1948
102
}
330
1948
100
AcDbXrecord
  1

  0
XRECORD
  5
1950
102
{ACAD_REACTORS
330
1948
102
}
330
1948
100
AcDbXrecord
 90
        1
  0
XRECORD
  5
194D
102
{ACAD_REACTORS
330
1948
102
}
330
1948
100
AcDbXrecord
340
18CD
  0
XRECORD
  5
194F
102
{ACAD_REACTORS
330
1948
102
}
330
1948
100
AcDbXrecord
 90
     2560
  0
XRECORD
  5
194E
102
{ACAD_REACTORS
330
1948
102
}
330
1948
100
AcDbXrecord
340
18CC
  0
XRECORD
  5
1954
102
{ACAD_REACTORS
330
1948
102
}
330
1948
100
AcDbXrecord
 40
0.0
  0
XRECORD
  5
1957
102
{ACAD_REACTORS
330
1948
102
}
330
1948
100
AcDbXrecord
340
0
  0
XRECORD
  5
195D
102
{ACAD_REACTORS
330
1948
102
}
330
1948
100
AcDbXrecord
 10
0.0
 20
0.0
 30
0.0
  0
XRECORD
  5
1959
102
{ACAD_REACTORS
330
1948
102
}
330
1948
100
AcDbXrecord
 10
0.0
 20
0.0
 30
0.0
  0
XRECORD
  5
195C
102
{ACAD_REACTORS
330
1948
102
}
330
1948
100
AcDbXrecord
 10
0.0
 20
0.0
 30
0.0
  0
XRECORD
  5
195A
102
{ACAD_REACTORS
330
1948
102
}
330
1948
100
AcDbXrecord
 10
0.0
 20
0.0
 30
0.0
  0
XRECORD
  5
195B
102
{ACAD_REACTORS
330
1948
102
}
330
1948
100
AcDbXrecord
 10
0.0
 20
0.0
 30
0.0
  0
XRECORD
  5
1958
102
{ACAD_REACTORS
330
1948
102
}
330
1948
100
AcDbXrecord
 10
0.0
 20
0.0
 30
0.0
  0
XRECORD
  5
1955
102
{ACAD_REACTORS
330
1948
102
}
330
1948
100
AcDbXrecord
340
0
  0
XRECORD
  5
1956
102
{ACAD_REACTORS
330
1948
102
}
330
1948
100
AcDbXrecord
 70
     0
  0
XRECORD
  5
194C
102
{ACAD_REACTORS
330
1948
102
}
330
1948
100
AcDbXrecord
  1

  0
XRECORD
  5
1949
102
{ACAD_REACTORS
330
1948
102
}
330
1948
100
AcDbXrecord
 90
        1
  0
XRECORD
  5
194A
102
{ACAD_REACTORS
330
1948
102
}
330
1948
100
AcDbXrecord
 90
       70
  0
XRECORD
  5
1960
102
{ACAD_REACTORS
330
1948
102
}
330
1948
100
AcDbXrecord
340
0
  0
XRECORD
  5
1966
102
{ACAD_REACTORS
330
1948
102
}
330
1948
100
AcDbXrecord
 10
0.0
 20
0.0
 30
0.0
  0
XRECORD
  5
1962
102
{ACAD_REACTORS
330
1948
102
}
330
1948
100
AcDbXrecord
 10
0.0
 20
0.0
 30
0.0
  0
XRECORD
  5
1965
102
{ACAD_REACTORS
330
1948
102
}
330
1948
100
AcDbXrecord
 10
0.0
 20
0.0
 30
0.0
  0
XRECORD
  5
1963
102
{ACAD_REACTORS
330
1948
102
}
330
1948
100
AcDbXrecord
 10
0.0
 20
0.0
 30
0.0
  0
XRECORD
  5
1964
102
{ACAD_REACTORS
330
1948
102
}
330
1948
100
AcDbXrecord
 10
0.0
 20
0.0
 30
0.0
  0
XRECORD
  5
1961
102
{ACAD_REACTORS
330
1948
102
}
330
1948
100
AcDbXrecord
 10
0.0
 20
0.0
 30
0.0
  0
XRECORD
  5
195E
102
{ACAD_REACTORS
330
1948
102
}
330
1948
100
AcDbXrecord
340
0
  0
XRECORD
  5
195F
102
{ACAD_REACTORS
330
1948
102
}
330
1948
100
AcDbXrecord
 70
     0
  0
XRECORD
  5
1953
102
{ACAD_REACTORS
330
1948
102
}
330
1948
100
AcDbXrecord
  1
{FAEB1C32-E019-11D5-929B-00C0DF256EC4}
  0
XRECORD
  5
18E3
102
{ACAD_REACTORS
330
18E2
102
}
330
18E2
100
AcDbXrecord
1000
rInJVR9YY4Q8hfPWdUq5j5319
1070
     4
1070
     6
  0
ENDSEC
  0
EOF
