  0
SECTION
  2
HEADER
  9
$ACADVER
  1
AC1014
  9
$ACADMAINTVER
 70
     9
  9
$DWGCODEPAGE
  3
ANSI_1250
  9
$INSBASE
 10
0.0
 20
0.0
 30
0.0
  9
$EXTMIN
 10
-1289.323245571429
 20
-2347.489724
 30
0.0
  9
$EXTMAX
 10
2795.599667
 20
947.4758430000001
 30
0.0
  9
$LIMMIN
 10
0.0
 20
0.0
  9
$LIMMAX
 10
0.0
 20
0.0
  9
$ORTHOMODE
 70
     0
  9
$REGENMODE
 70
     1
  9
$FILLMODE
 70
     1
  9
$QTEXTMODE
 70
     0
  9
$MIRRTEXT
 70
     1
  9
$DRAGMODE
 70
     2
  9
$LTSCALE
 40
1.0
  9
$OSMODE
 70
    37
  9
$ATTMODE
 70
     1
  9
$TEXTSIZE
 40
0.2
  9
$TRACEWID
 40
0.05
  9
$TEXTSTYLE
  7
ED60
  9
$CLAYER
  8
V0-OBRYS
  9
$CELTYPE
  6
CONTINUOUS
  9
$CECOLOR
 62
    90
  9
$CELTSCALE
 40
1.0
  9
$DELOBJ
 70
     1
  9
$DISPSILH
 70
     0
  9
$DIMSCALE
 40
1.0
  9
$DIMASZ
 40
60.0
  9
$DIMEXO
 40
1.0
  9
$DIMDLI
 40
0.38
  9
$DIMRND
 40
0.0
  9
$DIMDLE
 40
0.0
  9
$DIMEXE
 40
1.25
  9
$DIMTP
 40
0.0
  9
$DIMTM
 40
0.0
  9
$DIMTXT
 40
50.0
  9
$DIMCEN
 40
0.09
  9
$DIMTSZ
 40
0.0
  9
$DIMTOL
 70
     0
  9
$DIMLIM
 70
     0
  9
$DIMTIH
 70
     0
  9
$DIMTOH
 70
     0
  9
$DIMSE1
 70
     0
  9
$DIMSE2
 70
     0
  9
$DIMTAD
 70
     1
  9
$DIMZIN
 70
     0
  9
$DIMBLK
  1
OPEN
  9
$DIMASO
 70
     1
  9
$DIMSHO
 70
     1
  9
$DIMPOST
  1

  9
$DIMAPOST
  1

  9
$DIMALT
 70
     0
  9
$DIMALTD
 70
     2
  9
$DIMALTF
 40
25.4
  9
$DIMLFAC
 40
1.0
  9
$DIMTOFL
 70
     1
  9
$DIMTVP
 40
0.0
  9
$DIMTIX
 70
     1
  9
$DIMSOXD
 70
     0
  9
$DIMSAH
 70
     0
  9
$DIMBLK1
  1

  9
$DIMBLK2
  1

  9
$DIMSTYLE
  2
ED60
  9
$DIMCLRD
 70
     0
  9
$DIMCLRE
 70
     0
  9
$DIMCLRT
 70
     0
  9
$DIMTFAC
 40
1.0
  9
$DIMGAP
 40
4.0
  9
$DIMJUST
 70
     0
  9
$DIMSD1
 70
     0
  9
$DIMSD2
 70
     0
  9
$DIMTOLJ
 70
     1
  9
$DIMTZIN
 70
     0
  9
$DIMALTZ
 70
     0
  9
$DIMALTTZ
 70
     0
  9
$DIMFIT
 70
     3
  9
$DIMUPT
 70
     1
  9
$DIMUNIT
 70
     2
  9
$DIMDEC
 70
     0
  9
$DIMTDEC
 70
     4
  9
$DIMALTU
 70
     2
  9
$DIMALTTD
 70
     2
  9
$DIMTXSTY
  7
ED60
  9
$DIMAUNIT
 70
     0
  9
$LUNITS
 70
     2
  9
$LUPREC
 70
     4
  9
$SKETCHINC
 40
0.1
  9
$FILLETRAD
 40
0.5
  9
$AUNITS
 70
     0
  9
$AUPREC
 70
     0
  9
$MENU
  1
.
  9
$ELEVATION
 40
0.0
  9
$PELEVATION
 40
0.0
  9
$THICKNESS
 40
0.0
  9
$LIMCHECK
 70
     0
  9
$BLIPMODE
 70
     0
  9
$CHAMFERA
 40
0.5
  9
$CHAMFERB
 40
0.5
  9
$CHAMFERC
 40
1.0
  9
$CHAMFERD
 40
0.0
  9
$SKPOLY
 70
     0
  9
$TDCREATE
 40
2455645.578953808
  9
$TDUPDATE
 40
2455645.578953819
  9
$TDINDWG
 40
0.0000000116
  9
$TDUSRTIMER
 40
0.0000000116
  9
$USRTIMER
 70
     1
  9
$ANGBASE
 50
0.0
  9
$ANGDIR
 70
     0
  9
$PDMODE
 70
     3
  9
$PDSIZE
 40
20.0
  9
$PLINEWID
 40
0.0
  9
$COORDS
 70
     1
  9
$SPLFRAME
 70
     0
  9
$SPLINETYPE
 70
     6
  9
$SPLINESEGS
 70
     8
  9
$ATTDIA
 70
     0
  9
$ATTREQ
 70
     1
  9
$HANDLING
 70
     1
  9
$HANDSEED
  5
2483
  9
$SURFTAB1
 70
     6
  9
$SURFTAB2
 70
     6
  9
$SURFTYPE
 70
     6
  9
$SURFU
 70
     6
  9
$SURFV
 70
     6
  9
$UCSNAME
  2

  9
$UCSORG
 10
0.0
 20
0.0
 30
0.0
  9
$UCSXDIR
 10
1.0
 20
0.0
 30
0.0
  9
$UCSYDIR
 10
0.0
 20
1.0
 30
0.0
  9
$PUCSNAME
  2

  9
$PUCSORG
 10
0.0
 20
0.0
 30
0.0
  9
$PUCSXDIR
 10
1.0
 20
0.0
 30
0.0
  9
$PUCSYDIR
 10
0.0
 20
1.0
 30
0.0
  9
$USERI1
 70
     0
  9
$USERI2
 70
     0
  9
$USERI3
 70
     0
  9
$USERI4
 70
     0
  9
$USERI5
 70
     0
  9
$USERR1
 40
0.0
  9
$USERR2
 40
0.0
  9
$USERR3
 40
0.0
  9
$USERR4
 40
0.0
  9
$USERR5
 40
0.0
  9
$WORLDVIEW
 70
     1
  9
$SHADEDGE
 70
     3
  9
$SHADEDIF
 70
    70
  9
$TILEMODE
 70
     1
  9
$MAXACTVP
 70
    64
  9
$PINSBASE
 10
0.0
 20
0.0
 30
0.0
  9
$PLIMCHECK
 70
     0
  9
$PEXTMIN
 10
1.000000000000000E+20
 20
1.000000000000000E+20
 30
1.000000000000000E+20
  9
$PEXTMAX
 10
-1.000000000000000E+20
 20
-1.000000000000000E+20
 30
-1.000000000000000E+20
  9
$PLIMMIN
 10
0.0
 20
0.0
  9
$PLIMMAX
 10
0.0
 20
0.0
  9
$UNITMODE
 70
     0
  9
$VISRETAIN
 70
     1
  9
$PLINEGEN
 70
     0
  9
$PSLTSCALE
 70
     1
  9
$TREEDEPTH
 70
  3020
  9
$PICKSTYLE
 70
     1
  9
$CMLSTYLE
  2
STANDARD
  9
$CMLJUST
 70
     0
  9
$CMLSCALE
 40
1.0
  9
$PROXYGRAPHICS
 70
     1
  9
$MEASUREMENT
 70
     0
  0
ENDSEC
  0
SECTION
  2
CLASSES
  0
CLASS
  1
ACDBDICTIONARYWDFLT
  2
AcDbDictionaryWithDefault
  3
ObjectDBX Classes
 90
        0
280
     0
281
     0
  0
CLASS
  1
XRECORD
  2
AcDbXrecord
  3
AutoCAD 2000
 90
        0
280
     0
281
     0
  0
CLASS
  1
LWPOLYLINE
  2
AcDbPolyline
  3
AutoCAD 2000
 90
        0
280
     0
281
     1
  0
CLASS
  1
HATCH
  2
AcDbHatch
  3
AutoCAD 2000
 90
        0
280
     0
281
     1
  0
CLASS
  1
ACDBPLACEHOLDER
  2
AcDbPlaceHolder
  3
ObjectDBX Classes
 90
        0
280
     0
281
     0
  0
CLASS
  1
LAYOUT
  2
AcDbLayout
  3
ObjectDBX Classes
 90
        0
280
     0
281
     0
  0
ENDSEC
  0
SECTION
  2
TABLES
  0
TABLE
  2
VPORT
  5
23D3
330
0
100
AcDbSymbolTable
 70
     2
  0
VPORT
  5
23F4
102
{ACAD_XDICTIONARY
360
2481
102
}
330
23D3
100
AcDbSymbolTableRecord
100
AcDbViewportTableRecord
  2
*ACTIVE
 70
     0
 10
0.0
 20
0.0
 11
1.0
 21
1.0
 12
857.899014
 22
-638.46142
 13
0.0
 23
0.0
 14
10.0
 24
10.0
 15
10.0
 25
10.0
 16
0.0
 26
0.0
 36
1.0
 17
0.0
 27
0.0
 37
0.0
 40
4024.436226
 41
0.00441223459846
 42
50.0
 43
0.0
 44
0.0
 50
0.0
 51
0.0000000000007958
 71
     0
 72
   100
 73
     1
 74
     3
 75
     0
 76
     0
 77
     0
 78
     0
  0
ENDTAB
  0
TABLE
  2
LTYPE
  5
23D0
330
0
100
AcDbSymbolTable
 70
    25
  0
LTYPE
  5
23DF
330
23D0
100
AcDbSymbolTableRecord
100
AcDbLinetypeTableRecord
  2
BYBLOCK
 70
     0
  3

 72
    65
 73
     0
 40
0.0
  0
LTYPE
  5
23E0
330
23D0
100
AcDbSymbolTableRecord
100
AcDbLinetypeTableRecord
  2
BYLAYER
 70
     0
  3

 72
    65
 73
     0
 40
0.0
  0
LTYPE
  5
23E1
330
23D0
100
AcDbSymbolTableRecord
100
AcDbLinetypeTableRecord
  2
CONTINUOUS
 70
     0
  3
Solid line
 72
    65
 73
     0
 40
0.0
  0
LTYPE
  5
23FC
330
23D0
100
AcDbSymbolTableRecord
100
AcDbLinetypeTableRecord
  2
CENTER
 70
     0
  3
Center ____ _ ____ _ ____ _ ____ _ ____ _ ____
 72
    65
 73
     4
 40
2.0
 49
1.25
 74
     0
 49
-0.25
 74
     0
 49
0.25
 74
     0
 49
-0.25
 74
     0
  0
LTYPE
  5
23FD
330
23D0
100
AcDbSymbolTableRecord
100
AcDbLinetypeTableRecord
  2
DASHDOT
 70
     0
  3
Dashdot __ . __ . __ . __ . __ . __ . __ . __
 72
    65
 73
     4
 40
1.0
 49
0.5
 74
     0
 49
-0.25
 74
     0
 49
0.0
 74
     0
 49
-0.25
 74
     0
  0
LTYPE
  5
23FE
330
23D0
100
AcDbSymbolTableRecord
100
AcDbLinetypeTableRecord
  2
DASHED
 70
     0
  3
Dashed __ __ __ __ __ __ __ __ __ __ __ __ __ _
 72
    65
 73
     2
 40
0.75
 49
0.5
 74
     0
 49
-0.25
 74
     0
  0
LTYPE
  5
23FF
330
23D0
100
AcDbSymbolTableRecord
100
AcDbLinetypeTableRecord
  2
HIDDEN
 70
     0
  3
Hidden __ __ __ __ __ __ __ __ __ __ __ __ __ __
 72
    65
 73
     2
 40
0.375
 49
0.25
 74
     0
 49
-0.125
 74
     0
  0
LTYPE
  5
2400
330
23D0
100
AcDbSymbolTableRecord
100
AcDbLinetypeTableRecord
  2
HIDDEN2
 70
     0
  3
Hidden2 _ _ _ _ _ _ _ _ _ _ _ _ _ _ _ _ _ 
 72
    65
 73
     2
 40
0.1875
 49
0.125
 74
     0
 49
-0.0625
 74
     0
  0
LTYPE
  5
2401
330
23D0
100
AcDbSymbolTableRecord
100
AcDbLinetypeTableRecord
  2
BORDER
 70
     0
  3
Border __ __ . __ __ . __ __ . __ __ . __ __ .
 72
    65
 73
     6
 40
1.75
 49
0.5
 74
     0
 49
-0.25
 74
     0
 49
0.5
 74
     0
 49
-0.25
 74
     0
 49
0.0
 74
     0
 49
-0.25
 74
     0
  0
LTYPE
  5
2402
330
23D0
100
AcDbSymbolTableRecord
100
AcDbLinetypeTableRecord
  2
BORDER2
 70
     0
  3
Border2 __.__.__.__.__.__.__.__.__.__.__.
 72
    65
 73
     6
 40
0.875
 49
0.25
 74
     0
 49
-0.125
 74
     0
 49
0.25
 74
     0
 49
-0.125
 74
     0
 49
0.0
 74
     0
 49
-0.125
 74
     0
  0
LTYPE
  5
2403
330
23D0
100
AcDbSymbolTableRecord
100
AcDbLinetypeTableRecord
  2
BORDERX2
 70
     0
  3
Borderx2  ____  ____  .  ____  ____  .  ___
 72
    65
 73
     6
 40
3.5
 49
1.0
 74
     0
 49
-0.5
 74
     0
 49
1.0
 74
     0
 49
-0.5
 74
     0
 49
0.0
 74
     0
 49
-0.5
 74
     0
  0
LTYPE
  5
2404
330
23D0
100
AcDbSymbolTableRecord
100
AcDbLinetypeTableRecord
  2
CENTER2
 70
     0
  3
Center2  ___ _ ___ _ ___ _ ___ _ ___ _ ___
 72
    65
 73
     4
 40
1.125
 49
0.75
 74
     0
 49
-0.125
 74
     0
 49
0.125
 74
     0
 49
-0.125
 74
     0
  0
LTYPE
  5
2405
330
23D0
100
AcDbSymbolTableRecord
100
AcDbLinetypeTableRecord
  2
CENTERX2
 70
     0
  3
Centerx2  ________  __  ________  __  _____
 72
    65
 73
     4
 40
4.0
 49
2.5
 74
     0
 49
-0.5
 74
     0
 49
0.5
 74
     0
 49
-0.5
 74
     0
  0
LTYPE
  5
2406
330
23D0
100
AcDbSymbolTableRecord
100
AcDbLinetypeTableRecord
  2
DASHDOT2
 70
     0
  3
Dashdot2  _._._._._._._._._._._._._._._.
 72
    65
 73
     4
 40
0.5
 49
0.25
 74
     0
 49
-0.125
 74
     0
 49
0.0
 74
     0
 49
-0.125
 74
     0
  0
LTYPE
  5
2407
330
23D0
100
AcDbSymbolTableRecord
100
AcDbLinetypeTableRecord
  2
DASHDOTX2
 70
     0
  3
Dashdotx2 ____  .  ____  .  ____  .  ___
 72
    65
 73
     4
 40
2.0
 49
1.0
 74
     0
 49
-0.5
 74
     0
 49
0.0
 74
     0
 49
-0.5
 74
     0
  0
LTYPE
  5
2408
330
23D0
100
AcDbSymbolTableRecord
100
AcDbLinetypeTableRecord
  2
DASHED2
 70
     0
  3
Dashed2 _ _ _ _ _ _ _ _ _ _ _ _ _ _ _ _ _ 
 72
    65
 73
     2
 40
0.375
 49
0.25
 74
     0
 49
-0.125
 74
     0
  0
LTYPE
  5
2409
330
23D0
100
AcDbSymbolTableRecord
100
AcDbLinetypeTableRecord
  2
DASHEDX2
 70
     0
  3
Dashedx2 ____  ____  ____  ____  ____  ___
 72
    65
 73
     2
 40
1.5
 49
1.0
 74
     0
 49
-0.5
 74
     0
  0
LTYPE
  5
240A
330
23D0
100
AcDbSymbolTableRecord
100
AcDbLinetypeTableRecord
  2
DIVIDE
 70
     0
  3
Divide ____ . . ____ . . ____ . . ____ . . ____
 72
    65
 73
     6
 40
1.25
 49
0.5
 74
     0
 49
-0.25
 74
     0
 49
0.0
 74
     0
 49
-0.25
 74
     0
 49
0.0
 74
     0
 49
-0.25
 74
     0
  0
LTYPE
  5
240B
330
23D0
100
AcDbSymbolTableRecord
100
AcDbLinetypeTableRecord
  2
DIVIDE2
 70
     0
  3
Divide2 __..__..__..__..__..__..__..__.._
 72
    65
 73
     6
 40
0.625
 49
0.25
 74
     0
 49
-0.125
 74
     0
 49
0.0
 74
     0
 49
-0.125
 74
     0
 49
0.0
 74
     0
 49
-0.125
 74
     0
  0
LTYPE
  5
240C
330
23D0
100
AcDbSymbolTableRecord
100
AcDbLinetypeTableRecord
  2
DIVIDEX2
 70
     0
  3
Dividex2 ________  .  .  ________  .  .  _
 72
    65
 73
     6
 40
2.5
 49
1.0
 74
     0
 49
-0.5
 74
     0
 49
0.0
 74
     0
 49
-0.5
 74
     0
 49
0.0
 74
     0
 49
-0.5
 74
     0
  0
LTYPE
  5
240D
330
23D0
100
AcDbSymbolTableRecord
100
AcDbLinetypeTableRecord
  2
DOT
 70
     0
  3
Dot . . . . . . . . . . . . . . . . . . . . . . . .
 72
    65
 73
     2
 40
0.25
 49
0.0
 74
     0
 49
-0.25
 74
     0
  0
LTYPE
  5
240E
330
23D0
100
AcDbSymbolTableRecord
100
AcDbLinetypeTableRecord
  2
DOT2
 70
     0
  3
Dot2 ........................................
 72
    65
 73
     2
 40
0.125
 49
0.0
 74
     0
 49
-0.125
 74
     0
  0
LTYPE
  5
240F
330
23D0
100
AcDbSymbolTableRecord
100
AcDbLinetypeTableRecord
  2
DOTX2
 70
     0
  3
Dotx2 .  .  .  .  .  .  .  .  .  .  .  .  .  .
 72
    65
 73
     2
 40
0.5
 49
0.0
 74
     0
 49
-0.5
 74
     0
  0
LTYPE
  5
2410
330
23D0
100
AcDbSymbolTableRecord
100
AcDbLinetypeTableRecord
  2
HIDDENX2
 70
     0
  3
Hiddenx2 ____ ____ ____ ____ ____ ____ ____ 
 72
    65
 73
     2
 40
0.75
 49
0.5
 74
     0
 49
-0.25
 74
     0
  0
LTYPE
  5
2411
330
23D0
100
AcDbSymbolTableRecord
100
AcDbLinetypeTableRecord
  2
PHANTOM
 70
     0
  3
Phantom ______  __  __  ______  __  __  ______ 
 72
    65
 73
     6
 40
2.5
 49
1.25
 74
     0
 49
-0.25
 74
     0
 49
0.25
 74
     0
 49
-0.25
 74
     0
 49
0.25
 74
     0
 49
-0.25
 74
     0
  0
LTYPE
  5
2412
330
23D0
100
AcDbSymbolTableRecord
100
AcDbLinetypeTableRecord
  2
PHANTOM2
 70
     0
  3
Phantom2 ___ _ _ ___ _ _ ___ _ _ ___ _ _
 72
    65
 73
     6
 40
1.25
 49
0.625
 74
     0
 49
-0.125
 74
     0
 49
0.125
 74
     0
 49
-0.125
 74
     0
 49
0.125
 74
     0
 49
-0.125
 74
     0
  0
LTYPE
  5
2413
330
23D0
100
AcDbSymbolTableRecord
100
AcDbLinetypeTableRecord
  2
PHANTOMX2
 70
     0
  3
Phantomx2 ____________    ____    ____   _
 72
    65
 73
     6
 40
5.0
 49
2.5
 74
     0
 49
-0.5
 74
     0
 49
0.5
 74
     0
 49
-0.5
 74
     0
 49
0.5
 74
     0
 49
-0.5
 74
     0
  0
ENDTAB
  0
TABLE
  2
LAYER
  5
23CD
330
0
100
AcDbSymbolTable
 70
     6
  0
LAYER
  5
23DB
330
23CD
100
AcDbSymbolTableRecord
100
AcDbLayerTableRecord
  2
0
 70
     0
 62
     7
  6
CONTINUOUS
  0
LAYER
  5
9E
330
23CD
100
AcDbSymbolTableRecord
100
AcDbLayerTableRecord
  2
DEFPOINTS
 70
     0
 62
     7
  6
CONTINUOUS
  0
LAYER
  5
377
330
23CD
100
AcDbSymbolTableRecord
100
AcDbLayerTableRecord
  2
V0-OBRYS
 70
     0
 62
    90
  6
CONTINUOUS
  0
LAYER
  5
378
330
23CD
100
AcDbSymbolTableRecord
100
AcDbLayerTableRecord
  2
V0-VYPLNE
 70
     0
 62
    63
  6
DASHDOT
  0
LAYER
  5
37A
330
23CD
100
AcDbSymbolTableRecord
100
AcDbLayerTableRecord
  2
V0-NAZVY
 70
     0
 62
   210
  6
CONTINUOUS
  0
LAYER
  5
559
330
23CD
100
AcDbSymbolTableRecord
100
AcDbLayerTableRecord
  2
V0-ZBYTEK
 70
     0
 62
    51
  6
CONTINUOUS
  0
ENDTAB
  0
TABLE
  2
STYLE
  5
23CE
330
0
100
AcDbSymbolTable
 70
     7
  0
STYLE
  5
23DC
330
23CE
100
AcDbSymbolTableRecord
100
AcDbTextStyleTableRecord
  2
STANDARD
 70
     0
 40
0.0
 41
1.0
 50
0.0
 71
     0
 42
0.2
  3
ISOCP.shx
  4

1001
ACAD
1000
ISOCP.shx
1071
        0
  0
STYLE
  5
331
330
23CE
100
AcDbSymbolTableRecord
100
AcDbTextStyleTableRecord
  2
ED20
 70
     0
 40
25.0
 41
1.0
 50
0.0
 71
     0
 42
0.2
  3
ISOCP.shx
  4

1001
ACAD
1000
ISOCP.shx
1071
        0
  0
STYLE
  5
648
330
23CE
100
AcDbSymbolTableRecord
100
AcDbTextStyleTableRecord
  2
ED10
 70
     0
 40
10.0
 41
1.0
 50
0.0
 71
     0
 42
0.2
  3
ISOCP.shx
  4

1001
ACAD
1000
ISOCP.shx
1071
        0
  0
STYLE
  5
F38
330
23CE
100
AcDbSymbolTableRecord
100
AcDbTextStyleTableRecord
  2
ED30
 70
     0
 40
30.0
 41
1.0
 50
0.0
 71
     0
 42
0.2
  3
ISOCP.shx
  4

1001
ACAD
1000
ISOCP.shx
1071
        0
  0
STYLE
  5
F39
330
23CE
100
AcDbSymbolTableRecord
100
AcDbTextStyleTableRecord
  2
ED40
 70
     0
 40
40.0
 41
1.0
 50
0.0
 71
     0
 42
0.2
  3
ISOCP.shx
  4

1001
ACAD
1000
ISOCP.shx
1071
        0
  0
STYLE
  5
1EA9
330
23CE
100
AcDbSymbolTableRecord
100
AcDbTextStyleTableRecord
  2
ED50
 70
     0
 40
50.0
 41
1.0
 50
0.0
 71
     0
 42
0.2
  3
ISOCP.shx
  4

1001
ACAD
1000
ISOCP.shx
1071
        0
  0
STYLE
  5
2121
330
23CE
100
AcDbSymbolTableRecord
100
AcDbTextStyleTableRecord
  2
ED60
 70
     0
 40
65.0
 41
1.0
 50
0.0
 71
     0
 42
0.2
  3
ISOCP.shx
  4

1001
ACAD
1000
ISOCP.shx
1071
        0
  0
ENDTAB
  0
TABLE
  2
VIEW
  5
23D1
330
0
100
AcDbSymbolTable
 70
     0
  0
ENDTAB
  0
TABLE
  2
UCS
  5
23D2
330
0
100
AcDbSymbolTable
 70
     0
  0
ENDTAB
  0
TABLE
  2
APPID
  5
23D4
330
0
100
AcDbSymbolTable
 70
     6
  0
APPID
  5
23DD
330
23D4
100
AcDbSymbolTableRecord
100
AcDbRegAppTableRecord
  2
ACAD
 70
     0
  0
APPID
  5
23F5
330
23D4
100
AcDbSymbolTableRecord
100
AcDbRegAppTableRecord
  2
VD_INVISIBLE_NOT_FOR_READ
 70
     0
  0
APPID
  5
23F6
330
23D4
100
AcDbSymbolTableRecord
100
AcDbRegAppTableRecord
  2
VD_TEMPHATCH
 70
     0
  0
APPID
  5
23F7
330
23D4
100
AcDbSymbolTableRecord
100
AcDbRegAppTableRecord
  2
VDEXTRAPARAM
 70
     0
  0
APPID
  5
23F8
330
23D4
100
AcDbSymbolTableRecord
100
AcDbRegAppTableRecord
  2
PE_URL
 70
     0
  0
APPID
  5
23F9
330
23D4
100
AcDbSymbolTableRecord
100
AcDbRegAppTableRecord
  2
VD_UNKNOWN
 70
     0
  0
ENDTAB
  0
TABLE
  2
DIMSTYLE
  5
23D5
330
0
100
AcDbSymbolTable
 70
     6
  0
DIMSTYLE
105
23F2
330
23D5
100
AcDbSymbolTableRecord
100
AcDbDimStyleTableRecord
  2
STANDARD
 70
     0
  3

  4

  5
OPEN
  6

  7

 40
1.0
 41
15.0
 42
0.625
 43
0.38
 44
1.25
 45
0.0
 46
0.0
 47
0.0
 48
0.0
140
15.0
141
0.09
142
0.0
143
25.4
144
1.0
145
0.0
146
1.0
147
3.0
 71
     0
 72
     0
 73
     0
 74
     0
 75
     0
 76
     0
 77
     1
 78
     0
170
     0
171
     2
172
     1
173
     0
174
     1
175
     0
176
     0
177
     0
178
     0
270
     2
271
     0
272
     4
273
     2
274
     2
340
331
275
     0
280
     0
281
     0
282
     0
283
     1
284
     0
285
     0
286
     0
287
     3
288
     1
  0
DIMSTYLE
105
397
330
23D5
100
AcDbSymbolTableRecord
100
AcDbDimStyleTableRecord
  2
ED40
 70
     0
  3

  4

  5
OPEN
  6

  7

 40
1.0
 41
35.0
 42
1.0
 43
0.38
 44
1.25
 45
0.0
 46
0.0
 47
0.0
 48
0.0
140
40.0
141
0.09
142
0.0
143
25.4
144
1.0
145
0.0
146
1.0
147
4.0
 71
     0
 72
     0
 73
     0
 74
     0
 75
     0
 76
     0
 77
     1
 78
     0
170
     0
171
     2
172
     1
173
     0
174
     1
175
     0
176
     0
177
     0
178
     0
270
     2
271
     0
272
     4
273
     2
274
     2
340
F39
275
     0
280
     0
281
     0
282
     0
283
     1
284
     0
285
     0
286
     0
287
     3
288
     1
  0
DIMSTYLE
105
FEA
330
23D5
100
AcDbSymbolTableRecord
100
AcDbDimStyleTableRecord
  2
ED30
 70
     0
  3

  4

  5
OPEN
  6

  7

 40
1.0
 41
25.0
 42
1.0
 43
0.38
 44
1.25
 45
0.0
 46
0.0
 47
0.0
 48
0.0
140
30.0
141
0.09
142
0.0
143
25.4
144
1.0
145
0.0
146
1.0
147
4.0
 71
     0
 72
     0
 73
     0
 74
     0
 75
     0
 76
     0
 77
     1
 78
     0
170
     0
171
     2
172
     1
173
     0
174
     1
175
     0
176
     0
177
     0
178
     0
270
     2
271
     0
272
     4
273
     2
274
     2
340
F38
275
     0
280
     0
281
     0
282
     0
283
     1
284
     0
285
     0
286
     0
287
     3
288
     1
  0
DIMSTYLE
105
1457
330
23D5
100
AcDbSymbolTableRecord
100
AcDbDimStyleTableRecord
  2
ED20
 70
     0
  3

  4

  5
OPEN
  6

  7

 40
1.0
 41
20.0
 42
1.0
 43
0.38
 44
1.25
 45
0.0
 46
0.0
 47
0.0
 48
0.0
140
20.0
141
0.09
142
0.0
143
25.4
144
1.0
145
0.0
146
1.0
147
1.5
 71
     0
 72
     0
 73
     0
 74
     0
 75
     0
 76
     0
 77
     1
 78
     0
170
     0
171
     2
172
     1
173
     0
174
     1
175
     0
176
     0
177
     0
178
     0
270
     2
271
     0
272
     4
273
     2
274
     2
340
331
275
     0
280
     0
281
     0
282
     0
283
     1
284
     0
285
     0
286
     0
287
     3
288
     1
  0
DIMSTYLE
105
1458
330
23D5
100
AcDbSymbolTableRecord
100
AcDbDimStyleTableRecord
  2
ED10
 70
     0
  3

  4

  5
OPEN
  6

  7

 40
1.0
 41
15.0
 42
1.0
 43
0.38
 44
1.25
 45
0.0
 46
0.0
 47
0.0
 48
0.0
140
10.0
141
0.09
142
0.0
143
25.4
144
1.0
145
0.0
146
1.0
147
1.5
 71
     0
 72
     0
 73
     0
 74
     0
 75
     0
 76
     0
 77
     1
 78
     0
170
     0
171
     2
172
     1
173
     0
174
     1
175
     0
176
     0
177
     0
178
     0
270
     2
271
     0
272
     4
273
     2
274
     2
340
331
275
     0
280
     0
281
     0
282
     0
283
     1
284
     0
285
     0
286
     0
287
     3
288
     1
  0
DIMSTYLE
105
2122
102
{ACAD_REACTORS
330
1469
330
1483
330
1490
330
1BAE
330
1E0D
102
}
330
23D5
100
AcDbSymbolTableRecord
100
AcDbDimStyleTableRecord
  2
ED60
 70
     0
  3

  4

  5
OPEN
  6

  7

 40
1.0
 41
60.0
 42
1.0
 43
0.38
 44
1.25
 45
0.0
 46
0.0
 47
0.0
 48
0.0
140
50.0
141
0.09
142
0.0
143
25.4
144
1.0
145
0.0
146
1.0
147
4.0
 71
     0
 72
     0
 73
     0
 74
     0
 75
     0
 76
     0
 77
     1
 78
     0
170
     0
171
     2
172
     1
173
     0
174
     1
175
     0
176
     0
177
     0
178
     0
270
     2
271
     0
272
     4
273
     2
274
     2
340
2121
275
     0
280
     0
281
     0
282
     0
283
     1
284
     0
285
     0
286
     0
287
     3
288
     1
  0
ENDTAB
  0
TABLE
  2
BLOCK_RECORD
  5
23CC
330
0
100
AcDbSymbolTable
 70
    10
  0
BLOCK_RECORD
  5
23EA
330
23CC
100
AcDbSymbolTableRecord
100
AcDbBlockTableRecord
  2
*MODEL_SPACE
  0
BLOCK_RECORD
  5
23E6
330
23CC
100
AcDbSymbolTableRecord
100
AcDbBlockTableRecord
  2
*PAPER_SPACE
  0
BLOCK_RECORD
  5
90
330
23CC
100
AcDbSymbolTableRecord
100
AcDbBlockTableRecord
  2
_OPEN
  0
BLOCK_RECORD
  5
1459
330
23CC
100
AcDbSymbolTableRecord
100
AcDbBlockTableRecord
  2
A10_100
  0
BLOCK_RECORD
  5
23C8
330
23CC
100
AcDbSymbolTableRecord
100
AcDbBlockTableRecord
  2
VDDIM_DEFAULT
  0
BLOCK_RECORD
  5
23CA
330
23CC
100
AcDbSymbolTableRecord
100
AcDbBlockTableRecord
  2
VDDIM_NONE
  0
BLOCK_RECORD
  5
241D
330
23CC
100
AcDbSymbolTableRecord
100
AcDbBlockTableRecord
  2
*D5
  0
BLOCK_RECORD
  5
242A
330
23CC
100
AcDbSymbolTableRecord
100
AcDbBlockTableRecord
  2
*D6
  0
BLOCK_RECORD
  5
2437
330
23CC
100
AcDbSymbolTableRecord
100
AcDbBlockTableRecord
  2
*D7
  0
BLOCK_RECORD
  5
2444
330
23CC
100
AcDbSymbolTableRecord
100
AcDbBlockTableRecord
  2
*D8
  0
BLOCK_RECORD
  5
2451
330
23CC
100
AcDbSymbolTableRecord
100
AcDbBlockTableRecord
  2
*D9
  0
ENDTAB
  0
ENDSEC
  0
SECTION
  2
BLOCKS
  0
BLOCK
  5
23EB
330
23EA
100
AcDbEntity
  8
0
100
AcDbBlockBegin
  2
*MODEL_SPACE
 70
     0
 71
     0
 10
0.0
 20
0.0
 30
0.0
  3
*MODEL_SPACE
  1

  0
ENDBLK
  5
23EC
330
23EA
100
AcDbEntity
  8
0
100
AcDbBlockEnd
  0
BLOCK
  5
23E7
330
23E6
100
AcDbEntity
 67
     1
  8
0
100
AcDbBlockBegin
  2
*PAPER_SPACE
 70
     0
 71
     0
 10
0.0
 20
0.0
 30
0.0
  3
*PAPER_SPACE
  1

  0
ENDBLK
  5
23E8
330
23E6
100
AcDbEntity
 67
     1
  8
0
100
AcDbBlockEnd
  0
BLOCK
  5
2414
330
90
100
AcDbEntity
  8
0
100
AcDbBlockBegin
  2
_OPEN
 70
     0
 71
     0
 10
0.0
 20
0.0
 30
0.0
  3
_OPEN
  1

  0
LINE
  5
92
330
90
100
AcDbEntity
  8
0
  6
BYBLOCK
 62
     0
100
AcDbLine
 10
-1.0
 20
0.166667
 30
0.0
 11
0.0
 21
0.0
 31
0.0
  0
LINE
  5
93
330
90
100
AcDbEntity
  8
0
  6
BYBLOCK
 62
     0
100
AcDbLine
 10
0.0
 20
0.0
 30
0.0
 11
-1.0
 21
-0.166667
 31
0.0
  0
LINE
  5
94
330
90
100
AcDbEntity
  8
0
  6
BYBLOCK
 62
     0
100
AcDbLine
 10
0.0
 20
0.0
 30
0.0
 11
-1.0
 21
0.0
 31
0.0
  0
ENDBLK
  5
2415
330
90
100
AcDbEntity
  8
0
100
AcDbBlockEnd
  0
BLOCK
  5
2416
330
1459
100
AcDbEntity
  8
0
100
AcDbBlockBegin
  2
A10_100
 70
     0
 71
     0
 10
0.0
 20
0.0
 30
0.0
  3
A10_100
  1

  0
ENDBLK
  5
2417
330
1459
100
AcDbEntity
  8
0
100
AcDbBlockEnd
  0
BLOCK
  5
2418
330
23C8
100
AcDbEntity
  8
0
100
AcDbBlockBegin
  2
VDDIM_DEFAULT
 70
     0
 71
     0
 10
0.0
 20
0.0
 30
0.0
  3
VDDIM_DEFAULT
  1

  0
LWPOLYLINE
  5
23C9
330
23C8
100
AcDbEntity
  8
0
  6
CONTINUOUS
 62
     0
100
AcDbPolyline
 90
        4
 70
     0
 43
0.0
 10
0.0
 20
0.0
 10
-1.0
 20
-0.1665
 10
-1.0
 20
0.1665
 10
0.0
 20
0.0
1001
VDEXTRAPARAM
1071
        1
1071
        0
1071
        0
1040
1.0
1000

1000

1040
0.0
1040
0.0
  0
HATCH
  5
241C
330
23C8
100
AcDbEntity
  8
0
  6
CONTINUOUS
 62
     0
100
AcDbHatch
 10
0.0
 20
0.0
 30
0.0
210
0.0
220
0.0
230
1.0
  2
SOLID
 70
     1
 71
     0
 91
        1
 92
        2
 72
     0
 73
     1
 93
        3
 10
0.0
 20
0.0
 10
-1.0
 20
-0.1665
 10
-1.0
 20
0.1665
 97
        0
 75
     0
 76
     1
 98
        1
 10
0.0
 20
0.0
1001
VDEXTRAPARAM
1071
        1
1071
        0
1071
        0
1040
1.0
1000

1000

1040
0.0
1040
0.0
1001
VD_TEMPHATCH
1000
VD_TEMPHATCH
  0
ENDBLK
  5
2419
330
23C8
100
AcDbEntity
  8
0
100
AcDbBlockEnd
  0
BLOCK
  5
241A
330
23CA
100
AcDbEntity
  8
0
100
AcDbBlockBegin
  2
VDDIM_NONE
 70
     0
 71
     0
 10
0.0
 20
0.0
 30
0.0
  3
VDDIM_NONE
  1

  0
ENDBLK
  5
241B
330
23CA
100
AcDbEntity
  8
0
100
AcDbBlockEnd
  0
BLOCK
  5
2428
330
241D
100
AcDbEntity
  8
0
100
AcDbBlockBegin
  2
*D5
 70
     1
 71
     0
 10
0.0
 20
0.0
 30
0.0
  3
*D5
  1

  0
LINE
  5
241E
330
241D
100
AcDbEntity
  8
V0-VYPLNE
 62
     0
100
AcDbLine
 10
-148.858761
 20
-277.166006
 30
0.0
 11
-148.858761
 21
-401.0897200000181
 31
0.0
  0
LINE
  5
241F
330
241D
100
AcDbEntity
  8
V0-VYPLNE
 62
     0
100
AcDbLine
 10
561.141239
 20
-277.166006
 30
0.0
 11
561.141239
 21
-401.0897200000181
 31
0.0
  0
LINE
  5
2420
330
241D
100
AcDbEntity
  8
V0-VYPLNE
 62
     0
100
AcDbLine
 10
-88.85876099999996
 20
-399.8397200000181
 30
0.0
 11
103.0721840952381
 21
-399.8397200000181
 31
0.0
  0
LINE
  5
2421
330
241D
100
AcDbEntity
  8
V0-VYPLNE
 62
     0
100
AcDbLine
 10
501.141239
 20
-399.8397200000181
 30
0.0
 11
284.8817079047619
 21
-399.8397200000181
 31
0.0
  0
INSERT
  5
2422
330
241D
100
AcDbEntity
  8
V0-VYPLNE
 62
     0
100
AcDbBlockReference
  2
_OPEN
 10
-148.858761
 20
-399.8397200000181
 30
0.0
 41
60.0
 42
60.0
 43
60.0
 50
180.0
  0
INSERT
  5
2423
330
241D
100
AcDbEntity
  8
V0-VYPLNE
 62
     0
100
AcDbBlockReference
  2
_OPEN
 10
561.141239
 20
-399.8397200000181
 30
0.0
 41
60.0
 42
60.0
 43
60.0
  0
MTEXT
  5
2424
330
241D
100
AcDbEntity
  8
V0-VYPLNE
 62
     0
100
AcDbMText
 10
193.976946
 20
-399.83972
 30
0.0
 40
50.0
 41
0.0
 71
     5
 72
     1
  1
%%c\A1;710
  7
ED60
  0
POINT
  5
2425
330
241D
100
AcDbEntity
  8
DEFPOINTS
 62
     0
100
AcDbPoint
 10
-148.858761
 20
-276.166006
 30
0.0
  0
POINT
  5
2426
330
241D
100
AcDbEntity
  8
DEFPOINTS
 62
     0
100
AcDbPoint
 10
561.141239
 20
-276.166006
 30
0.0
  0
POINT
  5
2427
330
241D
100
AcDbEntity
  8
DEFPOINTS
 62
     0
100
AcDbPoint
 10
561.141239
 20
-399.8397200000181
 30
0.0
  0
ENDBLK
  5
2429
330
241D
100
AcDbEntity
  8
0
100
AcDbBlockEnd
  0
BLOCK
  5
2435
330
242A
100
AcDbEntity
  8
0
100
AcDbBlockBegin
  2
*D6
 70
     1
 71
     0
 10
0.0
 20
0.0
 30
0.0
  3
*D6
  1

  0
LINE
  5
242B
330
242A
100
AcDbEntity
  8
V0-VYPLNE
 62
     0
100
AcDbLine
 10
-343.858761
 20
-277.166006
 30
0.0
 11
-343.858761
 21
-648.906039000023
 31
0.0
  0
LINE
  5
242C
330
242A
100
AcDbEntity
  8
V0-VYPLNE
 62
     0
100
AcDbLine
 10
756.141239
 20
-277.166006
 30
0.0
 11
756.141239
 21
-648.9060390000232
 31
0.0
  0
LINE
  5
242D
330
242A
100
AcDbEntity
  8
V0-VYPLNE
 62
     0
100
AcDbLine
 10
-283.858761
 20
-647.656039000023
 30
0.0
 11
117.6174294761905
 21
-647.6560390000232
 31
0.0
  0
LINE
  5
242E
330
242A
100
AcDbEntity
  8
V0-VYPLNE
 62
     0
100
AcDbLine
 10
696.141239
 20
-647.6560390000232
 30
0.0
 11
294.6650485238096
 21
-647.6560390000232
 31
0.0
  0
INSERT
  5
242F
330
242A
100
AcDbEntity
  8
V0-VYPLNE
 62
     0
100
AcDbBlockReference
  2
_OPEN
 10
-343.858761
 20
-647.656039000023
 30
0.0
 41
60.0
 42
60.0
 43
60.0
 50
180.0
  0
INSERT
  5
2430
330
242A
100
AcDbEntity
  8
V0-VYPLNE
 62
     0
100
AcDbBlockReference
  2
_OPEN
 10
756.141239
 20
-647.6560390000232
 30
0.0
 41
60.0
 42
60.0
 43
60.0
 50
360.0
  0
MTEXT
  5
2431
330
242A
100
AcDbEntity
  8
V0-VYPLNE
 62
     0
100
AcDbMText
 10
206.141239
 20
-647.656039
 30
0.0
 40
50.0
 41
0.0
 71
     5
 72
     1
  1
\A1;1100
  7
ED60
  0
POINT
  5
2432
330
242A
100
AcDbEntity
  8
DEFPOINTS
 62
     0
100
AcDbPoint
 10
-343.858761
 20
-276.166006
 30
0.0
  0
POINT
  5
2433
330
242A
100
AcDbEntity
  8
DEFPOINTS
 62
     0
100
AcDbPoint
 10
756.141239
 20
-276.166006
 30
0.0
  0
POINT
  5
2434
330
242A
100
AcDbEntity
  8
DEFPOINTS
 62
     0
100
AcDbPoint
 10
756.141239
 20
-647.6560390000232
 30
0.0
  0
ENDBLK
  5
2436
330
242A
100
AcDbEntity
  8
0
100
AcDbBlockEnd
  0
BLOCK
  5
2442
330
2437
100
AcDbEntity
  8
0
100
AcDbBlockBegin
  2
*D7
 70
     1
 71
     0
 10
0.0
 20
0.0
 30
0.0
  3
*D7
  1

  0
LINE
  5
2438
330
2437
100
AcDbEntity
  8
V0-VYPLNE
 62
     0
100
AcDbLine
 10
757.141239
 20
-276.166006
 30
0.0
 11
1107.930142999984
 21
-276.166006
 31
0.0
  0
LINE
  5
2439
330
2437
100
AcDbEntity
  8
V0-VYPLNE
 62
     0
100
AcDbLine
 10
207.141239
 20
788.833994
 30
0.0
 11
1107.930142999984
 21
788.833994
 31
0.0
  0
LINE
  5
243A
330
2437
100
AcDbEntity
  8
V0-VYPLNE
 62
     0
100
AcDbLine
 10
1106.680142999984
 20
-216.1660060000002
 30
0.0
 11
1106.680142999984
 21
166.8016154761904
 31
0.0
  0
LINE
  5
243B
330
2437
100
AcDbEntity
  8
V0-VYPLNE
 62
     0
100
AcDbLine
 10
1106.680142999984
 20
728.8339940000001
 30
0.0
 11
1106.680142999984
 21
343.8492345238096
 31
0.0
  0
INSERT
  5
243C
330
2437
100
AcDbEntity
  8
V0-VYPLNE
 62
     0
100
AcDbBlockReference
  2
_OPEN
 10
1106.680142999984
 20
-276.1660060000002
 30
0.0
 41
60.0
 42
60.0
 43
60.0
 50
270.0
  0
INSERT
  5
243D
330
2437
100
AcDbEntity
  8
V0-VYPLNE
 62
     0
100
AcDbBlockReference
  2
_OPEN
 10
1106.680142999984
 20
788.8339940000001
 30
0.0
 41
60.0
 42
60.0
 43
60.0
 50
90.0
  0
MTEXT
  5
243E
330
2437
100
AcDbEntity
  8
V0-VYPLNE
 62
     0
100
AcDbMText
 10
1106.680143
 20
255.325425
 30
0.0
 40
50.0
 41
0.0
 71
     5
 72
     1
  1
\A1;1065
  7
ED60
 11
0.0
 21
-1.0
 31
0.0
  0
POINT
  5
243F
330
2437
100
AcDbEntity
  8
DEFPOINTS
 62
     0
100
AcDbPoint
 10
756.141239
 20
-276.166006
 30
0.0
  0
POINT
  5
2440
330
2437
100
AcDbEntity
  8
DEFPOINTS
 62
     0
100
AcDbPoint
 10
206.141239
 20
788.833994
 30
0.0
  0
POINT
  5
2441
330
2437
100
AcDbEntity
  8
DEFPOINTS
 62
     0
100
AcDbPoint
 10
1106.680142999984
 20
788.833994
 30
0.0
  0
ENDBLK
  5
2443
330
2437
100
AcDbEntity
  8
0
100
AcDbBlockEnd
  0
BLOCK
  5
244F
330
2444
100
AcDbEntity
  8
0
100
AcDbBlockBegin
  2
*D8
 70
     1
 71
     0
 10
0.0
 20
0.0
 30
0.0
  3
*D8
  1

  0
LINE
  5
2445
330
2444
100
AcDbEntity
  8
V0-VYPLNE
 62
     0
100
AcDbLine
 10
-213.858761
 20
-287.166006
 30
0.0
 11
-213.8587610000001
 21
-519.0974929999792
 31
0.0
  0
LINE
  5
2446
330
2444
100
AcDbEntity
  8
V0-VYPLNE
 62
     0
100
AcDbLine
 10
626.141239
 20
-277.166006
 30
0.0
 11
626.141239
 21
-519.0974929999792
 31
0.0
  0
LINE
  5
2447
330
2444
100
AcDbEntity
  8
V0-VYPLNE
 62
     0
100
AcDbLine
 10
-153.8587610000001
 20
-517.8474929999792
 30
0.0
 11
125.6912317142857
 21
-517.8474929999792
 31
0.0
  0
LINE
  5
2448
330
2444
100
AcDbEntity
  8
V0-VYPLNE
 62
     0
100
AcDbLine
 10
566.141239
 20
-517.8474929999792
 30
0.0
 11
262.2626602857143
 21
-517.8474929999792
 31
0.0
  0
INSERT
  5
2449
330
2444
100
AcDbEntity
  8
V0-VYPLNE
 62
     0
100
AcDbBlockReference
  2
_OPEN
 10
-213.8587610000001
 20
-517.8474929999792
 30
0.0
 41
60.0
 42
60.0
 43
60.0
 50
180.0
  0
INSERT
  5
244A
330
2444
100
AcDbEntity
  8
V0-VYPLNE
 62
     0
100
AcDbBlockReference
  2
_OPEN
 10
626.141239
 20
-517.8474929999792
 30
0.0
 41
60.0
 42
60.0
 43
60.0
  0
MTEXT
  5
244B
330
2444
100
AcDbEntity
  8
V0-VYPLNE
 62
     0
100
AcDbMText
 10
193.976946
 20
-517.847493
 30
0.0
 40
50.0
 41
0.0
 71
     5
 72
     1
  1
\A1;840
  7
ED60
  0
POINT
  5
244C
330
2444
100
AcDbEntity
  8
DEFPOINTS
 62
     0
100
AcDbPoint
 10
-213.858761
 20
-286.166006
 30
0.0
  0
POINT
  5
244D
330
2444
100
AcDbEntity
  8
DEFPOINTS
 62
     0
100
AcDbPoint
 10
626.141239
 20
-276.166006
 30
0.0
  0
POINT
  5
244E
330
2444
100
AcDbEntity
  8
DEFPOINTS
 62
     0
100
AcDbPoint
 10
626.141239
 20
-517.8474929999792
 30
0.0
  0
ENDBLK
  5
2450
330
2444
100
AcDbEntity
  8
0
100
AcDbBlockEnd
  0
BLOCK
  5
245C
330
2451
100
AcDbEntity
  8
0
100
AcDbBlockBegin
  2
*D9
 70
     1
 71
     0
 10
0.0
 20
0.0
 30
0.0
  3
*D9
  1

  0
LINE
  5
2452
330
2451
100
AcDbEntity
  8
V0-VYPLNE
 62
     0
100
AcDbLine
 10
-583.6202510000001
 20
488.400519
 30
0.0
 11
-583.6202510000002
 21
906.850842999993
 31
0.0
  0
LINE
  5
2453
330
2451
100
AcDbEntity
  8
V0-VYPLNE
 62
     0
100
AcDbLine
 10
995.902729
 20
488.400519
 30
0.0
 11
995.902729
 21
906.8508429999929
 31
0.0
  0
LINE
  5
2454
330
2451
100
AcDbEntity
  8
V0-VYPLNE
 62
     0
100
AcDbLine
 10
-523.6202510000002
 20
905.600842999993
 30
0.0
 11
99.54825585714286
 21
905.6008429999929
 31
0.0
  0
LINE
  5
2455
330
2451
100
AcDbEntity
  8
V0-VYPLNE
 62
     0
100
AcDbLine
 10
935.902729
 20
905.6008429999929
 30
0.0
 11
321.8339701428571
 21
905.6008429999929
 31
0.0
  0
INSERT
  5
2456
330
2451
100
AcDbEntity
  8
V0-VYPLNE
 62
     0
100
AcDbBlockReference
  2
_OPEN
 10
-583.6202510000002
 20
905.600842999993
 30
0.0
 41
60.0
 42
60.0
 43
60.0
 50
180.0
  0
INSERT
  5
2457
330
2451
100
AcDbEntity
  8
V0-VYPLNE
 62
     0
100
AcDbBlockReference
  2
_OPEN
 10
995.902729
 20
905.6008429999929
 30
0.0
 41
60.0
 42
60.0
 43
60.0
 50
360.0
  0
MTEXT
  5
2458
330
2451
100
AcDbEntity
  8
V0-VYPLNE
 62
     0
100
AcDbMText
 10
210.691113
 20
905.6008430000001
 30
0.0
 40
50.0
 41
0.0
 71
     5
 72
     1
  1
%%c\A1;1580
  7
ED60
  0
POINT
  5
2459
330
2451
100
AcDbEntity
  8
DEFPOINTS
 62
     0
100
AcDbPoint
 10
-583.6202510000001
 20
487.400519
 30
0.0
  0
POINT
  5
245A
330
2451
100
AcDbEntity
  8
DEFPOINTS
 62
     0
100
AcDbPoint
 10
995.902729
 20
487.400519
 30
0.0
  0
POINT
  5
245B
330
2451
100
AcDbEntity
  8
DEFPOINTS
 62
     0
100
AcDbPoint
 10
995.902729
 20
905.6008429999929
 30
0.0
  0
ENDBLK
  5
245D
330
2451
100
AcDbEntity
  8
0
100
AcDbBlockEnd
  0
ENDSEC
  0
SECTION
  2
ENTITIES
  0
LINE
  5
1127
330
23EA
100
AcDbEntity
  8
V0-VYPLNE
  6
DASHDOT
 62
    63
100
AcDbLine
 10
206.141239
 20
-878.98293
 30
0.0
 11
206.141239
 21
-2236.134269
 31
0.0
  0
CIRCLE
  5
11B0
330
23EA
100
AcDbEntity
  8
V0-VYPLNE
  6
DASHED
 62
    56
100
AcDbCircle
 10
625.512844
 20
-1138.186995
 30
0.0
 40
11.982046
  0
LINE
  5
11B1
330
23EA
100
AcDbEntity
  8
V0-VYPLNE
 62
    63
100
AcDbLine
 10
625.512844
 20
-1189.53862
 30
0.0
 11
625.512844
 21
-1090.130541
 31
0.0
  0
LINE
  5
11BB
330
23EA
100
AcDbEntity
  8
V0-VYPLNE
100
AcDbLine
 10
206.141239
 20
830.937864
 30
0.0
 11
206.141239
 21
-230.2155230000001
 31
0.0
  0
LINE
  5
11BE
330
23EA
100
AcDbEntity
  8
V0-VYPLNE
100
AcDbLine
 10
-213.858761
 20
-286.166006
 30
0.0
 11
-213.858761
 21
-236.166006
 31
0.0
  0
LINE
  5
11BF
330
23EA
100
AcDbEntity
  8
V0-VYPLNE
100
AcDbLine
 10
626.141239
 20
-286.166006
 30
0.0
 11
626.141239
 21
-236.166006
 31
0.0
  0
POINT
  5
12BC
330
23EA
100
AcDbEntity
  8
V0-VYPLNE
  6
CONTINUOUS
 62
    41
 48
5.0
100
AcDbPoint
 10
206.141239
 20
-1557.5586
 30
0.0
  0
POINT
  5
12BD
330
23EA
100
AcDbEntity
  8
V0-VYPLNE
  6
CONTINUOUS
 62
    41
100
AcDbPoint
 10
206.141239
 20
-276.166006
 30
0.0
  0
LINE
  5
13BB
330
23EA
100
AcDbEntity
  8
V0-VYPLNE
  6
DASHDOT
 62
    63
100
AcDbLine
 10
-472.434431
 20
-1557.5586
 30
0.0
 11
884.716908
 21
-1557.5586
 31
0.0
  0
CIRCLE
  5
13BE
330
23EA
100
AcDbEntity
  8
V0-OBRYS
  6
CONTINUOUS
 62
    90
100
AcDbCircle
 10
206.141239
 20
-1557.5586
 30
0.0
 40
789.931124
  0
CIRCLE
  5
13BF
330
23EA
100
AcDbEntity
  8
V0-OBRYS
  6
CONTINUOUS
 62
    90
100
AcDbCircle
 10
206.141239
 20
-1557.5586
 30
0.0
 40
735.89686
  0
CIRCLE
  5
13C0
330
23EA
100
AcDbEntity
  8
V0-VYPLNE
  6
DASHED
 62
    52
 48
5.0
100
AcDbCircle
 10
206.141239
 20
-1557.5586
 30
0.0
 40
355.515333
  0
LINE
  5
13C2
330
23EA
100
AcDbEntity
  8
V0-VYPLNE
 62
    63
100
AcDbLine
 10
696.001254
 20
-1138.186995
 30
0.0
 11
574.161219
 21
-1138.186995
 31
0.0
  0
LINE
  5
13C5
330
23EA
100
AcDbEntity
  8
V0-VYPLNE
 62
    63
100
AcDbLine
 10
-161.878741
 20
-1138.186995
 30
0.0
 11
-252.916751
 21
-1138.186995
 31
0.0
  0
LINE
  5
13C6
330
23EA
100
AcDbEntity
  8
V0-VYPLNE
 62
    63
100
AcDbLine
 10
-213.230366
 20
-1098.946142
 30
0.0
 11
-213.230366
 21
-1189.53862
 31
0.0
  0
CIRCLE
  5
13C7
330
23EA
100
AcDbEntity
  8
V0-VYPLNE
  6
DASHED
 62
    56
100
AcDbCircle
 10
-213.230366
 20
-1138.186995
 30
0.0
 40
11.982046
  0
LINE
  5
13C8
330
23EA
100
AcDbEntity
  8
V0-VYPLNE
 62
    63
100
AcDbLine
 10
-213.230366
 20
-1925.57858
 30
0.0
 11
-213.230366
 21
-2038.180922
 31
0.0
  0
LINE
  5
13C9
330
23EA
100
AcDbEntity
  8
V0-VYPLNE
 62
    63
100
AcDbLine
 10
-272.396522
 20
-1976.930205
 30
0.0
 11
-161.878741
 21
-1976.930205
 31
0.0
  0
CIRCLE
  5
13CA
330
23EA
100
AcDbEntity
  8
V0-VYPLNE
  6
DASHED
 62
    56
100
AcDbCircle
 10
-213.230366
 20
-1976.930205
 30
0.0
 40
11.982046
  0
LINE
  5
13CB
330
23EA
100
AcDbEntity
  8
V0-VYPLNE
 62
    63
100
AcDbLine
 10
574.161219
 20
-1976.930205
 30
0.0
 11
682.464023
 21
-1976.930205
 31
0.0
  0
LINE
  5
13CC
330
23EA
100
AcDbEntity
  8
V0-VYPLNE
 62
    63
100
AcDbLine
 10
625.512844
 20
-2036.214131
 30
0.0
 11
625.512844
 21
-1925.57858
 31
0.0
  0
LINE
  5
13CE
330
23EA
100
AcDbEntity
  8
V0-VYPLNE
  6
DASHED
 62
    52
 48
5.0
100
AcDbLine
 10
756.142603
 20
-1009.284817
 30
0.0
 11
-343.8601249999999
 21
-1009.284817
 31
0.0
  0
LINE
  5
13CF
330
23EA
100
AcDbEntity
  8
V0-VYPLNE
  6
DASHED
 62
    52
 48
5.0
100
AcDbLine
 10
-343.860125
 20
-1009.284817
 30
0.0
 11
-343.860125
 21
-2107.559964
 31
0.0
  0
LINE
  5
13D0
330
23EA
100
AcDbEntity
  8
V0-VYPLNE
  6
DASHED
 62
    52
 48
5.0
100
AcDbLine
 10
-343.860125
 20
-2107.559964
 30
0.0
 11
756.142603
 21
-2107.559964
 31
0.0
  0
LINE
  5
13D1
330
23EA
100
AcDbEntity
  8
V0-VYPLNE
  6
DASHED
 62
    52
 48
5.0
100
AcDbLine
 10
756.142603
 20
-2107.559964
 30
0.0
 11
756.142603
 21
-1009.284817
 31
0.0
  0
LINE
  5
13D2
330
23EA
100
AcDbEntity
  8
V0-OBRYS
  6
CONTINUOUS
 62
    90
100
AcDbLine
 10
-343.858761
 20
-276.166006
 30
0.0
 11
756.141239
 21
-276.166006
 31
0.0
  0
LINE
  5
13D3
330
23EA
100
AcDbEntity
  8
V0-OBRYS
  6
CONTINUOUS
 62
    90
100
AcDbLine
 10
756.141239
 20
-276.166006
 30
0.0
 11
756.141239
 21
-261.166006
 31
0.0
  0
LINE
  5
13D4
330
23EA
100
AcDbEntity
  8
V0-OBRYS
  6
CONTINUOUS
 62
    90
100
AcDbLine
 10
756.141239
 20
-261.166006
 30
0.0
 11
-343.858761
 21
-261.166006
 31
0.0
  0
LINE
  5
13D5
330
23EA
100
AcDbEntity
  8
V0-OBRYS
  6
CONTINUOUS
 62
    90
100
AcDbLine
 10
-343.858761
 20
-261.166006
 30
0.0
 11
-343.858761
 21
-276.166006
 31
0.0
  0
LINE
  5
13D6
330
23EA
100
AcDbEntity
  8
V0-OBRYS
  6
CONTINUOUS
 62
    90
100
AcDbLine
 10
-226.358761
 20
-261.166006
 30
0.0
 11
-226.358761
 21
-258.166006
 31
0.0
  0
LINE
  5
13D7
330
23EA
100
AcDbEntity
  8
V0-OBRYS
  6
CONTINUOUS
 62
    90
100
AcDbLine
 10
-226.358761
 20
-258.166006
 30
0.0
 11
638.641239
 21
-258.166006
 31
0.0
  0
LINE
  5
13D8
330
23EA
100
AcDbEntity
  8
V0-OBRYS
  6
CONTINUOUS
 62
    90
100
AcDbLine
 10
638.641239
 20
-258.166006
 30
0.0
 11
638.641239
 21
-261.166006
 31
0.0
  0
LINE
  5
13E8
330
23EA
100
AcDbEntity
  8
V0-OBRYS
  6
CONTINUOUS
 62
    90
100
AcDbLine
 10
-61.619735
 20
-226.166006
 30
0.0
 11
473.9022120000001
 21
-226.166006
 31
0.0
  0
LINE
  5
13EF
330
23EA
100
AcDbEntity
  8
V0-OBRYS
  6
CONTINUOUS
 62
    90
100
AcDbLine
 10
-128.858761
 20
485.032056
 30
0.0
 11
-128.858761
 21
-75.88036999999997
 31
0.0
  0
LINE
  5
13F0
330
23EA
100
AcDbEntity
  8
V0-OBRYS
  6
CONTINUOUS
 62
    90
100
AcDbLine
 10
-143.858761
 20
-258.166006
 30
0.0
 11
-143.858761
 21
485.032056
 31
0.0
  0
LINE
  5
13F1
330
23EA
100
AcDbEntity
  8
V0-OBRYS
  6
CONTINUOUS
 62
    90
100
AcDbLine
 10
-196.358761
 20
-258.166006
 30
0.0
 11
-509.035076
 21
487.400519
 31
0.0
  0
LINE
  5
13F2
330
23EA
100
AcDbEntity
  8
V0-OBRYS
  6
CONTINUOUS
 62
    90
100
AcDbLine
 10
-76.91783700000001
 20
-105.87024
 30
0.0
 11
-76.91783700000001
 21
483.893418
 31
0.0
  0
LINE
  5
1414
330
23EA
100
AcDbEntity
  8
V0-VYPLNE
  6
CONTINUOUS
 62
    52
100
AcDbLine
 10
-143.858761
 20
485.032056
 30
0.0
 11
556.141239
 21
485.032056
 31
0.0
  0
LINE
  5
1416
330
23EA
100
AcDbEntity
  8
V0-VYPLNE
  6
CONTINUOUS
 62
    52
100
AcDbLine
 10
556.141239
 20
-258.166006
 30
0.0
 11
-143.858761
 21
-258.166006
 31
0.0
  0
LINE
  5
1417
330
23EA
100
AcDbEntity
  8
V0-VYPLNE
  6
CONTINUOUS
 62
    52
100
AcDbLine
 10
-143.858761
 20
-258.166006
 30
0.0
 11
-143.858761
 21
485.032056
 31
0.0
  0
LINE
  5
1456
330
23EA
100
AcDbEntity
  8
V0-OBRYS
  6
CONTINUOUS
 62
    90
100
AcDbLine
 10
-148.858761
 20
-256.166006
 30
0.0
 11
-148.858761
 21
-276.166006
 31
0.0
  0
INSERT
  5
145C
330
23EA
100
AcDbEntity
  8
V0-VYPLNE
  6
CONTINUOUS
 62
    52
100
AcDbBlockReference
  2
A10_100
 10
1091.344077
 20
-456.786598
 30
0.0
  0
DIMENSION
  5
1469
330
23EA
100
AcDbEntity
  8
V0-VYPLNE
  6
CONTINUOUS
 62
    41
100
AcDbDimension
  2
*D5
 10
561.141239
 20
-399.8397200000181
 30
0.0
 11
193.976946
 21
-399.83972
 31
0.0
 70
   160
  1
%%c<>
  3
ED60
100
AcDbAlignedDimension
 13
-148.858761
 23
-276.166006
 33
0.0
 14
561.141239
 24
-276.166006
 34
0.0
100
AcDbRotatedDimension
1001
ACAD
1000
DSTYLE
1002
{
1070
    40
1040
1.0
1002
}
  0
DIMENSION
  5
1483
330
23EA
100
AcDbEntity
  8
V0-VYPLNE
  6
CONTINUOUS
 62
    41
100
AcDbDimension
  2
*D6
 10
756.141239
 20
-647.6560390000232
 30
0.0
 11
206.141239
 21
-647.656039
 31
0.0
 70
   160
  3
ED60
100
AcDbAlignedDimension
 13
-343.858761
 23
-276.166006
 33
0.0
 14
756.141239
 24
-276.166006
 34
0.0
100
AcDbRotatedDimension
1001
ACAD
1000
DSTYLE
1002
{
1070
    40
1040
1.0
1002
}
  0
DIMENSION
  5
1490
330
23EA
100
AcDbEntity
  8
V0-VYPLNE
  6
CONTINUOUS
 62
    41
100
AcDbDimension
  2
*D7
 10
1106.680142999984
 20
788.833994
 30
0.0
 11
1106.680143
 21
255.325425
 31
0.0
 70
   160
  3
ED60
100
AcDbAlignedDimension
 13
756.141239
 23
-276.166006
 33
0.0
 14
206.141239
 24
788.833994
 34
0.0
 50
90.0
100
AcDbRotatedDimension
1001
ACAD
1000
DSTYLE
1002
{
1070
    40
1040
1.0
1002
}
  0
LINE
  5
14A6
330
23EA
100
AcDbEntity
  8
V0-VYPLNE
  6
CONTINUOUS
 62
    41
100
AcDbLine
 10
60.515164
 20
-637.236654
 30
0.0
 11
95.821623
 21
-574.296859
 31
0.0
  0
LWPOLYLINE
  5
14A7
330
23EA
100
AcDbEntity
  8
V0-VYPLNE
  6
CONTINUOUS
 62
    41
100
AcDbPolyline
 90
        4
 70
     1
 43
0.0
 10
60.778364
 20
-624.425171
 10
98.32469399999999
 20
-624.425171
 10
98.32469399999999
 20
-586.913421
 10
60.778364
 20
-586.913421
  0
LWPOLYLINE
  5
14A8
330
23EA
100
AcDbEntity
  8
V0-VYPLNE
  6
CONTINUOUS
 62
    41
100
AcDbPolyline
 90
        4
 70
     1
 43
0.0
 10
55.130237
 20
-499.145041
 10
92.67656599999999
 20
-499.145041
 10
92.67656599999999
 20
-461.633291
 10
55.130237
 20
-461.633291
  0
LINE
  5
14A9
330
23EA
100
AcDbEntity
  8
V0-VYPLNE
  6
CONTINUOUS
 62
    41
100
AcDbLine
 10
54.867037
 20
-511.956524
 30
0.0
 11
90.173496
 21
-449.016729
 31
0.0
  0
LINE
  5
176E
330
23EA
100
AcDbEntity
  8
V0-OBRYS
  6
CONTINUOUS
 62
    90
100
AcDbLine
 10
-537.022121
 20
543.83483
 30
0.0
 11
949.3045980000002
 21
543.83483
 31
0.0
  0
LINE
  5
176F
330
23EA
100
AcDbEntity
  8
V0-OBRYS
  6
CONTINUOUS
 62
    90
100
AcDbLine
 10
-516.8784470000001
 20
565.094138
 30
0.0
 11
929.1609250000001
 21
565.094138
 31
0.0
  0
LINE
  5
18B8
330
23EA
100
AcDbEntity
  8
V0-OBRYS
  6
CONTINUOUS
 62
    90
100
AcDbLine
 10
-583.6202510000001
 20
487.400519
 30
0.0
 11
995.9027290000001
 21
487.400519
 31
0.0
  0
DIMENSION
  5
1BAE
330
23EA
100
AcDbEntity
  8
V0-VYPLNE
  6
CONTINUOUS
 62
    41
100
AcDbDimension
  2
*D8
 10
626.141239
 20
-517.8474929999792
 30
0.0
 11
193.976946
 21
-517.847493
 31
0.0
 70
   160
  3
ED60
100
AcDbAlignedDimension
 13
-213.858761
 23
-286.166006
 33
0.0
 14
626.141239
 24
-276.166006
 34
0.0
100
AcDbRotatedDimension
1001
ACAD
1000
DSTYLE
1002
{
1070
    40
1040
1.0
1002
}
  0
ARC
  5
1DF3
330
23EA
100
AcDbEntity
  8
V0-OBRYS
  6
CONTINUOUS
 62
    90
100
AcDbCircle
 10
394.141239
 20
37.977974
 30
0.0
 40
751.064254
100
AcDbArc
 50
36.75403
 51
42.339331
  0
LINE
  5
1DFF
330
23EA
100
AcDbEntity
  8
V0-OBRYS
  6
CONTINUOUS
 62
    90
100
AcDbLine
 10
608.641239
 20
-258.166006
 30
0.0
 11
919.817553
 21
487.400519
 31
0.0
  0
DIMENSION
  5
1E0D
330
23EA
100
AcDbEntity
  8
V0-VYPLNE
  6
CONTINUOUS
 62
    41
100
AcDbDimension
  2
*D9
 10
995.902729
 20
905.6008429999929
 30
0.0
 11
210.691113
 21
905.6008430000001
 31
0.0
 70
   160
  1
%%c<>
  3
ED60
100
AcDbAlignedDimension
 13
-583.6202510000001
 23
487.400519
 33
0.0
 14
995.902729
 24
487.400519
 34
0.0
100
AcDbRotatedDimension
1001
ACAD
1000
DSTYLE
1002
{
1070
    40
1040
1.0
1002
}
  0
ARC
  5
201D
330
23EA
100
AcDbEntity
  8
V0-OBRYS
  6
CONTINUOUS
 62
    90
100
AcDbCircle
 10
18.141239
 20
37.977974
 30
0.0
 40
751.064254
100
AcDbArc
 50
137.660669
 51
143.24597
  0
ARC
  5
201E
330
23EA
100
AcDbEntity
  8
V0-OBRYS
  6
CONTINUOUS
 62
    90
100
AcDbCircle
 10
206.141239
 20
-490.07163
 30
0.0
 40
1279.113859
100
AcDbArc
 50
55.580315
 51
124.419685
  0
LINE
  5
2021
330
23EA
100
AcDbEntity
  8
V0-OBRYS
  6
CONTINUOUS
 62
    90
100
AcDbLine
 10
-516.8784470000001
 20
565.094138
 30
0.0
 11
-498.073162
 21
543.839281
 31
0.0
  0
LINE
  5
2022
330
23EA
100
AcDbEntity
  8
V0-OBRYS
  6
CONTINUOUS
 62
    90
100
AcDbLine
 10
929.160925
 20
565.094138
 30
0.0
 11
908.861219
 21
543.839281
 31
0.0
  0
ARC
  5
2039
330
23EA
100
AcDbEntity
  8
V0-OBRYS
  6
CONTINUOUS
 62
    90
100
AcDbCircle
 10
-152.376906
 20
-176.587045
 30
0.0
 40
103.416331
100
AcDbArc
 50
308.73204
 51
76.85523000000001
  0
HATCH
  5
20C0
330
23EA
100
AcDbEntity
  8
V0-VYPLNE
  6
CONTINUOUS
 62
    52
100
AcDbHatch
 10
0.0
 20
0.0
 30
0.0
210
0.0
220
0.0
230
1.0
  2
NET
 70
     0
 71
     0
 91
        1
 92
        3
 72
     0
 73
     1
 93
        4
 10
-143.8587612699193
 20
-258.166005630735
 10
556.1412387300805
 20
-258.166005630735
 10
556.1412387300805
 20
360.032055801144
 10
-143.8587612699194
 20
360.032055801144
 97
        0
 75
     0
 76
     2
 52
0.0
 41
15.0
 77
     0
 78
     2
 53
0.0
 43
206.141239
 44
-276.166006
 45
0.0
 46
47.625
 79
     0
 53
90.0
 43
206.141239
 44
-276.166006
 45
-47.625
 46
0.0000000000000029
 79
     0
 98
        1
 10
0.0
 20
0.0
1001
VDEXTRAPARAM
1071
       76
1071
        0
1071
        0
1040
15.0
1000
NET
1000

1040
0.0
1040
0.0
  0
CIRCLE
  5
20DB
330
23EA
100
AcDbEntity
  8
V0-OBRYS
  6
CONTINUOUS
 62
    90
100
AcDbCircle
 10
206.141239
 20
-1557.5586
 30
0.0
 40
698.734069
  0
CIRCLE
  5
20E9
330
23EA
100
AcDbEntity
  8
V0-VYPLNE
  6
DASHED
 62
    56
100
AcDbCircle
 10
625.512844
 20
-1976.930205
 30
0.0
 40
11.982046
  0
LINE
  5
2249
330
23EA
100
AcDbEntity
  8
V0-OBRYS
  6
CONTINUOUS
 62
    90
100
AcDbLine
 10
489.200314
 20
-105.87024
 30
0.0
 11
489.200314
 21
483.893418
 31
0.0
  0
LINE
  5
224A
330
23EA
100
AcDbEntity
  8
V0-OBRYS
  6
CONTINUOUS
 62
    90
100
AcDbLine
 10
541.141239
 20
485.032056
 30
0.0
 11
541.141239
 21
-75.88036999999997
 31
0.0
  0
ARC
  5
224B
330
23EA
100
AcDbEntity
  8
V0-OBRYS
  6
CONTINUOUS
 62
    90
100
AcDbCircle
 10
564.6593830000001
 20
-176.587045
 30
0.0
 40
103.416331
100
AcDbArc
 50
103.14477
 51
231.26796
  0
LINE
  5
224C
330
23EA
100
AcDbEntity
  8
V0-VYPLNE
  6
CONTINUOUS
 62
    52
100
AcDbLine
 10
556.141239
 20
-258.166006
 30
0.0
 11
556.141239
 21
485.032056
 31
0.0
  0
LINE
  5
224D
330
23EA
100
AcDbEntity
  8
V0-OBRYS
  6
CONTINUOUS
 62
    90
100
AcDbLine
 10
2555.838177
 20
-261.166006
 30
0.0
 11
1455.838177
 21
-261.166006
 31
0.0
  0
LINE
  5
224E
330
23EA
100
AcDbEntity
  8
V0-OBRYS
  6
CONTINUOUS
 62
    90
100
AcDbLine
 10
1455.838177
 20
-276.166006
 30
0.0
 11
2555.838177
 21
-276.166006
 31
0.0
  0
LINE
  5
224F
330
23EA
100
AcDbEntity
  8
V0-OBRYS
  6
CONTINUOUS
 62
    90
100
AcDbLine
 10
1573.338177
 20
-258.166006
 30
0.0
 11
2438.338177
 21
-258.166006
 31
0.0
  0
ARC
  5
2250
330
23EA
100
AcDbEntity
  8
V0-OBRYS
  6
CONTINUOUS
 62
    90
100
AcDbCircle
 10
2005.838177
 20
-490.07163
 30
0.0
 40
1279.113859
100
AcDbArc
 50
55.580315
 51
124.419685
  0
LINE
  5
2251
330
23EA
100
AcDbEntity
  8
V0-OBRYS
  6
CONTINUOUS
 62
    90
100
AcDbLine
 10
1216.076687
 20
487.400519
 30
0.0
 11
2795.599667
 21
487.400519
 31
0.0
  0
LINE
  5
2252
330
23EA
100
AcDbEntity
  8
V0-OBRYS
  6
CONTINUOUS
 62
    90
100
AcDbLine
 10
1282.818491
 20
565.094138
 30
0.0
 11
2728.857863
 21
565.094138
 31
0.0
  0
LINE
  5
2253
330
23EA
100
AcDbEntity
  8
V0-OBRYS
  6
CONTINUOUS
 62
    90
100
AcDbLine
 10
1262.674818
 20
543.83483
 30
0.0
 11
2749.001536
 21
543.83483
 31
0.0
  0
LINE
  5
2254
330
23EA
100
AcDbEntity
  8
V0-OBRYS
  6
CONTINUOUS
 62
    90
100
AcDbLine
 10
1603.338177
 20
-258.166006
 30
0.0
 11
1290.661863
 21
487.400519
 31
0.0
  0
LINE
  5
2255
330
23EA
100
AcDbEntity
  8
V0-OBRYS
  6
CONTINUOUS
 62
    90
100
AcDbLine
 10
1282.818491
 20
565.094138
 30
0.0
 11
1301.623776
 21
543.839281
 31
0.0
  0
ARC
  5
2256
330
23EA
100
AcDbEntity
  8
V0-OBRYS
  6
CONTINUOUS
 62
    90
100
AcDbCircle
 10
1817.838177
 20
37.977974
 30
0.0
 40
751.064254
100
AcDbArc
 50
137.660669
 51
143.24597
  0
LINE
  5
2257
330
23EA
100
AcDbEntity
  8
V0-VYPLNE
  6
CONTINUOUS
 62
    52
100
AcDbLine
 10
2355.838177
 20
-258.166006
 30
0.0
 11
2355.838177
 21
485.032056
 31
0.0
  0
LINE
  5
2258
330
23EA
100
AcDbEntity
  8
V0-OBRYS
  6
CONTINUOUS
 62
    90
100
AcDbLine
 10
2340.838177
 20
485.032056
 30
0.0
 11
2340.838177
 21
-75.88036999999997
 31
0.0
  0
LINE
  5
2259
330
23EA
100
AcDbEntity
  8
V0-OBRYS
  6
CONTINUOUS
 62
    90
100
AcDbLine
 10
2288.897252
 20
-105.87024
 30
0.0
 11
2288.897252
 21
483.893418
 31
0.0
  0
HATCH
  5
225A
330
23EA
100
AcDbEntity
  8
V0-VYPLNE
  6
CONTINUOUS
 62
    52
100
AcDbHatch
 10
0.0
 20
0.0
 30
0.0
210
0.0
220
0.0
230
1.0
  2
NET
 70
     0
 71
     0
 91
        1
 92
        3
 72
     0
 73
     1
 93
        4
 10
1655.83817700705
 20
-258.166005630735
 10
2355.83817700705
 20
-258.166005630735
 10
2355.83817700705
 20
360.032055801144
 10
1655.83817700705
 20
360.032055801144
 97
        0
 75
     0
 76
     2
 52
0.0
 41
15.0
 77
     0
 78
     2
 53
0.0
 43
206.141239
 44
-276.166006
 45
0.0
 46
47.625
 79
     0
 53
90.0
 43
206.141239
 44
-276.166006
 45
-47.625
 46
0.0000000000000029
 79
     0
 98
        1
 10
0.0
 20
0.0
1001
VDEXTRAPARAM
1071
       76
1071
        0
1071
        0
1040
15.0
1000
NET
1000

1040
0.0
1040
0.0
  0
LINE
  5
225B
330
23EA
100
AcDbEntity
  8
V0-VYPLNE
  6
CONTINUOUS
 62
    52
100
AcDbLine
 10
1655.838177
 20
-258.166006
 30
0.0
 11
1655.838177
 21
485.032056
 31
0.0
  0
LINE
  5
225C
330
23EA
100
AcDbEntity
  8
V0-OBRYS
  6
CONTINUOUS
 62
    90
100
AcDbLine
 10
1722.779102
 20
-105.87024
 30
0.0
 11
1722.779102
 21
483.893418
 31
0.0
  0
LINE
  5
225D
330
23EA
100
AcDbEntity
  8
V0-OBRYS
  6
CONTINUOUS
 62
    90
100
AcDbLine
 10
1655.838177
 20
-258.166006
 30
0.0
 11
1655.838177
 21
485.032056
 31
0.0
  0
LINE
  5
225E
330
23EA
100
AcDbEntity
  8
V0-OBRYS
  6
CONTINUOUS
 62
    90
100
AcDbLine
 10
1670.838177
 20
485.032056
 30
0.0
 11
1670.838177
 21
-75.88036999999997
 31
0.0
  0
LINE
  5
225F
330
23EA
100
AcDbEntity
  8
V0-VYPLNE
100
AcDbLine
 10
2005.838177
 20
830.937864
 30
0.0
 11
2005.838177
 21
-230.2155230000001
 31
0.0
  0
LINE
  5
2260
330
23EA
100
AcDbEntity
  8
V0-VYPLNE
  6
CONTINUOUS
 62
    52
100
AcDbLine
 10
2355.838177
 20
-258.166006
 30
0.0
 11
1655.838177
 21
-258.166006
 31
0.0
  0
LINE
  5
2261
330
23EA
100
AcDbEntity
  8
V0-OBRYS
  6
CONTINUOUS
 62
    90
100
AcDbLine
 10
1738.077204
 20
-226.166006
 30
0.0
 11
2273.59915
 21
-226.166006
 31
0.0
  0
ARC
  5
2262
330
23EA
100
AcDbEntity
  8
V0-OBRYS
  6
CONTINUOUS
 62
    90
100
AcDbCircle
 10
1647.320032
 20
-176.587045
 30
0.0
 40
103.416331
100
AcDbArc
 50
308.73204
 51
76.85523000000001
  0
LINE
  5
2263
330
23EA
100
AcDbEntity
  8
V0-OBRYS
  6
CONTINUOUS
 62
    90
100
AcDbLine
 10
1455.838177
 20
-261.166006
 30
0.0
 11
1455.838177
 21
-276.166006
 31
0.0
  0
LINE
  5
2264
330
23EA
100
AcDbEntity
  8
V0-VYPLNE
100
AcDbLine
 10
1585.838177
 20
-286.166006
 30
0.0
 11
1585.838177
 21
-236.166006
 31
0.0
  0
LINE
  5
2265
330
23EA
100
AcDbEntity
  8
V0-OBRYS
  6
CONTINUOUS
 62
    90
100
AcDbLine
 10
1573.338177
 20
-261.166006
 30
0.0
 11
1573.338177
 21
-258.166006
 31
0.0
  0
LINE
  5
2266
330
23EA
100
AcDbEntity
  8
V0-OBRYS
  6
CONTINUOUS
 62
    90
100
AcDbLine
 10
1650.838177
 20
-256.166006
 30
0.0
 11
1650.838177
 21
-276.166006
 31
0.0
  0
ARC
  5
2267
330
23EA
100
AcDbEntity
  8
V0-OBRYS
  6
CONTINUOUS
 62
    90
100
AcDbCircle
 10
2364.356322
 20
-176.587045
 30
0.0
 40
103.416331
100
AcDbArc
 50
103.14477
 51
231.26796
  0
POINT
  5
2268
330
23EA
100
AcDbEntity
  8
V0-VYPLNE
  6
CONTINUOUS
 62
    41
100
AcDbPoint
 10
2005.838177
 20
-276.166006
 30
0.0
  0
LINE
  5
2269
330
23EA
100
AcDbEntity
  8
V0-VYPLNE
  6
CONTINUOUS
 62
    52
100
AcDbLine
 10
1655.838177
 20
485.032056
 30
0.0
 11
2355.838177
 21
485.032056
 31
0.0
  0
LINE
  5
226B
330
23EA
100
AcDbEntity
  8
V0-OBRYS
  6
CONTINUOUS
 62
    90
100
AcDbLine
 10
2408.338177
 20
-258.166006
 30
0.0
 11
2719.514491
 21
487.400519
 31
0.0
  0
LINE
  5
226C
330
23EA
100
AcDbEntity
  8
V0-VYPLNE
100
AcDbLine
 10
2425.838177
 20
-286.166006
 30
0.0
 11
2425.838177
 21
-236.166006
 31
0.0
  0
LINE
  5
226D
330
23EA
100
AcDbEntity
  8
V0-OBRYS
  6
CONTINUOUS
 62
    90
100
AcDbLine
 10
2438.338177
 20
-258.166006
 30
0.0
 11
2438.338177
 21
-261.166006
 31
0.0
  0
LINE
  5
226E
330
23EA
100
AcDbEntity
  8
V0-OBRYS
  6
CONTINUOUS
 62
    90
100
AcDbLine
 10
2555.838177
 20
-276.166006
 30
0.0
 11
2555.838177
 21
-261.166006
 31
0.0
  0
LINE
  5
226F
330
23EA
100
AcDbEntity
  8
V0-OBRYS
  6
CONTINUOUS
 62
    90
100
AcDbLine
 10
2728.857863
 20
565.094138
 30
0.0
 11
2708.558157
 21
543.839281
 31
0.0
  0
ARC
  5
2270
330
23EA
100
AcDbEntity
  8
V0-OBRYS
  6
CONTINUOUS
 62
    90
100
AcDbCircle
 10
2193.838177
 20
37.977974
 30
0.0
 40
751.064254
100
AcDbArc
 50
36.75403
 51
42.339331
  0
LINE
  5
2291
330
23EA
100
AcDbEntity
  8
V0-VYPLNE
 62
    63
100
AcDbLine
 10
625.512844
 20
-1079.31316
 30
0.0
 11
625.512844
 21
-1069.697716
 31
0.0
  0
TEXT
  5
23BA
330
23EA
100
AcDbEntity
  8
V0-NAZVY
  6
CONTINUOUS
100
AcDbText
 10
1582.033958571429
 20
-1362.524172
 30
0.0
 40
108.0
  1
CTHT 630
  7
ED60
100
AcDbText
  0
LWPOLYLINE
  5
23BD
330
23EA
100
AcDbEntity
  8
V0-VYPLNE
  6
CONTINUOUS
 62
    41
100
AcDbPolyline
 90
        4
 70
     1
 43
0.0
 10
-246.3058267788744
 20
-218.6657562332822
 10
-210.922573
 20
-254.962723
 10
-256.165207688141
 20
-232.1034043111181
 10
-256.165207688141
 20
-232.1034043111181
1001
VDEXTRAPARAM
1071
       65
1071
        0
1071
        0
1040
1.0
1000

1000

1040
0.0
1040
0.0
  0
HATCH
  5
245E
330
23EA
100
AcDbEntity
  8
V0-VYPLNE
  6
CONTINUOUS
 62
    41
100
AcDbHatch
 10
0.0
 20
0.0
 30
0.0
210
0.0
220
0.0
230
1.0
  2
SOLID
 70
     1
 71
     0
 91
        1
 92
        2
 72
     0
 73
     1
 93
        3
 10
-246.3058267788744
 20
-218.6657562332822
 10
-210.922573
 20
-254.962723
 10
-256.165207688141
 20
-232.1034043111181
 97
        0
 75
     0
 76
     1
 98
        1
 10
0.0
 20
0.0
1001
VDEXTRAPARAM
1071
       65
1071
        0
1071
        0
1040
1.0
1000

1000

1040
0.0
1040
0.0
1001
VD_TEMPHATCH
1000
VD_TEMPHATCH
  0
LWPOLYLINE
  5
23BE
330
23EA
100
AcDbEntity
  8
V0-VYPLNE
  6
CONTINUOUS
 62
    41
100
AcDbPolyline
 90
        3
 70
     0
 43
0.0
 10
-251.2355172335077
 20
-225.3845802722002
 10
-451.551817
 20
-78.40985000000001
 10
-1082.271817
 20
-78.40985000000001
  0
TEXT
  5
23C3
330
23EA
100
AcDbEntity
  8
V0-VYPLNE
  6
CONTINUOUS
 62
    41
100
AcDbText
 10
-1289.323245571429
 20
-74.40985000000001
 30
0.0
 40
64.8
  1
4 OTVORY %%c 14
  7
ED60
100
AcDbText
  0
VIEWPORT
  5
245F
330
23E6
100
AcDbEntity
 67
     1
  8
0
 60
     1
100
AcDbViewport
 10
261.517699
 20
148.5
 30
0.0
 40
297.0
 41
297.0
 68
     0
 69
     1
1001
VD_INVISIBLE_NOT_FOR_READ
1000
VD_INVISIBLE_NOT_FOR_READ
1001
ACAD
1000
MVIEW
1002
{
1070
    16
1010
0.0
1020
0.0
1030
0.0
1010
0.0
1020
0.0
1030
1.0
1040
6.2831853071796
1040
297.0
1040
261.517699
1040
148.5
1040
0.0
1040
0.0
1040
0.0
1070
     0
1070
   100
1070
     0
1070
     1
1070
     0
1070
     0
1070
     0
1070
     0
1040
0.0
1040
0.0
1040
0.0
1040
1.0
1040
1.0
1040
0.0
1040
0.0
1070
     0
1002
{
1002
}
1002
}
  0
VIEWPORT
  5
2460
330
23E6
100
AcDbEntity
 67
     1
  8
0
 60
     1
100
AcDbViewport
 10
261.517699
 20
148.5
 30
0.0
 40
297.0
 41
297.0
 68
     0
 69
     2
1001
VD_INVISIBLE_NOT_FOR_READ
1000
VD_INVISIBLE_NOT_FOR_READ
1001
ACAD
1000
MVIEW
1002
{
1070
    16
1010
0.0
1020
0.0
1030
0.0
1010
0.0
1020
0.0
1030
1.0
1040
6.2831853071796
1040
297.0
1040
261.517699
1040
148.5
1040
0.0
1040
0.0
1040
0.0
1070
     0
1070
   100
1070
     0
1070
     1
1070
     0
1070
     0
1070
     0
1070
     0
1040
0.0
1040
0.0
1040
0.0
1040
1.0
1040
1.0
1040
0.0
1040
0.0
1070
     0
1002
{
1002
}
1002
}
  0
ENDSEC
  0
SECTION
  2
OBJECTS
  0
DICTIONARY
  5
23D7
330
0
100
AcDbDictionary
  3
ACAD_GROUP
350
23D8
  3
ACAD_LAYOUT
350
23E5
  3
ACAD_MLINESTYLE
350
23E2
  3
ACAD_PLOTSETTINGS
350
23E4
  3
ACDBHEADERROUNDTRIPXREC
350
2461
  3
VECTORDRAW_OBJECTS
350
23FA
  0
DICTIONARY
  5
2481
330
23F4
100
AcDbDictionary
280
     1
  3
ACAD_XREC_ROUNDTRIP
360
2482
  0
DICTIONARY
  5
23D8
102
{ACAD_REACTORS
330
23D7
102
}
330
23D7
100
AcDbDictionary
  0
DICTIONARY
  5
23E5
102
{ACAD_REACTORS
330
23D7
102
}
330
23D7
100
AcDbDictionary
  0
DICTIONARY
  5
23E2
102
{ACAD_REACTORS
330
23D7
102
}
330
23D7
100
AcDbDictionary
  3
STANDARD
350
23E3
  0
DICTIONARY
  5
23E4
102
{ACAD_REACTORS
330
23D7
102
}
330
23D7
100
AcDbDictionary
  0
DICTIONARY
  5
2461
102
{ACAD_REACTORS
330
23D7
102
}
330
23D7
100
AcDbDictionary
  3
CEPSNTYPE
350
246A
  3
DIMSTYLEDATA
350
2480
  3
FINGERPRINTGUID
350
246B
  3
HYPERLINKBASE
350
2464
  3
INSUNITS
350
2469
  3
LAYOUTDICT
350
2466
  3
LWETCUNION
350
2468
  3
PLOTSETDICT
350
2467
  3
PSVPSCALE
350
246D
  3
PUCSBASE
350
2470
  3
PUCSORGBACK
350
2476
  3
PUCSORGBOTTOM
350
2472
  3
PUCSORGFRONT
350
2475
  3
PUCSORGLEFT
350
2473
  3
PUCSORGRIGHT
350
2474
  3
PUCSORGTOP
350
2471
  3
PUCSORTHOREF
350
246E
  3
PUCSORTHOVIEW
350
246F
  3
STYLESHEET
350
2465
  3
TSTACKALIGN
350
2462
  3
TSTACKSIZE
350
2463
  3
UCSBASE
350
2479
  3
UCSORGBACK
350
247F
  3
UCSORGBOTTOM
350
247B
  3
UCSORGFRONT
350
247E
  3
UCSORGLEFT
350
247C
  3
UCSORGRIGHT
350
247D
  3
UCSORGTOP
350
247A
  3
UCSORTHOREF
350
2477
  3
UCSORTHOVIEW
350
2478
  3
VERSIONGUID
350
246C
  0
DICTIONARY
  5
23FA
102
{ACAD_REACTORS
330
23D7
102
}
330
23D7
100
AcDbDictionary
  3
SERIALNO
350
23FB
  0
XRECORD
  5
2482
102
{ACAD_REACTORS
330
2481
102
}
330
2481
100
AcDbXrecord
102
UCS
 74
     0
 71
     1
 10
0.0
 20
0.0
 30
0.0
 10
1.0
 20
0.0
 30
0.0
 10
0.0
 20
1.0
 30
0.0
146
0.0
 79
     0
102
VIEW
281
     0
  0
MLINESTYLE
  5
23E3
102
{ACAD_REACTORS
330
23E2
102
}
330
23E2
100
AcDbMlineStyle
  2
Standard
 70
     0
  3

 62
   256
 51
90.0
 52
90.0
 71
     2
 49
0.5
 62
   256
  6
BYLAYER
 49
-0.5
 62
   256
  6
BYLAYER
  0
XRECORD
  5
246A
102
{ACAD_REACTORS
330
2461
102
}
330
2461
100
AcDbXrecord
 90
        0
  0
XRECORD
  5
2480
102
{ACAD_REACTORS
330
2461
102
}
330
2461
100
AcDbXrecord
1000
DSTYLE
1002
{
1070
    41
 40
60.0
1070
   342
340
90
1070
   271
 70
     0
1070
    44
 40
1.25
1070
    42
 40
1.0
1070
   147
 40
4.0
1070
    77
 70
     1
1070
    73
 70
     0
1070
   174
 70
     1
1070
   172
 70
     1
1070
    74
 70
     0
1070
   340
340
2121
1070
   140
 40
50.0
1070
   288
 70
     1
1002
}
  0
XRECORD
  5
246B
102
{ACAD_REACTORS
330
2461
102
}
330
2461
100
AcDbXrecord
  1
{FAEB1C30-E019-11D5-929B-00C0DF256EC4}
  0
XRECORD
  5
2464
102
{ACAD_REACTORS
330
2461
102
}
330
2461
100
AcDbXrecord
  1

  0
XRECORD
  5
2469
102
{ACAD_REACTORS
330
2461
102
}
330
2461
100
AcDbXrecord
 90
        1
  0
XRECORD
  5
2466
102
{ACAD_REACTORS
330
2461
102
}
330
2461
100
AcDbXrecord
340
23E5
  0
XRECORD
  5
2468
102
{ACAD_REACTORS
330
2461
102
}
330
2461
100
AcDbXrecord
 90
     2560
  0
XRECORD
  5
2467
102
{ACAD_REACTORS
330
2461
102
}
330
2461
100
AcDbXrecord
340
23E4
  0
XRECORD
  5
246D
102
{ACAD_REACTORS
330
2461
102
}
330
2461
100
AcDbXrecord
 40
0.0
  0
XRECORD
  5
2470
102
{ACAD_REACTORS
330
2461
102
}
330
2461
100
AcDbXrecord
340
0
  0
XRECORD
  5
2476
102
{ACAD_REACTORS
330
2461
102
}
330
2461
100
AcDbXrecord
 10
0.0
 20
0.0
 30
0.0
  0
XRECORD
  5
2472
102
{ACAD_REACTORS
330
2461
102
}
330
2461
100
AcDbXrecord
 10
0.0
 20
0.0
 30
0.0
  0
XRECORD
  5
2475
102
{ACAD_REACTORS
330
2461
102
}
330
2461
100
AcDbXrecord
 10
0.0
 20
0.0
 30
0.0
  0
XRECORD
  5
2473
102
{ACAD_REACTORS
330
2461
102
}
330
2461
100
AcDbXrecord
 10
0.0
 20
0.0
 30
0.0
  0
XRECORD
  5
2474
102
{ACAD_REACTORS
330
2461
102
}
330
2461
100
AcDbXrecord
 10
0.0
 20
0.0
 30
0.0
  0
XRECORD
  5
2471
102
{ACAD_REACTORS
330
2461
102
}
330
2461
100
AcDbXrecord
 10
0.0
 20
0.0
 30
0.0
  0
XRECORD
  5
246E
102
{ACAD_REACTORS
330
2461
102
}
330
2461
100
AcDbXrecord
340
0
  0
XRECORD
  5
246F
102
{ACAD_REACTORS
330
2461
102
}
330
2461
100
AcDbXrecord
 70
     0
  0
XRECORD
  5
2465
102
{ACAD_REACTORS
330
2461
102
}
330
2461
100
AcDbXrecord
  1

  0
XRECORD
  5
2462
102
{ACAD_REACTORS
330
2461
102
}
330
2461
100
AcDbXrecord
 90
        1
  0
XRECORD
  5
2463
102
{ACAD_REACTORS
330
2461
102
}
330
2461
100
AcDbXrecord
 90
       70
  0
XRECORD
  5
2479
102
{ACAD_REACTORS
330
2461
102
}
330
2461
100
AcDbXrecord
340
0
  0
XRECORD
  5
247F
102
{ACAD_REACTORS
330
2461
102
}
330
2461
100
AcDbXrecord
 10
0.0
 20
0.0
 30
0.0
  0
XRECORD
  5
247B
102
{ACAD_REACTORS
330
2461
102
}
330
2461
100
AcDbXrecord
 10
0.0
 20
0.0
 30
0.0
  0
XRECORD
  5
247E
102
{ACAD_REACTORS
330
2461
102
}
330
2461
100
AcDbXrecord
 10
0.0
 20
0.0
 30
0.0
  0
XRECORD
  5
247C
102
{ACAD_REACTORS
330
2461
102
}
330
2461
100
AcDbXrecord
 10
0.0
 20
0.0
 30
0.0
  0
XRECORD
  5
247D
102
{ACAD_REACTORS
330
2461
102
}
330
2461
100
AcDbXrecord
 10
0.0
 20
0.0
 30
0.0
  0
XRECORD
  5
247A
102
{ACAD_REACTORS
330
2461
102
}
330
2461
100
AcDbXrecord
 10
0.0
 20
0.0
 30
0.0
  0
XRECORD
  5
2477
102
{ACAD_REACTORS
330
2461
102
}
330
2461
100
AcDbXrecord
340
0
  0
XRECORD
  5
2478
102
{ACAD_REACTORS
330
2461
102
}
330
2461
100
AcDbXrecord
 70
     0
  0
XRECORD
  5
246C
102
{ACAD_REACTORS
330
2461
102
}
330
2461
100
AcDbXrecord
  1
{FAEB1C32-E019-11D5-929B-00C0DF256EC4}
  0
XRECORD
  5
23FB
102
{ACAD_REACTORS
330
23FA
102
}
330
23FA
100
AcDbXrecord
1000
rInJVR9YY4Q8hfPWdUq5j5319
1070
     4
1070
     6
  0
ENDSEC
  0
EOF
