  0
SECTION
  2
HEADER
  9
$ACADVER
  1
AC1014
  9
$ACADMAINTVER
 70
     0
  9
$DWGCODEPAGE
  3
ANSI_1250
  9
$INSBASE
 10
0.0
 20
0.0
 30
0.0
  9
$EXTMIN
 10
-39.600747
 20
-1792.864592
 30
0.0
  9
$EXTMAX
 10
1904.16258
 20
-99.852894
 30
0.0
  9
$LIMMIN
 10
0.0
 20
0.0
  9
$LIMMAX
 10
420.0
 20
297.0
  9
$ORTHOMODE
 70
     0
  9
$REGENMODE
 70
     1
  9
$FILLMODE
 70
     1
  9
$QTEXTMODE
 70
     0
  9
$MIRRTEXT
 70
     1
  9
$DRAGMODE
 70
     2
  9
$LTSCALE
 40
1.0
  9
$OSMODE
 70
    37
  9
$ATTMODE
 70
     1
  9
$TEXTSIZE
 40
20.0
  9
$TRACEWID
 40
1.0
  9
$TEXTSTYLE
  7
ED50
  9
$CLAYER
  8
V0-VYPLNE
  9
$CELTYPE
  6
CONTINUOUS
  9
$CECOLOR
 62
    41
  9
$CELTSCALE
 40
3.0
  9
$DELOBJ
 70
     1
  9
$DISPSILH
 70
     0
  9
$DIMSCALE
 40
1.0
  9
$DIMASZ
 40
50.0
  9
$DIMEXO
 40
1.0
  9
$DIMDLI
 40
3.75
  9
$DIMRND
 40
0.0
  9
$DIMDLE
 40
0.0
  9
$DIMEXE
 40
1.25
  9
$DIMTP
 40
0.0
  9
$DIMTM
 40
0.0
  9
$DIMTXT
 40
40.0
  9
$DIMCEN
 40
3.0
  9
$DIMTSZ
 40
0.0
  9
$DIMTOL
 70
     0
  9
$DIMLIM
 70
     0
  9
$DIMTIH
 70
     0
  9
$DIMTOH
 70
     0
  9
$DIMSE1
 70
     0
  9
$DIMSE2
 70
     0
  9
$DIMTAD
 70
     1
  9
$DIMZIN
 70
     8
  9
$DIMBLK
  1

  9
$DIMASO
 70
     1
  9
$DIMSHO
 70
     1
  9
$DIMPOST
  1

  9
$DIMAPOST
  1

  9
$DIMALT
 70
     0
  9
$DIMALTD
 70
     4
  9
$DIMALTF
 40
0.0394
  9
$DIMLFAC
 40
1.0
  9
$DIMTOFL
 70
     1
  9
$DIMTVP
 40
0.0
  9
$DIMTIX
 70
     0
  9
$DIMSOXD
 70
     0
  9
$DIMSAH
 70
     1
  9
$DIMBLK1
  1
_OPEN
  9
$DIMBLK2
  1
_OPEN
  9
$DIMSTYLE
  2
ED50
  9
$DIMCLRD
 70
     0
  9
$DIMCLRE
 70
     0
  9
$DIMCLRT
 70
     0
  9
$DIMTFAC
 40
1.0
  9
$DIMGAP
 40
4.0
  9
$DIMJUST
 70
     0
  9
$DIMSD1
 70
     0
  9
$DIMSD2
 70
     0
  9
$DIMTOLJ
 70
     1
  9
$DIMTZIN
 70
     8
  9
$DIMALTZ
 70
     0
  9
$DIMALTTZ
 70
     0
  9
$DIMFIT
 70
     3
  9
$DIMUPT
 70
     0
  9
$DIMUNIT
 70
     2
  9
$DIMDEC
 70
     0
  9
$DIMTDEC
 70
     1
  9
$DIMALTU
 70
     8
  9
$DIMALTTD
 70
     4
  9
$DIMTXSTY
  7
ED50
  9
$DIMAUNIT
 70
     0
  9
$LUNITS
 70
     2
  9
$LUPREC
 70
     4
  9
$SKETCHINC
 40
1.0
  9
$FILLETRAD
 40
0.0
  9
$AUNITS
 70
     0
  9
$AUPREC
 70
     0
  9
$MENU
  1
.
  9
$ELEVATION
 40
0.0
  9
$PELEVATION
 40
0.0
  9
$THICKNESS
 40
0.0
  9
$LIMCHECK
 70
     0
  9
$BLIPMODE
 70
     0
  9
$CHAMFERA
 40
10.0
  9
$CHAMFERB
 40
10.0
  9
$CHAMFERC
 40
20.0
  9
$CHAMFERD
 40
0.0
  9
$SKPOLY
 70
     1
  9
$TDCREATE
 40
2451196.643769328
  9
$TDUPDATE
 40
2452915.650543403
  9
$TDINDWG
 40
0.3397131944
  9
$TDUSRTIMER
 40
0.3397131944
  9
$USRTIMER
 70
     1
  9
$ANGBASE
 50
0.0
  9
$ANGDIR
 70
     0
  9
$PDMODE
 70
     3
  9
$PDSIZE
 40
20.0
  9
$PLINEWID
 40
0.0
  9
$COORDS
 70
     1
  9
$SPLFRAME
 70
     0
  9
$SPLINETYPE
 70
     6
  9
$SPLINESEGS
 70
     8
  9
$ATTDIA
 70
     0
  9
$ATTREQ
 70
     1
  9
$HANDLING
 70
     1
  9
$HANDSEED
  5
1D0B
  9
$SURFTAB1
 70
     6
  9
$SURFTAB2
 70
     6
  9
$SURFTYPE
 70
     6
  9
$SURFU
 70
     6
  9
$SURFV
 70
     6
  9
$UCSNAME
  2

  9
$UCSORG
 10
245.1832125521596
 20
-860.8362015275439
 30
0.0
  9
$UCSXDIR
 10
1.0
 20
0.0
 30
0.0
  9
$UCSYDIR
 10
0.0
 20
1.0
 30
0.0
  9
$PUCSNAME
  2

  9
$PUCSORG
 10
0.0
 20
0.0
 30
0.0
  9
$PUCSXDIR
 10
1.0
 20
0.0
 30
0.0
  9
$PUCSYDIR
 10
0.0
 20
1.0
 30
0.0
  9
$USERI1
 70
     0
  9
$USERI2
 70
     0
  9
$USERI3
 70
     0
  9
$USERI4
 70
     0
  9
$USERI5
 70
     0
  9
$USERR1
 40
0.0
  9
$USERR2
 40
0.0
  9
$USERR3
 40
0.0
  9
$USERR4
 40
0.0
  9
$USERR5
 40
0.0
  9
$WORLDVIEW
 70
     1
  9
$SHADEDGE
 70
     3
  9
$SHADEDIF
 70
    70
  9
$TILEMODE
 70
     1
  9
$MAXACTVP
 70
    48
  9
$PINSBASE
 10
0.0
 20
0.0
 30
0.0
  9
$PLIMCHECK
 70
     0
  9
$PEXTMIN
 10
1.000000E+20
 20
1.000000E+20
 30
1.000000E+20
  9
$PEXTMAX
 10
-1.000000E+20
 20
-1.000000E+20
 30
-1.000000E+20
  9
$PLIMMIN
 10
0.0
 20
0.0
  9
$PLIMMAX
 10
420.0
 20
297.0
  9
$UNITMODE
 70
     0
  9
$VISRETAIN
 70
     1
  9
$PLINEGEN
 70
     0
  9
$PSLTSCALE
 70
     0
  9
$TREEDEPTH
 70
  3020
  9
$PICKSTYLE
 70
     1
  9
$CMLSTYLE
  2
STANDARD
  9
$CMLJUST
 70
     0
  9
$CMLSCALE
 40
1.0
  9
$PROXYGRAPHICS
 70
     1
  9
$MEASUREMENT
 70
     1
  0
ENDSEC
  0
SECTION
  2
CLASSES
  0
CLASS
  1
DICTIONARYVAR
  2
AcDbDictionaryVar
  3
"AutoCAD"
 90
        0
280
     0
281
     0
  0
CLASS
  1
LWPOLYLINE
  2
AcDbPolyline
  3
"AutoCAD"
 90
        0
280
     0
281
     1
  0
CLASS
  1
HATCH
  2
AcDbHatch
  3
"ACAD_SEDONA"
 90
        0
280
     0
281
     1
  0
ENDSEC
  0
SECTION
  2
TABLES
  0
TABLE
  2
VPORT
  5
8
100
AcDbSymbolTable
 70
     2
  0
VPORT
  5
1D0A
100
AcDbSymbolTableRecord
100
AcDbViewportTableRecord
  2
*ACTIVE
 70
     0
 10
0.0
 20
0.0
 11
1.0
 21
1.0
 12
852.165682
 22
-992.22723
 13
0.0
 23
0.0
 14
10.0
 24
10.0
 15
10.0
 25
10.0
 16
0.0
 26
0.0
 36
1.0
 17
0.0
 27
0.0
 37
0.0
 40
1818.912533
 41
1.730469
 42
50.0
 43
0.0
 44
0.0
 50
0.0
 51
0.0
 71
     0
 72
   100
 73
     1
 74
     1
 75
     0
 76
     0
 77
     0
 78
     0
  0
ENDTAB
  0
TABLE
  2
LTYPE
  5
5
100
AcDbSymbolTable
 70
     3
  0
LTYPE
  5
14
100
AcDbSymbolTableRecord
100
AcDbLinetypeTableRecord
  2
BYBLOCK
 70
     0
  3

 72
    65
 73
     0
 40
0.0
  0
LTYPE
  5
15
100
AcDbSymbolTableRecord
100
AcDbLinetypeTableRecord
  2
BYLAYER
 70
     0
  3

 72
    65
 73
     0
 40
0.0
  0
LTYPE
  5
16
100
AcDbSymbolTableRecord
100
AcDbLinetypeTableRecord
  2
CONTINUOUS
 70
     0
  3
Solid line
 72
    65
 73
     0
 40
0.0
  0
LTYPE
  5
7F
100
AcDbSymbolTableRecord
100
AcDbLinetypeTableRecord
  2
DASHDOT
 70
     0
  3
Dash dot __ . __ . __ . __ . __ . __ . __ . __
 72
    65
 73
     4
 40
25.4
 49
12.7
 74
     0
 49
-6.35
 74
     0
 49
0.0
 74
     0
 49
-6.35
 74
     0
  0
LTYPE
  5
80
100
AcDbSymbolTableRecord
100
AcDbLinetypeTableRecord
  2
DASHED
 70
     0
  3
Dashed __ __ __ __ __ __ __ __ __ __ __ __ __ _
 72
    65
 73
     2
 40
19.05
 49
12.7
 74
     0
 49
-6.35
 74
     0
  0
ENDTAB
  0
TABLE
  2
LAYER
  5
2
100
AcDbSymbolTable
 70
     6
  0
LAYER
  5
F
100
AcDbSymbolTableRecord
100
AcDbLayerTableRecord
  2
0
 70
     0
 62
     7
  6
CONTINUOUS
  0
LAYER
  5
9E
100
AcDbSymbolTableRecord
100
AcDbLayerTableRecord
  2
DEFPOINTS
 70
     0
 62
     7
  6
CONTINUOUS
  0
LAYER
  5
377
100
AcDbSymbolTableRecord
100
AcDbLayerTableRecord
  2
V0-OBRYS
 70
     0
 62
    90
  6
CONTINUOUS
  0
LAYER
  5
378
100
AcDbSymbolTableRecord
100
AcDbLayerTableRecord
  2
V0-VYPLNE
 70
     0
 62
    63
  6
DASHDOT
  0
LAYER
  5
37A
100
AcDbSymbolTableRecord
100
AcDbLayerTableRecord
  2
V0-NAZVY
 70
     0
 62
   210
  6
CONTINUOUS
  0
LAYER
  5
559
100
AcDbSymbolTableRecord
100
AcDbLayerTableRecord
  2
V0-ZBYTEK
 70
     0
 62
    51
  6
CONTINUOUS
  0
ENDTAB
  0
TABLE
  2
STYLE
  5
3
100
AcDbSymbolTable
 70
     6
  0
STYLE
  5
10
100
AcDbSymbolTableRecord
100
AcDbTextStyleTableRecord
  2
STANDARD
 70
     0
 40
7.0
 41
1.0
 50
0.0
 71
     0
 42
20.0
  3
ISOCP.shx
  4

  0
STYLE
  5
331
100
AcDbSymbolTableRecord
100
AcDbTextStyleTableRecord
  2
ED30
 70
     0
 40
30.0
 41
1.0
 50
0.0
 71
     0
 42
2.5
  3
ISOCP.shx
  4

  0
STYLE
  5
5D2
100
AcDbSymbolTableRecord
100
AcDbTextStyleTableRecord
  2
ED20
 70
     0
 40
20.0
 41
1.0
 50
0.0
 71
     0
 42
20.0
  3
isocp.shx
  4

  0
STYLE
  5
64F
100
AcDbSymbolTableRecord
100
AcDbTextStyleTableRecord
  2
ED40
 70
     0
 40
40.0
 41
1.0
 50
0.0
 71
     0
 42
20.0
  3
isocp.shx
  4

  0
STYLE
  5
650
100
AcDbSymbolTableRecord
100
AcDbTextStyleTableRecord
  2
ED10
 70
     0
 40
10.0
 41
1.0
 50
0.0
 71
     0
 42
20.0
  3
isocp.shx
  4

  0
STYLE
  5
1A9E
100
AcDbSymbolTableRecord
100
AcDbTextStyleTableRecord
  2
ED50
 70
     0
 40
50.0
 41
1.0
 50
0.0
 71
     0
 42
20.0
  3
isocp.shx
  4

  0
ENDTAB
  0
TABLE
  2
VIEW
  5
6
100
AcDbSymbolTable
 70
     0
  0
ENDTAB
  0
TABLE
  2
UCS
  5
7
100
AcDbSymbolTable
 70
     0
  0
ENDTAB
  0
TABLE
  2
APPID
  5
9
100
AcDbSymbolTable
 70
     3
  0
APPID
  5
11
100
AcDbSymbolTableRecord
100
AcDbRegAppTableRecord
  2
ACAD
 70
     0
  0
APPID
  5
FAA
100
AcDbSymbolTableRecord
100
AcDbRegAppTableRecord
  2
CONTENTBLOCKICON
 70
     0
  0
APPID
  5
FAB
100
AcDbSymbolTableRecord
100
AcDbRegAppTableRecord
  2
CONTENTBLOCKDESCRIPTION
 70
     0
  0
ENDTAB
  0
TABLE
  2
DIMSTYLE
  5
A
100
AcDbSymbolTable
 70
     6
  0
DIMSTYLE
105
1D
100
AcDbSymbolTableRecord
100
AcDbDimStyleTableRecord
  2
STANDARD
 70
     0
  3

  4

  5

  6
_OPEN
  7
_OPEN
 40
0.0
 41
15.0
 42
0.625
 43
3.75
 44
1.25
 45
0.0
 46
0.0
 47
0.0
 48
0.0
140
15.0
141
2.5
142
0.0
143
0.0394
144
1.0
145
0.0
146
1.0
147
3.0
 71
     0
 72
     0
 73
     0
 74
     0
 75
     0
 76
     0
 77
     1
 78
     8
170
     0
171
     4
172
     1
173
     1
174
     0
175
     0
176
     0
177
     0
178
     0
270
     2
271
     0
272
     1
273
     8
274
     4
340
331
275
     0
280
     0
281
     0
282
     0
283
     1
284
     8
285
     0
286
     0
287
     3
288
     0
  0
DIMSTYLE
105
397
102
{ACAD_REACTORS
330
1941
102
}
100
AcDbSymbolTableRecord
100
AcDbDimStyleTableRecord
  2
ED40
 70
     0
  3

  4

  5

  6
_OPEN
  7
_OPEN
 40
0.0
 41
35.0
 42
1.0
 43
3.75
 44
1.25
 45
0.0
 46
0.0
 47
0.0
 48
0.0
140
40.0
141
3.0
142
0.0
143
0.0394
144
1.0
145
0.0
146
1.0
147
4.0
 71
     0
 72
     0
 73
     0
 74
     0
 75
     0
 76
     0
 77
     1
 78
     8
170
     0
171
     4
172
     1
173
     1
174
     0
175
     0
176
     0
177
     0
178
     0
270
     2
271
     0
272
     1
273
     8
274
     4
340
64F
275
     0
280
     0
281
     0
282
     0
283
     1
284
     8
285
     0
286
     0
287
     3
288
     0
  0
DIMSTYLE
105
656
102
{ACAD_REACTORS
330
1160
330
1162
330
1165
330
13A2
330
13BC
330
13D6
330
13E3
330
13FB
330
1426
102
}
100
AcDbSymbolTableRecord
100
AcDbDimStyleTableRecord
  2
ED30
 70
     0
  3

  4

  5

  6
_OPEN
  7
_OPEN
 40
1.0
 41
25.0
 42
1.0
 43
3.75
 44
1.25
 45
0.0
 46
0.0
 47
0.0
 48
0.0
140
30.0
141
3.0
142
0.0
143
0.0394
144
1.0
145
0.0
146
1.0
147
4.0
 71
     0
 72
     0
 73
     0
 74
     0
 75
     0
 76
     0
 77
     1
 78
     8
170
     0
171
     4
172
     1
173
     1
174
     0
175
     0
176
     0
177
     0
178
     0
270
     2
271
     0
272
     1
273
     8
274
     4
340
331
275
     0
280
     0
281
     0
282
     0
283
     1
284
     8
285
     0
286
     0
287
     3
288
     0
  0
DIMSTYLE
105
657
100
AcDbSymbolTableRecord
100
AcDbDimStyleTableRecord
  2
ED20
 70
     0
  3

  4

  5

  6
_OPEN
  7
_OPEN
 40
0.0
 41
20.0
 42
1.0
 43
3.75
 44
1.25
 45
0.0
 46
0.0
 47
0.0
 48
0.0
140
20.0
141
3.0
142
0.0
143
0.0394
144
1.0
145
0.0
146
1.0
147
2.0
 71
     0
 72
     0
 73
     0
 74
     0
 75
     0
 76
     0
 77
     1
 78
     8
170
     0
171
     4
172
     1
173
     1
174
     0
175
     0
176
     0
177
     0
178
     0
270
     2
271
     0
272
     1
273
     8
274
     4
340
5D2
275
     0
280
     0
281
     0
282
     0
283
     1
284
     8
285
     0
286
     0
287
     3
288
     0
  0
DIMSTYLE
105
658
100
AcDbSymbolTableRecord
100
AcDbDimStyleTableRecord
  2
ED10
 70
     0
  3

  4

  5

  6
_OPEN
  7
_OPEN
 40
0.0
 41
15.0
 42
1.0
 43
3.75
 44
1.25
 45
0.0
 46
0.0
 47
0.0
 48
0.0
140
10.0
141
3.0
142
0.0
143
0.0394
144
1.0
145
0.0
146
1.0
147
1.5
 71
     0
 72
     0
 73
     0
 74
     0
 75
     0
 76
     0
 77
     1
 78
     8
170
     0
171
     4
172
     1
173
     1
174
     0
175
     0
176
     0
177
     0
178
     0
270
     2
271
     0
272
     1
273
     8
274
     4
340
5D2
275
     0
280
     0
281
     0
282
     0
283
     1
284
     8
285
     0
286
     0
287
     3
288
     0
  0
DIMSTYLE
105
1A9F
102
{ACAD_REACTORS
330
1BCA
102
}
100
AcDbSymbolTableRecord
100
AcDbDimStyleTableRecord
  2
ED50
 70
     0
  3

  4

  5

  6
_OPEN
  7
_OPEN
 40
1.0
 41
35.0
 42
1.0
 43
3.75
 44
1.25
 45
0.0
 46
0.0
 47
0.0
 48
0.0
140
40.0
141
3.0
142
0.0
143
0.0394
144
1.0
145
0.0
146
1.0
147
4.0
 71
     0
 72
     0
 73
     0
 74
     0
 75
     0
 76
     0
 77
     1
 78
     8
170
     0
171
     4
172
     1
173
     1
174
     0
175
     0
176
     0
177
     0
178
     0
270
     2
271
     0
272
     1
273
     8
274
     4
340
64F
275
     0
280
     0
281
     0
282
     0
283
     1
284
     8
285
     0
286
     0
287
     3
288
     0
  0
ENDTAB
  0
TABLE
  2
BLOCK_RECORD
  5
1
100
AcDbSymbolTable
 70
    12
  0
BLOCK_RECORD
  5
1A
100
AcDbSymbolTableRecord
100
AcDbBlockTableRecord
  2
*MODEL_SPACE
  0
BLOCK_RECORD
  5
17
100
AcDbSymbolTableRecord
100
AcDbBlockTableRecord
  2
*PAPER_SPACE
  0
BLOCK_RECORD
  5
90
100
AcDbSymbolTableRecord
100
AcDbBlockTableRecord
  2
_OPEN
  0
BLOCK_RECORD
  5
108E
100
AcDbSymbolTableRecord
100
AcDbBlockTableRecord
  2
*D1
  0
BLOCK_RECORD
  5
10A6
100
AcDbSymbolTableRecord
100
AcDbBlockTableRecord
  2
*D2
  0
BLOCK_RECORD
  5
10CA
100
AcDbSymbolTableRecord
100
AcDbBlockTableRecord
  2
*D3
  0
BLOCK_RECORD
  5
1396
100
AcDbSymbolTableRecord
100
AcDbBlockTableRecord
  2
*D4
  0
BLOCK_RECORD
  5
13B0
100
AcDbSymbolTableRecord
100
AcDbBlockTableRecord
  2
*D5
  0
BLOCK_RECORD
  5
13CA
100
AcDbSymbolTableRecord
100
AcDbBlockTableRecord
  2
*D6
  0
BLOCK_RECORD
  5
13D7
100
AcDbSymbolTableRecord
100
AcDbBlockTableRecord
  2
*D7
  0
BLOCK_RECORD
  5
13EF
100
AcDbSymbolTableRecord
100
AcDbBlockTableRecord
  2
*D8
  0
BLOCK_RECORD
  5
1418
100
AcDbSymbolTableRecord
100
AcDbBlockTableRecord
  2
*D9
  0
BLOCK_RECORD
  5
1935
100
AcDbSymbolTableRecord
100
AcDbBlockTableRecord
  2
*D10
  0
BLOCK_RECORD
  5
1BBE
100
AcDbSymbolTableRecord
100
AcDbBlockTableRecord
  2
*D11
  0
ENDTAB
  0
ENDSEC
  0
SECTION
  2
BLOCKS
  0
BLOCK
  5
1B
100
AcDbEntity
  8
0
100
AcDbBlockBegin
  2
*MODEL_SPACE
 70
     0
 10
0.0
 20
0.0
 30
0.0
  3
*MODEL_SPACE
  1

  0
ENDBLK
  5
1C
100
AcDbEntity
  8
0
100
AcDbBlockEnd
  0
BLOCK
  5
18
100
AcDbEntity
 67
     1
  8
0
100
AcDbBlockBegin
  2
*PAPER_SPACE
 70
     0
 10
0.0
 20
0.0
 30
0.0
  3
*PAPER_SPACE
  1

  0
ENDBLK
  5
19
100
AcDbEntity
 67
     1
  8
0
100
AcDbBlockEnd
  0
BLOCK
  5
91
100
AcDbEntity
  8
0
100
AcDbBlockBegin
  2
_OPEN
 70
     0
 10
0.0
 20
0.0
 30
0.0
  3
_OPEN
  1

  0
LINE
  5
92
100
AcDbEntity
  8
0
  6
BYBLOCK
 62
     0
100
AcDbLine
 10
-1.0
 20
0.166667
 30
0.0
 11
0.0
 21
0.0
 31
0.0
  0
LINE
  5
93
100
AcDbEntity
  8
0
  6
BYBLOCK
 62
     0
100
AcDbLine
 10
0.0
 20
0.0
 30
0.0
 11
-1.0
 21
-0.166667
 31
0.0
  0
LINE
  5
94
100
AcDbEntity
  8
0
  6
BYBLOCK
 62
     0
100
AcDbLine
 10
0.0
 20
0.0
 30
0.0
 11
-1.0
 21
0.0
 31
0.0
  0
ENDBLK
  5
95
100
AcDbEntity
  8
0
100
AcDbBlockEnd
  0
BLOCK
  5
1BEC
100
AcDbEntity
  8
0
 48
3.0
100
AcDbBlockBegin
  2
*D1
 70
     1
 10
0.0
 20
0.0
 30
0.0
  3
*D1
  1

  0
LINE
  5
1BED
100
AcDbEntity
  8
0
  6
BYBLOCK
 62
     0
 48
3.0
100
AcDbLine
 10
80.183213
 20
-792.336202
 30
0.0
 11
80.183213
 21
-1052.324399
 31
0.0
  0
LINE
  5
1BEE
100
AcDbEntity
  8
0
  6
BYBLOCK
 62
     0
 48
3.0
100
AcDbLine
 10
818.183213
 20
-792.336202
 30
0.0
 11
818.183213
 21
-1052.324399
 31
0.0
  0
LINE
  5
1BEF
100
AcDbEntity
  8
0
  6
BYBLOCK
 62
     0
 48
3.0
100
AcDbLine
 10
130.183213
 20
-1051.074399
 30
0.0
 11
768.183213
 21
-1051.074399
 31
0.0
  0
INSERT
  5
1BF0
100
AcDbEntity
  8
0
  6
BYBLOCK
 62
     0
 48
3.0
100
AcDbBlockReference
  2
_OPEN
 10
80.183213
 20
-1051.074399
 30
0.0
 41
50.0
 42
50.0
 43
50.0
 50
180.0
  0
INSERT
  5
1BF1
100
AcDbEntity
  8
0
  6
BYBLOCK
 62
     0
 48
3.0
100
AcDbBlockReference
  2
_OPEN
 10
818.183213
 20
-1051.074399
 30
0.0
 41
50.0
 42
50.0
 43
50.0
  0
MTEXT
  5
1BF2
100
AcDbEntity
  8
0
  6
BYBLOCK
 62
     0
 48
3.0
100
AcDbMText
 10
461.648268
 20
-1022.074399
 30
0.0
 40
50.0
 41
0.0
 71
     5
 72
     1
  1
\A1;738
  7
ED50
  0
POINT
  5
1BF3
100
AcDbEntity
  8
DEFPOINTS
  6
BYBLOCK
 62
     0
 48
3.0
100
AcDbPoint
 10
80.183213
 20
-791.336202
 30
0.0
  0
POINT
  5
1BF4
100
AcDbEntity
  8
DEFPOINTS
  6
BYBLOCK
 62
     0
 48
3.0
100
AcDbPoint
 10
818.183213
 20
-791.336202
 30
0.0
  0
POINT
  5
1BF5
100
AcDbEntity
  8
DEFPOINTS
  6
BYBLOCK
 62
     0
 48
3.0
100
AcDbPoint
 10
818.183213
 20
-1051.074399
 30
0.0
  0
ENDBLK
  5
1BF6
100
AcDbEntity
  8
0
 48
3.0
100
AcDbBlockEnd
  0
BLOCK
  5
1BD6
100
AcDbEntity
  8
0
 48
3.0
100
AcDbBlockBegin
  2
*D2
 70
     1
 10
0.0
 20
0.0
 30
0.0
  3
*D2
  1

  0
LINE
  5
1BD7
100
AcDbEntity
  8
0
  6
BYBLOCK
 62
     0
 48
3.0
100
AcDbLine
 10
754.183213
 20
-235.836202
 30
0.0
 11
991.174893
 21
-235.836202
 31
0.0
  0
LINE
  5
1BD8
100
AcDbEntity
  8
0
  6
BYBLOCK
 62
     0
 48
3.0
100
AcDbLine
 10
754.183213
 20
-897.836202
 30
0.0
 11
991.174893
 21
-897.836202
 31
0.0
  0
LINE
  5
1BD9
100
AcDbEntity
  8
0
  6
BYBLOCK
 62
     0
 48
3.0
100
AcDbLine
 10
989.924893
 20
-285.836202
 30
0.0
 11
989.924893
 21
-847.836202
 31
0.0
  0
INSERT
  5
1BDA
100
AcDbEntity
  8
0
  6
BYBLOCK
 62
     0
 48
3.0
100
AcDbBlockReference
  2
_OPEN
 10
989.924893
 20
-235.836202
 30
0.0
 41
50.0
 42
50.0
 43
50.0
 50
90.0
  0
INSERT
  5
1BDB
100
AcDbEntity
  8
0
  6
BYBLOCK
 62
     0
 48
3.0
100
AcDbBlockReference
  2
_OPEN
 10
989.924893
 20
-897.836202
 30
0.0
 41
50.0
 42
50.0
 43
50.0
 50
270.0
  0
MTEXT
  5
1BDC
100
AcDbEntity
  8
0
  6
BYBLOCK
 62
     0
 48
3.0
100
AcDbMText
 10
960.919971
 20
-541.06559
 30
0.0
 40
50.0
 41
0.0
 71
     5
 72
     1
  1
\A1;662
  7
ED50
 11
0.0
 21
1.0
 31
0.0
  0
POINT
  5
1BDD
100
AcDbEntity
  8
DEFPOINTS
  6
BYBLOCK
 62
     0
 48
3.0
100
AcDbPoint
 10
753.183213
 20
-235.836202
 30
0.0
  0
POINT
  5
1BDE
100
AcDbEntity
  8
DEFPOINTS
  6
BYBLOCK
 62
     0
 48
3.0
100
AcDbPoint
 10
753.183213
 20
-897.836202
 30
0.0
  0
POINT
  5
1BDF
100
AcDbEntity
  8
DEFPOINTS
  6
BYBLOCK
 62
     0
 48
3.0
100
AcDbPoint
 10
989.924893
 20
-897.836202
 30
0.0
  0
ENDBLK
  5
1BE0
100
AcDbEntity
  8
0
 48
3.0
100
AcDbBlockEnd
  0
BLOCK
  5
1BE1
100
AcDbEntity
  8
0
 48
3.0
100
AcDbBlockBegin
  2
*D3
 70
     1
 10
0.0
 20
0.0
 30
0.0
  3
*D3
  1

  0
LINE
  5
1BE2
100
AcDbEntity
  8
0
  6
BYBLOCK
 62
     0
 48
3.0
100
AcDbLine
 10
1167.083413
 20
-898.836202
 30
0.0
 11
1167.083413
 21
-1059.45739
 31
0.0
  0
LINE
  5
1BE3
100
AcDbEntity
  8
0
  6
BYBLOCK
 62
     0
 48
3.0
100
AcDbLine
 10
1852.083413
 20
-898.836202
 30
0.0
 11
1852.083413
 21
-1059.45739
 31
0.0
  0
LINE
  5
1BE4
100
AcDbEntity
  8
0
  6
BYBLOCK
 62
     0
 48
3.0
100
AcDbLine
 10
1217.083413
 20
-1058.20739
 30
0.0
 11
1802.083413
 21
-1058.20739
 31
0.0
  0
INSERT
  5
1BE5
100
AcDbEntity
  8
0
  6
BYBLOCK
 62
     0
 48
3.0
100
AcDbBlockReference
  2
_OPEN
 10
1167.083413
 20
-1058.20739
 30
0.0
 41
50.0
 42
50.0
 43
50.0
 50
180.0
  0
INSERT
  5
1BE6
100
AcDbEntity
  8
0
  6
BYBLOCK
 62
     0
 48
3.0
100
AcDbBlockReference
  2
_OPEN
 10
1852.083413
 20
-1058.20739
 30
0.0
 41
50.0
 42
50.0
 43
50.0
  0
MTEXT
  5
1BE7
100
AcDbEntity
  8
0
  6
BYBLOCK
 62
     0
 48
3.0
100
AcDbMText
 10
1511.062638
 20
-1029.20739
 30
0.0
 40
50.0
 41
0.0
 71
     5
 72
     1
  1
\A1;685
  7
ED50
  0
POINT
  5
1BE8
100
AcDbEntity
  8
DEFPOINTS
  6
BYBLOCK
 62
     0
 48
3.0
100
AcDbPoint
 10
1167.083413
 20
-897.836202
 30
0.0
  0
POINT
  5
1BE9
100
AcDbEntity
  8
DEFPOINTS
  6
BYBLOCK
 62
     0
 48
3.0
100
AcDbPoint
 10
1852.083413
 20
-897.836202
 30
0.0
  0
POINT
  5
1BEA
100
AcDbEntity
  8
DEFPOINTS
  6
BYBLOCK
 62
     0
 48
3.0
100
AcDbPoint
 10
1852.083413
 20
-1058.20739
 30
0.0
  0
ENDBLK
  5
1BEB
100
AcDbEntity
  8
0
 48
3.0
100
AcDbBlockEnd
  0
BLOCK
  5
1B97
100
AcDbEntity
  8
0
 48
3.0
100
AcDbBlockBegin
  2
*D4
 70
     1
 10
0.0
 20
0.0
 30
0.0
  3
*D4
  1

  0
LINE
  5
1B98
100
AcDbEntity
  8
0
  6
BYBLOCK
 62
     0
 48
3.0
100
AcDbLine
 10
80.183213
 20
-291.336202
 30
0.0
 11
80.183213
 21
-153.596988
 31
0.0
  0
LINE
  5
1B99
100
AcDbEntity
  8
0
  6
BYBLOCK
 62
     0
 48
3.0
100
AcDbLine
 10
145.183213
 20
-234.836202
 30
0.0
 11
145.183213
 21
-153.596988
 31
0.0
  0
LINE
  5
1B9A
100
AcDbEntity
  8
0
  6
BYBLOCK
 62
     0
 48
3.0
100
AcDbLine
 10
30.183213
 20
-154.846988
 30
0.0
 11
-19.816787
 21
-154.846988
 31
0.0
  0
LINE
  5
1B9B
100
AcDbEntity
  8
0
  6
BYBLOCK
 62
     0
 48
3.0
100
AcDbLine
 10
195.183213
 20
-154.846988
 30
0.0
 11
245.183213
 21
-154.846988
 31
0.0
  0
LINE
  5
1B9C
100
AcDbEntity
  8
0
  6
BYBLOCK
 62
     0
 48
3.0
100
AcDbLine
 10
80.183213
 20
-154.846988
 30
0.0
 11
145.183213
 21
-154.846988
 31
0.0
  0
INSERT
  5
1B9D
100
AcDbEntity
  8
0
  6
BYBLOCK
 62
     0
 48
3.0
100
AcDbBlockReference
  2
_OPEN
 10
80.183213
 20
-154.846988
 30
0.0
 41
50.0
 42
50.0
 43
50.0
  0
INSERT
  5
1B9E
100
AcDbEntity
  8
0
  6
BYBLOCK
 62
     0
 48
3.0
100
AcDbBlockReference
  2
_OPEN
 10
145.183213
 20
-154.846988
 30
0.0
 41
50.0
 42
50.0
 43
50.0
 50
180.0
  0
MTEXT
  5
1B9F
100
AcDbEntity
  8
0
  6
BYBLOCK
 62
     0
 48
3.0
100
AcDbMText
 10
112.683213
 20
-125.846988
 30
0.0
 40
50.0
 41
0.0
 71
     5
 72
     1
  1
\A1;65
  7
ED50
  0
POINT
  5
1BA0
100
AcDbEntity
  8
DEFPOINTS
  6
BYBLOCK
 62
     0
 48
3.0
100
AcDbPoint
 10
80.183213
 20
-292.336202
 30
0.0
  0
POINT
  5
1BA1
100
AcDbEntity
  8
DEFPOINTS
  6
BYBLOCK
 62
     0
 48
3.0
100
AcDbPoint
 10
145.183213
 20
-235.836202
 30
0.0
  0
POINT
  5
1BA2
100
AcDbEntity
  8
DEFPOINTS
  6
BYBLOCK
 62
     0
 48
3.0
100
AcDbPoint
 10
145.183213
 20
-154.846988
 30
0.0
  0
ENDBLK
  5
1BA3
100
AcDbEntity
  8
0
 48
3.0
100
AcDbBlockEnd
  0
BLOCK
  5
1B2C
100
AcDbEntity
  8
0
 48
3.0
100
AcDbBlockBegin
  2
*D5
 70
     1
 10
0.0
 20
0.0
 30
0.0
  3
*D5
  1

  0
LINE
  5
1B2D
100
AcDbEntity
  8
0
  6
BYBLOCK
 62
     0
 48
3.0
100
AcDbLine
 10
145.183213
 20
-233.836202
 30
0.0
 11
145.183213
 21
-153.596988
 31
0.0
  0
LINE
  5
1B2E
100
AcDbEntity
  8
0
  6
BYBLOCK
 62
     0
 48
3.0
100
AcDbLine
 10
753.183213
 20
-234.836202
 30
0.0
 11
753.183213
 21
-153.596988
 31
0.0
  0
LINE
  5
1B2F
100
AcDbEntity
  8
0
  6
BYBLOCK
 62
     0
 48
3.0
100
AcDbLine
 10
195.183213
 20
-154.846988
 30
0.0
 11
703.183213
 21
-154.846988
 31
0.0
  0
INSERT
  5
1B30
100
AcDbEntity
  8
0
  6
BYBLOCK
 62
     0
 48
3.0
100
AcDbBlockReference
  2
_OPEN
 10
145.183213
 20
-154.846988
 30
0.0
 41
50.0
 42
50.0
 43
50.0
 50
180.0
  0
INSERT
  5
1B31
100
AcDbEntity
  8
0
  6
BYBLOCK
 62
     0
 48
3.0
100
AcDbBlockReference
  2
_OPEN
 10
753.183213
 20
-154.846988
 30
0.0
 41
50.0
 42
50.0
 43
50.0
  0
MTEXT
  5
1B32
100
AcDbEntity
  8
0
  6
BYBLOCK
 62
     0
 48
3.0
100
AcDbMText
 10
465.217704
 20
-125.846988
 30
0.0
 40
50.0
 41
0.0
 71
     5
 72
     1
  1
\A1;608
  7
ED50
  0
POINT
  5
1B33
100
AcDbEntity
  8
DEFPOINTS
  6
BYBLOCK
 62
     0
 48
3.0
100
AcDbPoint
 10
145.183213
 20
-234.836202
 30
0.0
  0
POINT
  5
1B34
100
AcDbEntity
  8
DEFPOINTS
  6
BYBLOCK
 62
     0
 48
3.0
100
AcDbPoint
 10
753.183213
 20
-235.836202
 30
0.0
  0
POINT
  5
1B35
100
AcDbEntity
  8
DEFPOINTS
  6
BYBLOCK
 62
     0
 48
3.0
100
AcDbPoint
 10
753.183213
 20
-154.846988
 30
0.0
  0
ENDBLK
  5
1B36
100
AcDbEntity
  8
0
 48
3.0
100
AcDbBlockEnd
  0
BLOCK
  5
1B74
100
AcDbEntity
  8
0
 48
3.0
100
AcDbBlockBegin
  2
*D6
 70
     1
 10
0.0
 20
0.0
 30
0.0
  3
*D6
  1

  0
LINE
  5
1B75
100
AcDbEntity
  8
0
  6
BYBLOCK
 62
     0
 48
3.0
100
AcDbLine
 10
753.183213
 20
-233.836202
 30
0.0
 11
753.183213
 21
-152.346988
 31
0.0
  0
LINE
  5
1B76
100
AcDbEntity
  8
0
  6
BYBLOCK
 62
     0
 48
3.0
100
AcDbLine
 10
818.183213
 20
-290.336202
 30
0.0
 11
818.183213
 21
-152.346988
 31
0.0
  0
LINE
  5
1B77
100
AcDbEntity
  8
0
  6
BYBLOCK
 62
     0
 48
3.0
100
AcDbLine
 10
703.183213
 20
-153.596988
 30
0.0
 11
653.183213
 21
-153.596988
 31
0.0
  0
LINE
  5
1B78
100
AcDbEntity
  8
0
  6
BYBLOCK
 62
     0
 48
3.0
100
AcDbLine
 10
868.183213
 20
-153.596988
 30
0.0
 11
918.183213
 21
-153.596988
 31
0.0
  0
LINE
  5
1B79
100
AcDbEntity
  8
0
  6
BYBLOCK
 62
     0
 48
3.0
100
AcDbLine
 10
753.183213
 20
-153.596988
 30
0.0
 11
818.183213
 21
-153.596988
 31
0.0
  0
INSERT
  5
1B7A
100
AcDbEntity
  8
0
  6
BYBLOCK
 62
     0
 48
3.0
100
AcDbBlockReference
  2
_OPEN
 10
753.183213
 20
-153.596988
 30
0.0
 41
50.0
 42
50.0
 43
50.0
  0
INSERT
  5
1B7B
100
AcDbEntity
  8
0
  6
BYBLOCK
 62
     0
 48
3.0
100
AcDbBlockReference
  2
_OPEN
 10
818.183213
 20
-153.596988
 30
0.0
 41
50.0
 42
50.0
 43
50.0
 50
180.0
  0
MTEXT
  5
1B7C
100
AcDbEntity
  8
0
  6
BYBLOCK
 62
     0
 48
3.0
100
AcDbMText
 10
785.683213
 20
-124.596988
 30
0.0
 40
50.0
 41
0.0
 71
     5
 72
     1
  1
\A1;65
  7
ED50
  0
POINT
  5
1B7D
100
AcDbEntity
  8
DEFPOINTS
  6
BYBLOCK
 62
     0
 48
3.0
100
AcDbPoint
 10
753.183213
 20
-234.836202
 30
0.0
  0
POINT
  5
1B7E
100
AcDbEntity
  8
DEFPOINTS
  6
BYBLOCK
 62
     0
 48
3.0
100
AcDbPoint
 10
818.183213
 20
-291.336202
 30
0.0
  0
POINT
  5
1B7F
100
AcDbEntity
  8
DEFPOINTS
  6
BYBLOCK
 62
     0
 48
3.0
100
AcDbPoint
 10
818.183213
 20
-153.596988
 30
0.0
  0
ENDBLK
  5
1B80
100
AcDbEntity
  8
0
 48
3.0
100
AcDbBlockEnd
  0
BLOCK
  5
1B07
100
AcDbEntity
  8
0
 48
3.0
100
AcDbBlockBegin
  2
*D7
 70
     1
 10
0.0
 20
0.0
 30
0.0
  3
*D7
  1

  0
LINE
  5
1B08
100
AcDbEntity
  8
0
  6
BYBLOCK
 62
     0
 48
3.0
100
AcDbLine
 10
1209.583413
 20
-923.836202
 30
0.0
 11
1209.583413
 21
-974.655768
 31
0.0
  0
LINE
  5
1B09
100
AcDbEntity
  8
0
  6
BYBLOCK
 62
     0
 48
3.0
100
AcDbLine
 10
1809.583413
 20
-923.836202
 30
0.0
 11
1809.583413
 21
-974.655768
 31
0.0
  0
LINE
  5
1B0A
100
AcDbEntity
  8
0
  6
BYBLOCK
 62
     0
 48
3.0
100
AcDbLine
 10
1259.583413
 20
-973.405768
 30
0.0
 11
1759.583413
 21
-973.405768
 31
0.0
  0
INSERT
  5
1B0B
100
AcDbEntity
  8
0
  6
BYBLOCK
 62
     0
 48
3.0
100
AcDbBlockReference
  2
_OPEN
 10
1209.583413
 20
-973.405768
 30
0.0
 41
50.0
 42
50.0
 43
50.0
 50
180.0
  0
INSERT
  5
1B0C
100
AcDbEntity
  8
0
  6
BYBLOCK
 62
     0
 48
3.0
100
AcDbBlockReference
  2
_OPEN
 10
1809.583413
 20
-973.405768
 30
0.0
 41
50.0
 42
50.0
 43
50.0
  0
MTEXT
  5
1B0D
100
AcDbEntity
  8
0
  6
BYBLOCK
 62
     0
 48
3.0
100
AcDbMText
 10
1509.583413
 20
-944.405768
 30
0.0
 40
50.0
 41
0.0
 71
     5
 72
     1
  1
\A1;600
  7
ED50
  0
POINT
  5
1B0E
100
AcDbEntity
  8
DEFPOINTS
  6
BYBLOCK
 62
     0
 48
3.0
100
AcDbPoint
 10
1209.583413
 20
-922.836202
 30
0.0
  0
POINT
  5
1B0F
100
AcDbEntity
  8
DEFPOINTS
  6
BYBLOCK
 62
     0
 48
3.0
100
AcDbPoint
 10
1809.583413
 20
-922.836202
 30
0.0
  0
POINT
  5
1B10
100
AcDbEntity
  8
DEFPOINTS
  6
BYBLOCK
 62
     0
 48
3.0
100
AcDbPoint
 10
1809.583413
 20
-973.405768
 30
0.0
  0
ENDBLK
  5
1B11
100
AcDbEntity
  8
0
 48
3.0
100
AcDbBlockEnd
  0
BLOCK
  5
1BCB
100
AcDbEntity
  8
0
 48
3.0
100
AcDbBlockBegin
  2
*D8
 70
     1
 10
0.0
 20
0.0
 30
0.0
  3
*D8
  1

  0
LINE
  5
1BCC
100
AcDbEntity
  8
0
  6
BYBLOCK
 62
     0
 48
3.0
100
AcDbLine
 10
819.183213
 20
-291.336202
 30
0.0
 11
898.369538
 21
-291.336202
 31
0.0
  0
LINE
  5
1BCD
100
AcDbEntity
  8
0
  6
BYBLOCK
 62
     0
 48
3.0
100
AcDbLine
 10
819.183213
 20
-791.336202
 30
0.0
 11
898.369538
 21
-791.336202
 31
0.0
  0
LINE
  5
1BCE
100
AcDbEntity
  8
0
  6
BYBLOCK
 62
     0
 48
3.0
100
AcDbLine
 10
897.119538
 20
-341.336202
 30
0.0
 11
897.119538
 21
-741.336202
 31
0.0
  0
INSERT
  5
1BCF
100
AcDbEntity
  8
0
  6
BYBLOCK
 62
     0
 48
3.0
100
AcDbBlockReference
  2
_OPEN
 10
897.119538
 20
-291.336202
 30
0.0
 41
50.0
 42
50.0
 43
50.0
 50
90.0
  0
INSERT
  5
1BD0
100
AcDbEntity
  8
0
  6
BYBLOCK
 62
     0
 48
3.0
100
AcDbBlockReference
  2
_OPEN
 10
897.119538
 20
-791.336202
 30
0.0
 41
50.0
 42
50.0
 43
50.0
 50
270.0
  0
MTEXT
  5
1BD1
100
AcDbEntity
  8
0
  6
BYBLOCK
 62
     0
 48
3.0
100
AcDbMText
 10
868.119538
 20
-537.499095
 30
0.0
 40
50.0
 41
0.0
 71
     5
 72
     1
  1
\A1;\U+2205500
  7
ED50
 11
0.0
 21
1.0
 31
0.0
  0
POINT
  5
1BD2
100
AcDbEntity
  8
DEFPOINTS
  6
BYBLOCK
 62
     0
 48
3.0
100
AcDbPoint
 10
818.183213
 20
-291.336202
 30
0.0
  0
POINT
  5
1BD3
100
AcDbEntity
  8
DEFPOINTS
  6
BYBLOCK
 62
     0
 48
3.0
100
AcDbPoint
 10
818.183213
 20
-791.336202
 30
0.0
  0
POINT
  5
1BD4
100
AcDbEntity
  8
DEFPOINTS
  6
BYBLOCK
 62
     0
 48
3.0
100
AcDbPoint
 10
897.119538
 20
-791.336202
 30
0.0
  0
ENDBLK
  5
1BD5
100
AcDbEntity
  8
0
 48
3.0
100
AcDbBlockEnd
  0
BLOCK
  5
1B12
100
AcDbEntity
  8
0
 48
3.0
100
AcDbBlockBegin
  2
*D9
 70
     1
 10
0.0
 20
0.0
 30
0.0
  3
*D9
  1

  0
LINE
  5
1B13
100
AcDbEntity
  8
0
  6
BYBLOCK
 62
     0
 48
3.0
100
AcDbLine
 10
1188.583413
 20
-897.836202
 30
0.0
 11
1103.60366
 21
-897.836202
 31
0.0
  0
LINE
  5
1B14
100
AcDbEntity
  8
0
  6
BYBLOCK
 62
     0
 48
3.0
100
AcDbLine
 10
1188.583413
 20
-922.836202
 30
0.0
 11
1103.60366
 21
-922.836202
 31
0.0
  0
LINE
  5
1B15
100
AcDbEntity
  8
0
  6
BYBLOCK
 62
     0
 48
3.0
100
AcDbLine
 10
1104.85366
 20
-847.836202
 30
0.0
 11
1104.85366
 21
-797.836202
 31
0.0
  0
LINE
  5
1B16
100
AcDbEntity
  8
0
  6
BYBLOCK
 62
     0
 48
3.0
100
AcDbLine
 10
1104.85366
 20
-972.836202
 30
0.0
 11
1104.85366
 21
-1089.176954
 31
0.0
  0
LINE
  5
1B17
100
AcDbEntity
  8
0
  6
BYBLOCK
 62
     0
 48
3.0
100
AcDbLine
 10
1104.85366
 20
-897.836202
 30
0.0
 11
1104.85366
 21
-922.836202
 31
0.0
  0
INSERT
  5
1B18
100
AcDbEntity
  8
0
  6
BYBLOCK
 62
     0
 48
3.0
100
AcDbBlockReference
  2
_OPEN
 10
1104.85366
 20
-897.836202
 30
0.0
 41
50.0
 42
50.0
 43
50.0
 50
270.0
  0
INSERT
  5
1B19
100
AcDbEntity
  8
0
  6
BYBLOCK
 62
     0
 48
3.0
100
AcDbBlockReference
  2
_OPEN
 10
1104.85366
 20
-922.836202
 30
0.0
 41
50.0
 42
50.0
 43
50.0
 50
90.0
  0
MTEXT
  5
1B1A
100
AcDbEntity
  8
0
  6
BYBLOCK
 62
     0
 48
3.0
100
AcDbMText
 10
1075.848739
 20
-1056.006578
 30
0.0
 40
50.0
 41
0.0
 71
     5
 72
     1
  1
\A1;25
  7
ED50
 11
0.0
 21
1.0
 31
0.0
  0
POINT
  5
1B1B
100
AcDbEntity
  8
DEFPOINTS
  6
BYBLOCK
 62
     0
 48
3.0
100
AcDbPoint
 10
1189.583413
 20
-897.836202
 30
0.0
  0
POINT
  5
1B1C
100
AcDbEntity
  8
DEFPOINTS
  6
BYBLOCK
 62
     0
 48
3.0
100
AcDbPoint
 10
1189.583413
 20
-922.836202
 30
0.0
  0
POINT
  5
1B1D
100
AcDbEntity
  8
DEFPOINTS
  6
BYBLOCK
 62
     0
 48
3.0
100
AcDbPoint
 10
1104.85366
 20
-922.836202
 30
0.0
  0
ENDBLK
  5
1B1E
100
AcDbEntity
  8
0
 48
3.0
100
AcDbBlockEnd
  0
BLOCK
  5
1AA0
100
AcDbEntity
  8
0
 48
3.0
100
AcDbBlockBegin
  2
*D10
 70
     1
 10
0.0
 20
0.0
 30
0.0
  3
*D10
  1

  0
LINE
  5
1AA1
100
AcDbEntity
  8
0
  6
BYBLOCK
 62
     0
 48
3.0
100
AcDbLine
 10
124.683213
 20
-945.221056
 30
0.0
 11
124.683213
 21
-979.018463
 31
0.0
  0
LINE
  5
1AA2
100
AcDbEntity
  8
0
  6
BYBLOCK
 62
     0
 48
3.0
100
AcDbLine
 10
773.183213
 20
-945.221056
 30
0.0
 11
773.183213
 21
-979.018463
 31
0.0
  0
LINE
  5
1AA3
100
AcDbEntity
  8
0
  6
BYBLOCK
 62
     0
 48
3.0
100
AcDbLine
 10
174.683213
 20
-977.768463
 30
0.0
 11
723.183213
 21
-977.768463
 31
0.0
  0
INSERT
  5
1AA4
100
AcDbEntity
  8
0
  6
BYBLOCK
 62
     0
 48
3.0
100
AcDbBlockReference
  2
_OPEN
 10
124.683213
 20
-977.768463
 30
0.0
 41
50.0
 42
50.0
 43
50.0
 50
180.0
  0
INSERT
  5
1AA5
100
AcDbEntity
  8
0
  6
BYBLOCK
 62
     0
 48
3.0
100
AcDbBlockReference
  2
_OPEN
 10
773.183213
 20
-977.768463
 30
0.0
 41
50.0
 42
50.0
 43
50.0
  0
MTEXT
  5
1AA6
100
AcDbEntity
  8
0
  6
BYBLOCK
 62
     0
 48
3.0
100
AcDbMText
 10
448.933213
 20
-948.768463
 30
0.0
 40
50.0
 41
0.0
 71
     5
 72
     1
  1
\A1;649
  7
ED50
  0
POINT
  5
1AA7
100
AcDbEntity
  8
DEFPOINTS
  6
BYBLOCK
 62
     0
 48
3.0
100
AcDbPoint
 10
124.683213
 20
-944.221056
 30
0.0
  0
POINT
  5
1AA8
100
AcDbEntity
  8
DEFPOINTS
  6
BYBLOCK
 62
     0
 48
3.0
100
AcDbPoint
 10
773.183213
 20
-944.221056
 30
0.0
  0
POINT
  5
1AA9
100
AcDbEntity
  8
DEFPOINTS
  6
BYBLOCK
 62
     0
 48
3.0
100
AcDbPoint
 10
773.183213
 20
-977.768463
 30
0.0
  0
ENDBLK
  5
1AAA
100
AcDbEntity
  8
0
 48
3.0
100
AcDbBlockEnd
  0
BLOCK
  5
1BBF
100
AcDbEntity
  8
0
 48
3.0
100
AcDbBlockBegin
  2
*D11
 70
     1
 10
0.0
 20
0.0
 30
0.0
  3
*D11
  1

  0
LINE
  5
1BC0
100
AcDbEntity
  8
0
  6
BYBLOCK
 62
     0
 48
3.0
100
AcDbLine
 10
57.352871
 20
-541.836202
 30
0.0
 11
10.649253
 21
-541.836202
 31
0.0
  0
LINE
  5
1BC1
100
AcDbEntity
  8
0
  6
BYBLOCK
 62
     0
 48
3.0
100
AcDbLine
 10
104.183213
 20
-922.836202
 30
0.0
 11
10.649253
 21
-922.836202
 31
0.0
  0
LINE
  5
1BC2
100
AcDbEntity
  8
0
  6
BYBLOCK
 62
     0
 48
3.0
100
AcDbLine
 10
11.899253
 20
-591.836202
 30
0.0
 11
11.899253
 21
-872.836202
 31
0.0
  0
INSERT
  5
1BC3
100
AcDbEntity
  8
0
  6
BYBLOCK
 62
     0
 48
3.0
100
AcDbBlockReference
  2
_OPEN
 10
11.899253
 20
-541.836202
 30
0.0
 41
50.0
 42
50.0
 43
50.0
 50
90.0
  0
INSERT
  5
1BC4
100
AcDbEntity
  8
0
  6
BYBLOCK
 62
     0
 48
3.0
100
AcDbBlockReference
  2
_OPEN
 10
11.899253
 20
-922.836202
 30
0.0
 41
50.0
 42
50.0
 43
50.0
 50
270.0
  0
MTEXT
  5
1BC5
100
AcDbEntity
  8
0
  6
BYBLOCK
 62
     0
 48
3.0
100
AcDbMText
 10
-17.100747
 20
-732.336202
 30
0.0
 40
50.0
 41
0.0
 71
     5
 72
     1
  1
\A1;381
  7
ED50
 11
0.0
 21
1.0
 31
0.0
  0
POINT
  5
1BC6
100
AcDbEntity
  8
DEFPOINTS
  6
BYBLOCK
 62
     0
 48
3.0
100
AcDbPoint
 10
58.352871
 20
-541.836202
 30
0.0
  0
POINT
  5
1BC7
100
AcDbEntity
  8
DEFPOINTS
  6
BYBLOCK
 62
     0
 48
3.0
100
AcDbPoint
 10
105.183213
 20
-922.836202
 30
0.0
  0
POINT
  5
1BC8
100
AcDbEntity
  8
DEFPOINTS
  6
BYBLOCK
 62
     0
 48
3.0
100
AcDbPoint
 10
11.899253
 20
-922.836202
 30
0.0
  0
ENDBLK
  5
1BC9
100
AcDbEntity
  8
0
 48
3.0
100
AcDbBlockEnd
  0
ENDSEC
  0
SECTION
  2
ENTITIES
  0
LINE
  5
10EE
100
AcDbEntity
  8
V0-VYPLNE
 48
3.0
100
AcDbLine
 10
58.352871
 20
-541.836202
 30
0.0
 11
824.435856
 21
-541.836202
 31
0.0
  0
LINE
  5
10EF
100
AcDbEntity
  8
V0-VYPLNE
 48
3.0
100
AcDbLine
 10
1223.247692
 20
-541.836202
 30
0.0
 11
1790.028267
 21
-541.836202
 31
0.0
  0
LINE
  5
10F7
100
AcDbEntity
  8
V0-OBRYS
  6
CONTINUOUS
 62
    90
 48
3.0
100
AcDbLine
 10
145.183213
 20
-235.836202
 30
0.0
 11
145.183213
 21
-897.836202
 31
0.0
  0
LINE
  5
10F8
100
AcDbEntity
  8
V0-OBRYS
  6
CONTINUOUS
 62
    90
 48
3.0
100
AcDbLine
 10
145.183213
 20
-235.836202
 30
0.0
 11
753.183213
 21
-235.836202
 31
0.0
  0
LINE
  5
10F9
100
AcDbEntity
  8
V0-OBRYS
  6
CONTINUOUS
 62
    90
 48
3.0
100
AcDbLine
 10
145.183213
 20
-897.836202
 30
0.0
 11
753.183213
 21
-897.836202
 31
0.0
  0
LINE
  5
10FA
100
AcDbEntity
  8
V0-OBRYS
  6
CONTINUOUS
 62
    90
 48
3.0
100
AcDbLine
 10
753.183213
 20
-235.836202
 30
0.0
 11
753.183213
 21
-897.836202
 31
0.0
  0
LINE
  5
10FB
100
AcDbEntity
  8
V0-OBRYS
  6
CONTINUOUS
 62
    90
 48
3.0
100
AcDbLine
 10
1167.083413
 20
-235.836202
 30
0.0
 11
1167.083413
 21
-897.836202
 31
0.0
  0
LINE
  5
10FC
100
AcDbEntity
  8
V0-OBRYS
  6
CONTINUOUS
 62
    90
 48
3.0
100
AcDbLine
 10
1852.083413
 20
-235.836202
 30
0.0
 11
1852.083413
 21
-897.836202
 31
0.0
  0
LINE
  5
10FD
100
AcDbEntity
  8
V0-OBRYS
  6
CONTINUOUS
 62
    90
 48
3.0
100
AcDbLine
 10
1167.083413
 20
-235.836202
 30
0.0
 11
1852.083413
 21
-235.836202
 31
0.0
  0
LINE
  5
1100
100
AcDbEntity
  8
V0-OBRYS
  6
CONTINUOUS
 62
    90
 48
3.0
100
AcDbLine
 10
1167.083413
 20
-897.836202
 30
0.0
 11
1852.083413
 21
-897.836202
 31
0.0
  0
LINE
  5
1105
100
AcDbEntity
  8
V0-OBRYS
  6
CONTINUOUS
 62
    90
 48
3.0
100
AcDbLine
 10
1187.083413
 20
-255.836202
 30
0.0
 11
1187.083413
 21
-877.836202
 31
0.0
  0
LINE
  5
1106
100
AcDbEntity
  8
V0-OBRYS
  6
CONTINUOUS
 62
    90
 48
3.0
100
AcDbLine
 10
1187.083413
 20
-255.836202
 30
0.0
 11
1832.083413
 21
-255.836202
 31
0.0
  0
LINE
  5
1107
100
AcDbEntity
  8
V0-OBRYS
  6
CONTINUOUS
 62
    90
 48
3.0
100
AcDbLine
 10
1832.083413
 20
-255.836202
 30
0.0
 11
1832.083413
 21
-877.836202
 31
0.0
  0
LINE
  5
1108
100
AcDbEntity
  8
V0-OBRYS
  6
CONTINUOUS
 62
    90
 48
3.0
100
AcDbLine
 10
1187.083413
 20
-877.836202
 30
0.0
 11
1832.083413
 21
-877.836202
 31
0.0
  0
LINE
  5
1122
100
AcDbEntity
  8
V0-OBRYS
 48
3.0
100
AcDbLine
 10
80.183213
 20
-791.336202
 30
0.0
 11
80.183213
 21
-292.336202
 31
0.0
  0
LINE
  5
1123
100
AcDbEntity
  8
V0-OBRYS
 48
3.0
100
AcDbLine
 10
80.183213
 20
-791.336202
 30
0.0
 11
90.183213
 21
-791.336202
 31
0.0
  0
LINE
  5
1124
100
AcDbEntity
  8
V0-OBRYS
 48
3.0
100
AcDbLine
 10
80.183213
 20
-292.336202
 30
0.0
 11
90.183213
 21
-292.336202
 31
0.0
  0
LINE
  5
1125
100
AcDbEntity
  8
V0-OBRYS
 48
3.0
100
AcDbLine
 10
90.183213
 20
-292.336202
 30
0.0
 11
90.183213
 21
-791.336202
 31
0.0
  0
LINE
  5
1126
100
AcDbEntity
  8
V0-OBRYS
 48
3.0
100
AcDbLine
 10
100.183213
 20
-791.336202
 30
0.0
 11
100.183213
 21
-292.336202
 31
0.0
  0
ARC
  5
1127
100
AcDbEntity
  8
V0-OBRYS
 48
3.0
100
AcDbCircle
 10
95.183213
 20
-292.336202
 30
0.0
 40
5.0
100
AcDbArc
 50
0.0
 51
180.0
  0
ARC
  5
1128
100
AcDbEntity
  8
V0-OBRYS
 48
3.0
100
AcDbCircle
 10
95.183213
 20
-791.336202
 30
0.0
 40
5.0
100
AcDbArc
 50
180.0
 51
0.0
  0
LINE
  5
1129
100
AcDbEntity
  8
V0-OBRYS
 48
3.0
100
AcDbLine
 10
100.183213
 20
-292.336202
 30
0.0
 11
145.183213
 21
-292.336202
 31
0.0
  0
LINE
  5
112A
100
AcDbEntity
  8
V0-OBRYS
 48
3.0
100
AcDbLine
 10
100.183213
 20
-791.336202
 30
0.0
 11
145.183213
 21
-791.336202
 31
0.0
  0
LINE
  5
112B
100
AcDbEntity
  8
V0-OBRYS
 48
3.0
100
AcDbLine
 10
798.183213
 20
-791.336202
 30
0.0
 11
798.183213
 21
-291.336202
 31
0.0
  0
LINE
  5
112C
100
AcDbEntity
  8
V0-OBRYS
 48
3.0
100
AcDbLine
 10
808.183213
 20
-291.336202
 30
0.0
 11
808.183213
 21
-791.336202
 31
0.0
  0
LINE
  5
112D
100
AcDbEntity
  8
V0-OBRYS
 48
3.0
100
AcDbLine
 10
818.183213
 20
-791.336202
 30
0.0
 11
818.183213
 21
-291.336202
 31
0.0
  0
LINE
  5
112E
100
AcDbEntity
  8
V0-OBRYS
 48
3.0
100
AcDbLine
 10
798.183213
 20
-791.336202
 30
0.0
 11
753.183213
 21
-791.336202
 31
0.0
  0
LINE
  5
112F
100
AcDbEntity
  8
V0-OBRYS
 48
3.0
100
AcDbLine
 10
818.183213
 20
-791.336202
 30
0.0
 11
808.183213
 21
-791.336202
 31
0.0
  0
ARC
  5
1130
100
AcDbEntity
  8
V0-OBRYS
 48
3.0
100
AcDbCircle
 10
803.183213
 20
-791.336202
 30
0.0
 40
5.0
100
AcDbArc
 50
180.0
 51
360.0
  0
LINE
  5
1131
100
AcDbEntity
  8
V0-OBRYS
 48
3.0
100
AcDbLine
 10
798.183213
 20
-291.336202
 30
0.0
 11
753.183213
 21
-291.336202
 31
0.0
  0
LINE
  5
1132
100
AcDbEntity
  8
V0-OBRYS
 48
3.0
100
AcDbLine
 10
818.183213
 20
-291.336202
 30
0.0
 11
808.183213
 21
-291.336202
 31
0.0
  0
ARC
  5
1133
100
AcDbEntity
  8
V0-OBRYS
 48
3.0
100
AcDbCircle
 10
803.183213
 20
-291.336202
 30
0.0
 40
5.0
100
AcDbArc
 50
360.0
 51
180.0
  0
LINE
  5
1148
100
AcDbEntity
  8
V0-OBRYS
  6
CONTINUOUS
 62
    90
 48
3.0
100
AcDbLine
 10
753.183213
 20
-1105.364592
 30
0.0
 11
753.183213
 21
-1792.864592
 31
0.0
  0
LINE
  5
1149
100
AcDbEntity
  8
V0-OBRYS
  6
CONTINUOUS
 62
    90
 48
3.0
100
AcDbLine
 10
145.183213
 20
-1105.364592
 30
0.0
 11
145.183213
 21
-1792.864592
 31
0.0
  0
LINE
  5
114A
100
AcDbEntity
  8
V0-OBRYS
  6
CONTINUOUS
 62
    90
 48
3.0
100
AcDbLine
 10
145.183213
 20
-1790.364592
 30
0.0
 11
753.183213
 21
-1790.364592
 31
0.0
  0
LINE
  5
114B
100
AcDbEntity
  8
V0-VYPLNE
 48
3.0
100
AcDbLine
 10
58.352871
 20
-1447.864592
 30
0.0
 11
824.435856
 21
-1447.864592
 31
0.0
  0
LINE
  5
114C
100
AcDbEntity
  8
V0-OBRYS
  6
CONTINUOUS
 62
    90
 48
3.0
100
AcDbLine
 10
145.183213
 20
-1105.364592
 30
0.0
 11
753.183213
 21
-1105.364592
 31
0.0
  0
LINE
  5
114D
100
AcDbEntity
  8
V0-OBRYS
 48
3.0
100
AcDbLine
 10
100.183213
 20
-1697.864592
 30
0.0
 11
100.183213
 21
-1197.864592
 31
0.0
  0
LINE
  5
114E
100
AcDbEntity
  8
V0-OBRYS
 48
3.0
100
AcDbLine
 10
90.183213
 20
-1197.864592
 30
0.0
 11
90.183213
 21
-1697.864592
 31
0.0
  0
LINE
  5
114F
100
AcDbEntity
  8
V0-OBRYS
 48
3.0
100
AcDbLine
 10
80.183213
 20
-1697.864592
 30
0.0
 11
80.183213
 21
-1197.864592
 31
0.0
  0
LINE
  5
1150
100
AcDbEntity
  8
V0-OBRYS
 48
3.0
100
AcDbLine
 10
100.183213
 20
-1697.864592
 30
0.0
 11
145.183213
 21
-1697.864592
 31
0.0
  0
LINE
  5
1151
100
AcDbEntity
  8
V0-OBRYS
 48
3.0
100
AcDbLine
 10
80.183213
 20
-1697.864592
 30
0.0
 11
90.183213
 21
-1697.864592
 31
0.0
  0
ARC
  5
1152
100
AcDbEntity
  8
V0-OBRYS
 48
3.0
100
AcDbCircle
 10
95.183213
 20
-1697.864592
 30
0.0
 40
5.0
100
AcDbArc
 50
180.0
 51
0.0
  0
LINE
  5
1153
100
AcDbEntity
  8
V0-OBRYS
 48
3.0
100
AcDbLine
 10
100.183213
 20
-1197.864592
 30
0.0
 11
145.183213
 21
-1197.864592
 31
0.0
  0
LINE
  5
1154
100
AcDbEntity
  8
V0-OBRYS
 48
3.0
100
AcDbLine
 10
80.183213
 20
-1197.864592
 30
0.0
 11
90.183213
 21
-1197.864592
 31
0.0
  0
ARC
  5
1155
100
AcDbEntity
  8
V0-OBRYS
 48
3.0
100
AcDbCircle
 10
95.183213
 20
-1197.864592
 30
0.0
 40
5.0
100
AcDbArc
 50
0.0
 51
180.0
  0
LINE
  5
1156
100
AcDbEntity
  8
V0-OBRYS
 48
3.0
100
AcDbLine
 10
818.183213
 20
-1697.864592
 30
0.0
 11
818.183213
 21
-1197.864592
 31
0.0
  0
LINE
  5
1157
100
AcDbEntity
  8
V0-OBRYS
 48
3.0
100
AcDbLine
 10
808.183213
 20
-1197.864592
 30
0.0
 11
808.183213
 21
-1697.864592
 31
0.0
  0
LINE
  5
1158
100
AcDbEntity
  8
V0-OBRYS
 48
3.0
100
AcDbLine
 10
798.183213
 20
-1697.864592
 30
0.0
 11
798.183213
 21
-1197.864592
 31
0.0
  0
LINE
  5
1159
100
AcDbEntity
  8
V0-OBRYS
 48
3.0
100
AcDbLine
 10
798.183213
 20
-1697.864592
 30
0.0
 11
753.183213
 21
-1697.864592
 31
0.0
  0
ARC
  5
115A
100
AcDbEntity
  8
V0-OBRYS
 48
3.0
100
AcDbCircle
 10
803.183213
 20
-1697.864592
 30
0.0
 40
5.0
100
AcDbArc
 50
180.0
 51
360.0
  0
LINE
  5
115B
100
AcDbEntity
  8
V0-OBRYS
 48
3.0
100
AcDbLine
 10
818.183213
 20
-1697.864592
 30
0.0
 11
808.183213
 21
-1697.864592
 31
0.0
  0
LINE
  5
115C
100
AcDbEntity
  8
V0-OBRYS
 48
3.0
100
AcDbLine
 10
798.183213
 20
-1197.864592
 30
0.0
 11
753.183213
 21
-1197.864592
 31
0.0
  0
ARC
  5
115D
100
AcDbEntity
  8
V0-OBRYS
 48
3.0
100
AcDbCircle
 10
803.183213
 20
-1197.864592
 30
0.0
 40
5.0
100
AcDbArc
 50
360.0
 51
180.0
  0
LINE
  5
115E
100
AcDbEntity
  8
V0-OBRYS
 48
3.0
100
AcDbLine
 10
818.183213
 20
-1197.864592
 30
0.0
 11
808.183213
 21
-1197.864592
 31
0.0
  0
DIMENSION
  5
1160
100
AcDbEntity
  8
V0-VYPLNE
  6
CONTINUOUS
 62
    41
 48
3.0
100
AcDbDimension
  2
*D1
 10
818.183213
 20
-1051.074399
 30
0.0
 11
461.648268
 21
-1051.074399
 31
0.0
 70
   160
  3
ED50
100
AcDbAlignedDimension
 13
80.183213
 23
-791.336202
 33
0.0
 14
818.183213
 24
-791.336202
 34
0.0
100
AcDbRotatedDimension
1001
ACAD
1000
DSTYLE
1002
{
1070
   340
1005
1A9E
1070
    41
1040
50.0
1002
}
  0
DIMENSION
  5
1162
100
AcDbEntity
  8
V0-VYPLNE
  6
CONTINUOUS
 62
    41
 48
3.0
100
AcDbDimension
  2
*D2
 10
989.924893
 20
-897.836202
 30
0.0
 11
989.924893
 21
-541.06559
 31
0.0
 70
   160
  3
ED50
100
AcDbAlignedDimension
 13
753.183213
 23
-235.836202
 33
0.0
 14
753.183213
 24
-897.836202
 34
0.0
 50
90.0
100
AcDbRotatedDimension
1001
ACAD
1000
DSTYLE
1002
{
1070
   340
1005
1A9E
1070
    41
1040
50.0
1002
}
  0
DIMENSION
  5
1165
100
AcDbEntity
  8
V0-VYPLNE
  6
CONTINUOUS
 62
    41
 48
3.0
100
AcDbDimension
  2
*D3
 10
1852.083413
 20
-1058.20739
 30
0.0
 11
1511.062638
 21
-1058.20739
 31
0.0
 70
   160
  3
ED50
100
AcDbAlignedDimension
 13
1167.083413
 23
-897.836202
 33
0.0
 14
1852.083413
 24
-897.836202
 34
0.0
100
AcDbRotatedDimension
1001
ACAD
1000
DSTYLE
1002
{
1070
   340
1005
1A9E
1070
    41
1040
50.0
1002
}
  0
MTEXT
  5
1166
100
AcDbEntity
  8
V0-ZBYTEK
100
AcDbMText
 10
1526.322234
 20
-1530.533606
 30
0.0
 40
40.5
 41
636.23682
 71
     5
 72
     5
  1
ZVUKOVE  IZOLOVANY
  7
ED10
  0
MTEXT
  5
1167
100
AcDbEntity
  8
V0-ZBYTEK
 62
    51
100
AcDbMText
 10
1532.77758
 20
-1407.800866
 30
0.0
 40
56.7
 41
1606.19922
 71
     5
 72
     5
  1
RADIALNI VENTILATOR
  7
ED10
  0
MTEXT
  5
1168
100
AcDbEntity
  8
V0-NAZVY
100
AcDbMText
 10
1506.792135
 20
-1259.386527
 30
0.0
 40
101.25
 41
832.844
 71
     5
 72
     5
  1
CVB-320
  7
ED10
  0
MTEXT
  5
116B
100
AcDbEntity
  8
V0-NAZVY
100
AcDbMText
 10
1523.625261
 20
-186.420294
 30
0.0
 40
60.75
 41
499.7065
 71
     5
 72
     5
  1
CVB-320
  7
ED10
  0
LINE
  5
1229
100
AcDbEntity
  8
V0-OBRYS
  6
CONTINUOUS
 62
    90
 48
3.0
100
AcDbLine
 10
105.183213
 20
-922.836202
 30
0.0
 11
145.183213
 21
-922.836202
 31
0.0
  0
LINE
  5
122A
100
AcDbEntity
  8
V0-OBRYS
  6
CONTINUOUS
 62
    90
 48
3.0
100
AcDbLine
 10
145.183213
 20
-922.836202
 30
0.0
 11
145.183213
 21
-897.836202
 31
0.0
  0
LINE
  5
122B
100
AcDbEntity
  8
V0-OBRYS
  6
CONTINUOUS
 62
    90
 48
3.0
100
AcDbLine
 10
793.183213
 20
-922.836202
 30
0.0
 11
753.183213
 21
-922.836202
 31
0.0
  0
LINE
  5
122C
100
AcDbEntity
  8
V0-OBRYS
  6
CONTINUOUS
 62
    90
 48
3.0
100
AcDbLine
 10
753.183213
 20
-922.836202
 30
0.0
 11
753.183213
 21
-897.836202
 31
0.0
  0
LINE
  5
12E6
100
AcDbEntity
  8
V0-VYPLNE
  6
DASHDOT
 62
    63
 48
3.0
100
AcDbLine
 10
1509.583413
 20
-298.441449
 30
0.0
 11
1509.583413
 21
-887.103917
 31
0.0
  0
LINE
  5
12E7
100
AcDbEntity
  8
V0-VYPLNE
  6
DASHDOT
 62
    63
 48
3.0
100
AcDbLine
 10
449.183213
 20
-235.836202
 30
0.0
 11
449.183213
 21
-913.631149
 31
0.0
  0
CIRCLE
  5
12E9
100
AcDbEntity
  8
V0-VYPLNE
  6
DASHED
 62
    52
 48
3.0
100
AcDbCircle
 10
315.214953
 20
-680.52854
 30
0.0
 40
130.012538
  0
LINE
  5
12EA
100
AcDbEntity
  8
V0-VYPLNE
  6
DASHED
 62
    52
 48
3.0
100
AcDbLine
 10
393.898865
 20
-299.828131
 30
0.0
 11
144.758974
 21
-299.828131
 31
0.0
  0
LINE
  5
12EB
100
AcDbEntity
  8
V0-VYPLNE
  6
DASHDOT
 62
    63
 48
3.0
100
AcDbLine
 10
154.964448
 20
-787.569342
 30
0.0
 11
144.758974
 21
-787.569342
 31
0.0
  0
LINE
  5
12EC
100
AcDbEntity
  8
V0-VYPLNE
  6
DASHDOT
 62
    63
 48
3.0
100
AcDbLine
 10
128.539927
 20
-680.52854
 30
0.0
 11
432.577881
 21
-680.52854
 31
0.0
  0
LINE
  5
12ED
100
AcDbEntity
  8
V0-VYPLNE
  6
DASHDOT
 62
    63
 48
3.0
100
AcDbLine
 10
315.214953
 20
-419.93585
 30
0.0
 11
315.214953
 21
-805.59769
 31
0.0
  0
CIRCLE
  5
12F1
100
AcDbEntity
  8
V0-OBRYS
  6
CONTINUOUS
 62
    90
 48
3.0
100
AcDbCircle
 10
170.183213
 20
-872.836202
 30
0.0
 40
8.0
  0
CIRCLE
  5
12F2
100
AcDbEntity
  8
V0-OBRYS
  6
CONTINUOUS
 62
    90
 48
3.0
100
AcDbCircle
 10
728.183213
 20
-872.836202
 30
0.0
 40
8.0
  0
CIRCLE
  5
12F5
100
AcDbEntity
  8
V0-OBRYS
  6
CONTINUOUS
 62
    90
 48
3.0
100
AcDbCircle
 10
170.183213
 20
-260.836202
 30
0.0
 40
8.0
  0
CIRCLE
  5
12F6
100
AcDbEntity
  8
V0-OBRYS
  6
CONTINUOUS
 62
    90
 48
3.0
100
AcDbCircle
 10
728.183213
 20
-260.836202
 30
0.0
 40
8.0
  0
CIRCLE
  5
12F7
100
AcDbEntity
  8
V0-OBRYS
  6
CONTINUOUS
 62
    90
 48
3.0
100
AcDbCircle
 10
1509.583413
 20
-541.836202
 30
0.0
 40
250.053125
  0
CIRCLE
  5
12F8
100
AcDbEntity
  8
V0-OBRYS
  6
CONTINUOUS
 62
    90
 48
3.0
100
AcDbCircle
 10
1509.583413
 20
-541.836202
 30
0.0
 40
271.290781
  0
LINE
  5
12F9
100
AcDbEntity
  8
V0-OBRYS
  6
CONTINUOUS
 62
    90
 48
3.0
100
AcDbLine
 10
1407.956515
 20
-306.58618
 30
0.0
 11
1407.956515
 21
-774.823016
 31
0.0
  0
LINE
  5
12FA
100
AcDbEntity
  8
V0-OBRYS
  6
CONTINUOUS
 62
    90
 48
3.0
100
AcDbLine
 10
1611.210311
 20
-306.58618
 30
0.0
 11
1611.210311
 21
-774.823016
 31
0.0
  0
LINE
  5
12FB
100
AcDbEntity
  8
V0-OBRYS
  6
CONTINUOUS
 62
    90
 48
3.0
100
AcDbLine
 10
1407.956515
 20
-314.233978
 30
0.0
 11
1610.422181
 21
-314.233978
 31
0.0
  0
LINE
  5
12FC
100
AcDbEntity
  8
V0-OBRYS
  6
CONTINUOUS
 62
    90
 48
3.0
100
AcDbLine
 10
1407.956515
 20
-632.470806
 30
0.0
 11
1610.422181
 21
-632.470806
 31
0.0
  0
LINE
  5
12FD
100
AcDbEntity
  8
V0-OBRYS
  6
CONTINUOUS
 62
    90
 48
3.0
100
AcDbLine
 10
1407.956515
 20
-769.724484
 30
0.0
 11
1610.422181
 21
-769.724484
 31
0.0
  0
LINE
  5
12FE
100
AcDbEntity
  8
V0-VYPLNE
  6
CONTINUOUS
 62
    41
 48
3.0
100
AcDbLine
 10
1407.956515
 20
-339.726634
 30
0.0
 11
1610.422181
 21
-339.726634
 31
0.0
  0
LINE
  5
1303
100
AcDbEntity
  8
V0-VYPLNE
  6
CONTINUOUS
 62
    41
 48
3.0
100
AcDbLine
 10
1407.956515
 20
-414.726634
 30
0.0
 11
1610.422181
 21
-414.726634
 31
0.0
  0
LINE
  5
1304
100
AcDbEntity
  8
V0-VYPLNE
  6
CONTINUOUS
 62
    41
 48
3.0
100
AcDbLine
 10
1407.956515
 20
-439.726634
 30
0.0
 11
1610.422181
 21
-439.726634
 31
0.0
  0
LINE
  5
1306
100
AcDbEntity
  8
V0-VYPLNE
  6
CONTINUOUS
 62
    41
 48
3.0
100
AcDbLine
 10
1407.956515
 20
-540.106063
 30
0.0
 11
1610.422181
 21
-540.106063
 31
0.0
  0
LINE
  5
1323
100
AcDbEntity
  8
V0-OBRYS
  6
CONTINUOUS
 62
    90
 48
3.0
100
AcDbLine
 10
1189.583413
 20
-922.836202
 30
0.0
 11
1229.583413
 21
-922.836202
 31
0.0
  0
LINE
  5
1324
100
AcDbEntity
  8
V0-OBRYS
  6
CONTINUOUS
 62
    90
 48
3.0
100
AcDbLine
 10
1189.583413
 20
-922.836202
 30
0.0
 11
1189.583413
 21
-897.836202
 31
0.0
  0
LINE
  5
1325
100
AcDbEntity
  8
V0-OBRYS
  6
CONTINUOUS
 62
    90
 48
3.0
100
AcDbLine
 10
1229.583413
 20
-922.836202
 30
0.0
 11
1229.583413
 21
-897.836202
 31
0.0
  0
LINE
  5
1326
100
AcDbEntity
  8
V0-VYPLNE
  6
DASHDOT
 62
    63
 48
3.0
100
AcDbLine
 10
1209.583413
 20
-922.836202
 30
0.0
 11
1209.583413
 21
-860.096574
 31
0.0
  0
LINE
  5
1327
100
AcDbEntity
  8
V0-VYPLNE
  6
DASHDOT
 62
    63
 48
3.0
100
AcDbLine
 10
1209.583413
 20
-860.096574
 30
0.0
 11
1209.583413
 21
-951.870132
 31
0.0
  0
LINE
  5
1328
100
AcDbEntity
  8
V0-VYPLNE
  6
DASHDOT
 62
    63
 48
3.0
100
AcDbLine
 10
1809.583413
 20
-922.836202
 30
0.0
 11
1809.583413
 21
-860.096574
 31
0.0
  0
LINE
  5
1329
100
AcDbEntity
  8
V0-OBRYS
  6
CONTINUOUS
 62
    90
 48
3.0
100
AcDbLine
 10
1829.583413
 20
-922.836202
 30
0.0
 11
1789.583413
 21
-922.836202
 31
0.0
  0
LINE
  5
132A
100
AcDbEntity
  8
V0-OBRYS
  6
CONTINUOUS
 62
    90
 48
3.0
100
AcDbLine
 10
1829.583413
 20
-922.836202
 30
0.0
 11
1829.583413
 21
-897.836202
 31
0.0
  0
LINE
  5
132B
100
AcDbEntity
  8
V0-OBRYS
  6
CONTINUOUS
 62
    90
 48
3.0
100
AcDbLine
 10
1789.583413
 20
-922.836202
 30
0.0
 11
1789.583413
 21
-897.836202
 31
0.0
  0
LINE
  5
132C
100
AcDbEntity
  8
V0-VYPLNE
  6
DASHDOT
 62
    63
 48
3.0
100
AcDbLine
 10
124.683213
 20
-944.221056
 30
0.0
 11
124.683213
 21
-893.233051
 31
0.0
  0
LINE
  5
132E
100
AcDbEntity
  8
V0-VYPLNE
  6
DASHDOT
 62
    63
 48
3.0
100
AcDbLine
 10
773.183213
 20
-944.221056
 30
0.0
 11
773.183213
 21
-893.233051
 31
0.0
  0
LINE
  5
1373
100
AcDbEntity
  8
V0-VYPLNE
  6
DASHDOT
 62
    63
 48
3.0
100
AcDbLine
 10
170.183213
 20
-235.836202
 30
0.0
 11
170.183213
 21
-298.372398
 31
0.0
  0
LINE
  5
1374
100
AcDbEntity
  8
V0-VYPLNE
  6
DASHDOT
 62
    63
 48
3.0
100
AcDbLine
 10
728.183213
 20
-235.836202
 30
0.0
 11
728.183213
 21
-297.372398
 31
0.0
  0
LINE
  5
1375
100
AcDbEntity
  8
V0-VYPLNE
  6
DASHDOT
 62
    63
 48
3.0
100
AcDbLine
 10
145.183213
 20
-260.836202
 30
0.0
 11
195.766231
 21
-260.836202
 31
0.0
  0
LINE
  5
1376
100
AcDbEntity
  8
V0-VYPLNE
  6
DASHDOT
 62
    63
 48
3.0
100
AcDbLine
 10
145.183213
 20
-872.836202
 30
0.0
 11
200.869235
 21
-872.836202
 31
0.0
  0
LINE
  5
1377
100
AcDbEntity
  8
V0-VYPLNE
  6
DASHDOT
 62
    63
 48
3.0
100
AcDbLine
 10
712.152594
 20
-260.836202
 30
0.0
 11
753.183213
 21
-260.836202
 31
0.0
  0
LINE
  5
1379
100
AcDbEntity
  8
V0-VYPLNE
  6
DASHDOT
 62
    63
 48
3.0
100
AcDbLine
 10
709.601092
 20
-872.836202
 30
0.0
 11
753.183213
 21
-872.836202
 31
0.0
  0
LINE
  5
137A
100
AcDbEntity
  8
V0-VYPLNE
  6
DASHDOT
 62
    63
 48
3.0
100
AcDbLine
 10
170.183213
 20
-904.942643
 30
0.0
 11
170.183213
 21
-897.836202
 31
0.0
  0
LINE
  5
137B
100
AcDbEntity
  8
V0-VYPLNE
  6
DASHDOT
 62
    63
 48
3.0
100
AcDbLine
 10
728.183213
 20
-902.393244
 30
0.0
 11
728.183213
 21
-897.836202
 31
0.0
  0
DIMENSION
  5
13A2
100
AcDbEntity
  8
V0-VYPLNE
  6
CONTINUOUS
 62
    41
 48
3.0
100
AcDbDimension
  2
*D4
 10
145.183213
 20
-154.846988
 30
0.0
 11
112.683213
 21
-154.846988
 31
0.0
 70
   160
  3
ED50
100
AcDbAlignedDimension
 13
80.183213
 23
-292.336202
 33
0.0
 14
145.183213
 24
-235.836202
 34
0.0
100
AcDbRotatedDimension
1001
ACAD
1000
DSTYLE
1002
{
1070
   340
1005
1A9E
1070
    41
1040
50.0
1002
}
  0
DIMENSION
  5
13BC
100
AcDbEntity
  8
V0-VYPLNE
  6
CONTINUOUS
 62
    41
 48
3.0
100
AcDbDimension
  2
*D5
 10
753.183213
 20
-154.846988
 30
0.0
 11
465.217704
 21
-154.846988
 31
0.0
 70
   160
  3
ED50
100
AcDbAlignedDimension
 13
145.183213
 23
-234.836202
 33
0.0
 14
753.183213
 24
-235.836202
 34
0.0
100
AcDbRotatedDimension
1001
ACAD
1000
DSTYLE
1002
{
1070
   340
1005
1A9E
1070
    41
1040
50.0
1002
}
  0
DIMENSION
  5
13D6
100
AcDbEntity
  8
V0-VYPLNE
  6
CONTINUOUS
 62
    41
 48
3.0
100
AcDbDimension
  2
*D6
 10
818.183213
 20
-153.596988
 30
0.0
 11
785.683213
 21
-153.596988
 31
0.0
 70
   160
  3
ED50
100
AcDbAlignedDimension
 13
753.183213
 23
-234.836202
 33
0.0
 14
818.183213
 24
-291.336202
 34
0.0
100
AcDbRotatedDimension
1001
ACAD
1000
DSTYLE
1002
{
1070
   340
1005
1A9E
1070
    41
1040
50.0
1002
}
  0
DIMENSION
  5
13E3
100
AcDbEntity
  8
V0-VYPLNE
  6
CONTINUOUS
 62
    41
 48
3.0
100
AcDbDimension
  2
*D7
 10
1809.583413
 20
-973.405768
 30
0.0
 11
1509.583413
 21
-973.405768
 31
0.0
 70
   160
  3
ED50
100
AcDbAlignedDimension
 13
1209.583413
 23
-922.836202
 33
0.0
 14
1809.583413
 24
-922.836202
 34
0.0
100
AcDbRotatedDimension
1001
ACAD
1000
DSTYLE
1002
{
1070
   340
1005
1A9E
1070
    41
1040
50.0
1002
}
  0
DIMENSION
  5
13FB
100
AcDbEntity
  8
V0-VYPLNE
  6
CONTINUOUS
 62
    41
 48
3.0
100
AcDbDimension
  2
*D8
 10
897.119538
 20
-791.336202
 30
0.0
 11
897.119538
 21
-537.499095
 31
0.0
 70
   160
  1
%%c<>
  3
ED50
100
AcDbAlignedDimension
 13
818.183213
 23
-291.336202
 33
0.0
 14
818.183213
 24
-791.336202
 34
0.0
 50
90.0
100
AcDbRotatedDimension
1001
ACAD
1000
DSTYLE
1002
{
1070
   340
1005
1A9E
1070
    41
1040
50.0
1002
}
  0
DIMENSION
  5
1426
100
AcDbEntity
  8
V0-VYPLNE
  6
CONTINUOUS
 62
    41
 48
3.0
100
AcDbDimension
  2
*D9
 10
1104.85366
 20
-922.836202
 30
0.0
 11
1104.85366
 21
-1056.006578
 31
0.0
 70
   160
  3
ED50
100
AcDbAlignedDimension
 13
1189.583413
 23
-897.836202
 33
0.0
 14
1189.583413
 24
-922.836202
 34
0.0
 50
90.0
100
AcDbRotatedDimension
1001
ACAD
1000
DSTYLE
1002
{
1070
   340
1005
1A9E
1070
    41
1040
50.0
1002
}
  0
MTEXT
  5
1427
100
AcDbEntity
  8
V0-NAZVY
100
AcDbMText
 10
312.301059
 20
-427.88335
 30
0.0
 40
52.65
 41
433.0789
 71
     5
 72
     5
  1
CVB-320
  7
ED10
  0
MTEXT
  5
1428
100
AcDbEntity
  8
V0-NAZVY
100
AcDbMText
 10
445.714409
 20
-1236.157805
 30
0.0
 40
60.75
 41
499.7065
 71
     5
 72
     5
  1
CVB-320
  7
ED10
  0
LINE
  5
1561
100
AcDbEntity
  8
V0-VYPLNE
  6
CONTINUOUS
 62
    41
 48
3.0
100
AcDbLine
 10
1407.956515
 20
-465.219291
 30
0.0
 11
1610.422181
 21
-465.219291
 31
0.0
  0
LINE
  5
1562
100
AcDbEntity
  8
V0-VYPLNE
  6
CONTINUOUS
 62
    41
 48
3.0
100
AcDbLine
 10
1407.956515
 20
-464.219291
 30
0.0
 11
1610.422181
 21
-464.219291
 31
0.0
  0
LINE
  5
1563
100
AcDbEntity
  8
V0-VYPLNE
  6
CONTINUOUS
 62
    41
 48
3.0
100
AcDbLine
 10
1407.956515
 20
-513.09872
 30
0.0
 11
1610.422181
 21
-513.09872
 31
0.0
  0
LINE
  5
1564
100
AcDbEntity
  8
V0-VYPLNE
  6
CONTINUOUS
 62
    41
 48
3.0
100
AcDbLine
 10
1407.956515
 20
-489.219291
 30
0.0
 11
1610.422181
 21
-489.219291
 31
0.0
  0
DIMENSION
  5
1941
100
AcDbEntity
  8
V0-VYPLNE
  6
CONTINUOUS
 62
    41
 48
3.0
100
AcDbDimension
  2
*D10
 10
773.183213
 20
-977.768463
 30
0.0
 11
448.933213
 21
-948.768463
 31
0.0
 70
    32
  3
ED50
100
AcDbAlignedDimension
 13
124.683213
 23
-944.221056
 33
0.0
 14
773.183213
 24
-944.221056
 34
0.0
100
AcDbRotatedDimension
1001
ACAD
1000
DSTYLE
1002
{
1070
   340
1005
1A9E
1070
    41
1040
50.0
1002
}
  0
ARC
  5
1A55
100
AcDbEntity
  8
V0-VYPLNE
  6
DASHED
 62
    52
 48
3.0
100
AcDbCircle
 10
348.712584
 20
-580.266713
 30
0.0
 40
279.831894
100
AcDbArc
 50
228.181744
 51
82.788062
  0
LINE
  5
1A71
100
AcDbEntity
  8
V0-VYPLNE
  6
CONTINUOUS
 62
    41
 48
3.0
100
AcDbLine
 10
1407.956515
 20
-366.847205
 30
0.0
 11
1610.422181
 21
-366.847205
 31
0.0
  0
LINE
  5
1A72
100
AcDbEntity
  8
V0-VYPLNE
  6
CONTINUOUS
 62
    41
 48
3.0
100
AcDbLine
 10
1407.956515
 20
-391.847205
 30
0.0
 11
1610.422181
 21
-391.847205
 31
0.0
  0
LINE
  5
1A73
100
AcDbEntity
  8
V0-VYPLNE
  6
CONTINUOUS
 62
    41
 48
3.0
100
AcDbLine
 10
1407.956515
 20
-614.992836
 30
0.0
 11
1610.422181
 21
-614.992836
 31
0.0
  0
LINE
  5
1A74
100
AcDbEntity
  8
V0-VYPLNE
  6
CONTINUOUS
 62
    41
 48
3.0
100
AcDbLine
 10
1407.956515
 20
-587.985492
 30
0.0
 11
1610.422181
 21
-587.985492
 31
0.0
  0
LINE
  5
1A75
100
AcDbEntity
  8
V0-VYPLNE
  6
CONTINUOUS
 62
    41
 48
3.0
100
AcDbLine
 10
1407.956515
 20
-564.106063
 30
0.0
 11
1610.422181
 21
-564.106063
 31
0.0
  0
DIMENSION
  5
1BCA
100
AcDbEntity
  8
V0-VYPLNE
  6
CONTINUOUS
 62
    41
 48
3.0
100
AcDbDimension
  2
*D11
 10
11.899253
 20
-922.836202
 30
0.0
 11
-17.100747
 21
-732.336202
 31
0.0
 70
    32
  3
ED50
100
AcDbAlignedDimension
 13
58.352871
 23
-541.836202
 33
0.0
 14
105.183213
 24
-922.836202
 34
0.0
 50
90.0
100
AcDbRotatedDimension
1001
ACAD
1000
DSTYLE
1002
{
1070
   340
1005
1A9E
1070
    41
1040
50.0
1002
}
  0
POINT
  5
1BFD
100
AcDbEntity
  8
V0-VYPLNE
  6
CONTINUOUS
 62
    41
 48
3.0
100
AcDbPoint
 10
80.183213
 20
-541.836202
 30
0.0
  0
POINT
  5
1BFE
100
AcDbEntity
  8
V0-VYPLNE
  6
CONTINUOUS
 62
    41
 48
3.0
100
AcDbPoint
 10
80.183213
 20
-1447.864592
 30
0.0
  0
POINT
  5
1BFF
100
AcDbEntity
  8
V0-VYPLNE
  6
CONTINUOUS
 62
    41
 48
3.0
100
AcDbPoint
 10
818.183213
 20
-1447.864592
 30
0.0
  0
POINT
  5
1C01
100
AcDbEntity
  8
V0-VYPLNE
  6
CONTINUOUS
 62
    41
 48
3.0
100
AcDbPoint
 10
818.183213
 20
-541.836202
 30
0.0
  0
POINT
  5
1C02
100
AcDbEntity
  8
V0-VYPLNE
  6
CONTINUOUS
 62
    41
 48
3.0
100
AcDbPoint
 10
1509.583413
 20
-541.836202
 30
0.0
  0
VIEWPORT
  5
22
100
AcDbEntity
 67
     1
  8
0
100
AcDbViewport
 10
261.517699
 20
148.5
 30
0.0
 40
523.035398
 41
297.0
 68
    -1
 69
     1
1001
ACAD
1000
MVIEW
1002
{
1070
    16
1010
0.0
1020
0.0
1030
0.0
1010
0.0
1020
0.0
1030
1.0
1040
0.0
1040
297.0
1040
261.517699
1040
148.5
1040
50.0
1040
0.0
1040
0.0
1070
     0
1070
   100
1070
     1
1070
     1
1070
     0
1070
     0
1070
     0
1070
     0
1040
0.0
1040
0.0
1040
0.0
1040
1.0
1040
1.0
1040
10.0
1040
10.0
1070
     0
1002
{
1002
}
1002
}
  0
ENDSEC
  0
SECTION
  2
OBJECTS
  0
DICTIONARY
  5
C
100
AcDbDictionary
  3
ACAD_GROUP
350
D
  3
ACAD_MLINESTYLE
350
E
  3
ACDBVARIABLEDICTIONARY
350
5D
  0
DICTIONARY
  5
D
102
{ACAD_REACTORS
330
C
102
}
100
AcDbDictionary
  0
DICTIONARY
  5
E
102
{ACAD_REACTORS
330
C
102
}
100
AcDbDictionary
  3
STANDARD
350
13
  0
DICTIONARY
  5
5D
102
{ACAD_REACTORS
330
C
102
}
100
AcDbDictionary
  3
DIMADEC
350
5E
  3
SORTENTS
350
3D8
  0
MLINESTYLE
  5
13
102
{ACAD_REACTORS
330
E
102
}
100
AcDbMlineStyle
  2
STANDARD
 70
     0
  3

 62
     0
 51
90.0
 52
90.0
 71
     2
 49
0.5
 62
   256
  6
BYLAYER
 49
-0.5
 62
   256
  6
BYLAYER
  0
DICTIONARYVAR
  5
5E
102
{ACAD_REACTORS
330
5D
102
}
100
DictionaryVariables
280
     0
  1
0
  0
DICTIONARYVAR
  5
3D8
102
{ACAD_REACTORS
330
5D
102
}
100
DictionaryVariables
280
     0
  1
96
  0
ENDSEC
  0
EOF
