  0
SECTION
  2
HEADER
  9
$ACADVER
  1
AC1014
  9
$ACADMAINTVER
 70
     9
  9
$DWGCODEPAGE
  3
ANSI_1250
  9
$INSBASE
 10
0.0
 20
0.0
 30
0.0
  9
$EXTMIN
 10
-223.852626
 20
-286.396234
 30
0.0
  9
$EXTMAX
 10
409.6638608562986
 20
358.727271
 30
0.0
  9
$LIMMIN
 10
0.0
 20
0.0
  9
$LIMMAX
 10
0.0
 20
0.0
  9
$ORTHOMODE
 70
     1
  9
$REGENMODE
 70
     1
  9
$FILLMODE
 70
     1
  9
$QTEXTMODE
 70
     0
  9
$MIRRTEXT
 70
     1
  9
$DRAGMODE
 70
     2
  9
$LTSCALE
 40
1.0
  9
$OSMODE
 70
    37
  9
$ATTMODE
 70
     1
  9
$TEXTSIZE
 40
0.2
  9
$TRACEWID
 40
0.05
  9
$TEXTSTYLE
  7
ED10
  9
$CLAYER
  8
V0-OBRYS
  9
$CELTYPE
  6
CONTINUOUS
  9
$CECOLOR
 62
    90
  9
$CELTSCALE
 40
1.0
  9
$DELOBJ
 70
     1
  9
$DISPSILH
 70
     0
  9
$DIMSCALE
 40
1.0
  9
$DIMASZ
 40
15.0
  9
$DIMEXO
 40
1.0
  9
$DIMDLI
 40
0.38
  9
$DIMRND
 40
0.0
  9
$DIMDLE
 40
0.0
  9
$DIMEXE
 40
1.25
  9
$DIMTP
 40
0.0
  9
$DIMTM
 40
0.0
  9
$DIMTXT
 40
10.0
  9
$DIMCEN
 40
0.09
  9
$DIMTSZ
 40
0.0
  9
$DIMTOL
 70
     0
  9
$DIMLIM
 70
     0
  9
$DIMTIH
 70
     0
  9
$DIMTOH
 70
     0
  9
$DIMSE1
 70
     0
  9
$DIMSE2
 70
     0
  9
$DIMTAD
 70
     1
  9
$DIMZIN
 70
     0
  9
$DIMBLK
  1
OPEN
  9
$DIMASO
 70
     1
  9
$DIMSHO
 70
     1
  9
$DIMPOST
  1

  9
$DIMAPOST
  1

  9
$DIMALT
 70
     0
  9
$DIMALTD
 70
     2
  9
$DIMALTF
 40
25.4
  9
$DIMLFAC
 40
1.0
  9
$DIMTOFL
 70
     1
  9
$DIMTVP
 40
0.0
  9
$DIMTIX
 70
     1
  9
$DIMSOXD
 70
     0
  9
$DIMSAH
 70
     0
  9
$DIMBLK1
  1

  9
$DIMBLK2
  1

  9
$DIMSTYLE
  2
ED10
  9
$DIMCLRD
 70
     0
  9
$DIMCLRE
 70
     0
  9
$DIMCLRT
 70
     0
  9
$DIMTFAC
 40
1.0
  9
$DIMGAP
 40
1.5
  9
$DIMJUST
 70
     0
  9
$DIMSD1
 70
     0
  9
$DIMSD2
 70
     0
  9
$DIMTOLJ
 70
     1
  9
$DIMTZIN
 70
     0
  9
$DIMALTZ
 70
     0
  9
$DIMALTTZ
 70
     0
  9
$DIMFIT
 70
     3
  9
$DIMUPT
 70
     1
  9
$DIMUNIT
 70
     2
  9
$DIMDEC
 70
     0
  9
$DIMTDEC
 70
     4
  9
$DIMALTU
 70
     2
  9
$DIMALTTD
 70
     2
  9
$DIMTXSTY
  7
ED20
  9
$DIMAUNIT
 70
     0
  9
$LUNITS
 70
     2
  9
$LUPREC
 70
     4
  9
$SKETCHINC
 40
0.1
  9
$FILLETRAD
 40
0.5
  9
$AUNITS
 70
     0
  9
$AUPREC
 70
     0
  9
$MENU
  1
.
  9
$ELEVATION
 40
0.0
  9
$PELEVATION
 40
0.0
  9
$THICKNESS
 40
0.0
  9
$LIMCHECK
 70
     0
  9
$BLIPMODE
 70
     0
  9
$CHAMFERA
 40
0.5
  9
$CHAMFERB
 40
0.5
  9
$CHAMFERC
 40
1.0
  9
$CHAMFERD
 40
0.0
  9
$SKPOLY
 70
     0
  9
$TDCREATE
 40
2455593.642269965
  9
$TDUPDATE
 40
2455593.642269977
  9
$TDINDWG
 40
0.0000000116
  9
$TDUSRTIMER
 40
0.0000000116
  9
$USRTIMER
 70
     1
  9
$ANGBASE
 50
0.0
  9
$ANGDIR
 70
     0
  9
$PDMODE
 70
     3
  9
$PDSIZE
 40
15.0
  9
$PLINEWID
 40
0.0
  9
$COORDS
 70
     1
  9
$SPLFRAME
 70
     0
  9
$SPLINETYPE
 70
     6
  9
$SPLINESEGS
 70
     8
  9
$ATTDIA
 70
     0
  9
$ATTREQ
 70
     1
  9
$HANDLING
 70
     1
  9
$HANDSEED
  5
8F3
  9
$SURFTAB1
 70
     6
  9
$SURFTAB2
 70
     6
  9
$SURFTYPE
 70
     6
  9
$SURFU
 70
     6
  9
$SURFV
 70
     6
  9
$UCSNAME
  2

  9
$UCSORG
 10
0.0
 20
0.0
 30
0.0
  9
$UCSXDIR
 10
1.0
 20
0.0
 30
0.0
  9
$UCSYDIR
 10
0.0
 20
1.0
 30
0.0
  9
$PUCSNAME
  2

  9
$PUCSORG
 10
0.0
 20
0.0
 30
0.0
  9
$PUCSXDIR
 10
1.0
 20
0.0
 30
0.0
  9
$PUCSYDIR
 10
0.0
 20
1.0
 30
0.0
  9
$USERI1
 70
     0
  9
$USERI2
 70
     0
  9
$USERI3
 70
     0
  9
$USERI4
 70
     0
  9
$USERI5
 70
     0
  9
$USERR1
 40
0.0
  9
$USERR2
 40
0.0
  9
$USERR3
 40
0.0
  9
$USERR4
 40
0.0
  9
$USERR5
 40
0.0
  9
$WORLDVIEW
 70
     1
  9
$SHADEDGE
 70
     3
  9
$SHADEDIF
 70
    70
  9
$TILEMODE
 70
     1
  9
$MAXACTVP
 70
    64
  9
$PINSBASE
 10
0.0
 20
0.0
 30
0.0
  9
$PLIMCHECK
 70
     0
  9
$PEXTMIN
 10
1.000000000000000E+20
 20
1.000000000000000E+20
 30
1.000000000000000E+20
  9
$PEXTMAX
 10
-1.000000000000000E+20
 20
-1.000000000000000E+20
 30
-1.000000000000000E+20
  9
$PLIMMIN
 10
0.0
 20
0.0
  9
$PLIMMAX
 10
12.0
 20
9.0
  9
$UNITMODE
 70
     0
  9
$VISRETAIN
 70
     1
  9
$PLINEGEN
 70
     0
  9
$PSLTSCALE
 70
     1
  9
$TREEDEPTH
 70
  3020
  9
$PICKSTYLE
 70
     1
  9
$CMLSTYLE
  2
STANDARD
  9
$CMLJUST
 70
     0
  9
$CMLSCALE
 40
1.0
  9
$PROXYGRAPHICS
 70
     1
  9
$MEASUREMENT
 70
     0
  0
ENDSEC
  0
SECTION
  2
CLASSES
  0
CLASS
  1
ACDBDICTIONARYWDFLT
  2
AcDbDictionaryWithDefault
  3
ObjectDBX Classes
 90
        0
280
     0
281
     0
  0
CLASS
  1
XRECORD
  2
AcDbXrecord
  3
AutoCAD 2000
 90
        0
280
     0
281
     0
  0
CLASS
  1
LWPOLYLINE
  2
AcDbPolyline
  3
AutoCAD 2000
 90
        0
280
     0
281
     1
  0
CLASS
  1
HATCH
  2
AcDbHatch
  3
AutoCAD 2000
 90
        0
280
     0
281
     1
  0
CLASS
  1
ACDBPLACEHOLDER
  2
AcDbPlaceHolder
  3
ObjectDBX Classes
 90
        0
280
     0
281
     0
  0
CLASS
  1
LAYOUT
  2
AcDbLayout
  3
ObjectDBX Classes
 90
        0
280
     0
281
     0
  0
ENDSEC
  0
SECTION
  2
TABLES
  0
TABLE
  2
VPORT
  5
83A
330
0
100
AcDbSymbolTable
 70
     2
  0
VPORT
  5
85B
102
{ACAD_XDICTIONARY
360
8F1
102
}
330
83A
100
AcDbSymbolTableRecord
100
AcDbViewportTableRecord
  2
*ACTIVE
 70
     0
 10
0.0
 20
0.0
 11
1.0
 21
1.0
 12
82.957466
 22
102.524691
 13
0.0
 23
0.0
 14
1.0
 24
1.0
 15
5.0
 25
5.0
 16
0.0
 26
0.0
 36
1.0
 17
0.0
 27
0.0
 37
0.0
 40
899.185475
 41
0.0197476018567281
 42
50.0
 43
0.0
 44
0.0
 50
0.0
 51
0.0000000000007958
 71
     0
 72
   100
 73
     1
 74
     3
 75
     0
 76
     0
 77
     0
 78
     0
  0
ENDTAB
  0
TABLE
  2
LTYPE
  5
837
330
0
100
AcDbSymbolTable
 70
    25
  0
LTYPE
  5
846
330
837
100
AcDbSymbolTableRecord
100
AcDbLinetypeTableRecord
  2
BYBLOCK
 70
     0
  3

 72
    65
 73
     0
 40
0.0
  0
LTYPE
  5
847
330
837
100
AcDbSymbolTableRecord
100
AcDbLinetypeTableRecord
  2
BYLAYER
 70
     0
  3

 72
    65
 73
     0
 40
0.0
  0
LTYPE
  5
848
330
837
100
AcDbSymbolTableRecord
100
AcDbLinetypeTableRecord
  2
CONTINUOUS
 70
     0
  3
Solid line
 72
    65
 73
     0
 40
0.0
  0
LTYPE
  5
863
330
837
100
AcDbSymbolTableRecord
100
AcDbLinetypeTableRecord
  2
CENTER
 70
     0
  3
Center ____ _ ____ _ ____ _ ____ _ ____ _ ____
 72
    65
 73
     4
 40
2.0
 49
1.25
 74
     0
 49
-0.25
 74
     0
 49
0.25
 74
     0
 49
-0.25
 74
     0
  0
LTYPE
  5
864
330
837
100
AcDbSymbolTableRecord
100
AcDbLinetypeTableRecord
  2
DASHDOT
 70
     0
  3
Dashdot __ . __ . __ . __ . __ . __ . __ . __
 72
    65
 73
     4
 40
1.0
 49
0.5
 74
     0
 49
-0.25
 74
     0
 49
0.0
 74
     0
 49
-0.25
 74
     0
  0
LTYPE
  5
865
330
837
100
AcDbSymbolTableRecord
100
AcDbLinetypeTableRecord
  2
DASHED
 70
     0
  3
Dashed __ __ __ __ __ __ __ __ __ __ __ __ __ _
 72
    65
 73
     2
 40
0.75
 49
0.5
 74
     0
 49
-0.25
 74
     0
  0
LTYPE
  5
866
330
837
100
AcDbSymbolTableRecord
100
AcDbLinetypeTableRecord
  2
HIDDEN
 70
     0
  3
Hidden __ __ __ __ __ __ __ __ __ __ __ __ __ __
 72
    65
 73
     2
 40
0.375
 49
0.25
 74
     0
 49
-0.125
 74
     0
  0
LTYPE
  5
867
330
837
100
AcDbSymbolTableRecord
100
AcDbLinetypeTableRecord
  2
HIDDEN2
 70
     0
  3
Hidden2 _ _ _ _ _ _ _ _ _ _ _ _ _ _ _ _ _ 
 72
    65
 73
     2
 40
0.1875
 49
0.125
 74
     0
 49
-0.0625
 74
     0
  0
LTYPE
  5
868
330
837
100
AcDbSymbolTableRecord
100
AcDbLinetypeTableRecord
  2
BORDER
 70
     0
  3
Border __ __ . __ __ . __ __ . __ __ . __ __ .
 72
    65
 73
     6
 40
1.75
 49
0.5
 74
     0
 49
-0.25
 74
     0
 49
0.5
 74
     0
 49
-0.25
 74
     0
 49
0.0
 74
     0
 49
-0.25
 74
     0
  0
LTYPE
  5
869
330
837
100
AcDbSymbolTableRecord
100
AcDbLinetypeTableRecord
  2
BORDER2
 70
     0
  3
Border2 __.__.__.__.__.__.__.__.__.__.__.
 72
    65
 73
     6
 40
0.875
 49
0.25
 74
     0
 49
-0.125
 74
     0
 49
0.25
 74
     0
 49
-0.125
 74
     0
 49
0.0
 74
     0
 49
-0.125
 74
     0
  0
LTYPE
  5
86A
330
837
100
AcDbSymbolTableRecord
100
AcDbLinetypeTableRecord
  2
BORDERX2
 70
     0
  3
Borderx2  ____  ____  .  ____  ____  .  ___
 72
    65
 73
     6
 40
3.5
 49
1.0
 74
     0
 49
-0.5
 74
     0
 49
1.0
 74
     0
 49
-0.5
 74
     0
 49
0.0
 74
     0
 49
-0.5
 74
     0
  0
LTYPE
  5
86B
330
837
100
AcDbSymbolTableRecord
100
AcDbLinetypeTableRecord
  2
CENTER2
 70
     0
  3
Center2  ___ _ ___ _ ___ _ ___ _ ___ _ ___
 72
    65
 73
     4
 40
1.125
 49
0.75
 74
     0
 49
-0.125
 74
     0
 49
0.125
 74
     0
 49
-0.125
 74
     0
  0
LTYPE
  5
86C
330
837
100
AcDbSymbolTableRecord
100
AcDbLinetypeTableRecord
  2
CENTERX2
 70
     0
  3
Centerx2  ________  __  ________  __  _____
 72
    65
 73
     4
 40
4.0
 49
2.5
 74
     0
 49
-0.5
 74
     0
 49
0.5
 74
     0
 49
-0.5
 74
     0
  0
LTYPE
  5
86D
330
837
100
AcDbSymbolTableRecord
100
AcDbLinetypeTableRecord
  2
DASHDOT2
 70
     0
  3
Dashdot2  _._._._._._._._._._._._._._._.
 72
    65
 73
     4
 40
0.5
 49
0.25
 74
     0
 49
-0.125
 74
     0
 49
0.0
 74
     0
 49
-0.125
 74
     0
  0
LTYPE
  5
86E
330
837
100
AcDbSymbolTableRecord
100
AcDbLinetypeTableRecord
  2
DASHDOTX2
 70
     0
  3
Dashdotx2 ____  .  ____  .  ____  .  ___
 72
    65
 73
     4
 40
2.0
 49
1.0
 74
     0
 49
-0.5
 74
     0
 49
0.0
 74
     0
 49
-0.5
 74
     0
  0
LTYPE
  5
86F
330
837
100
AcDbSymbolTableRecord
100
AcDbLinetypeTableRecord
  2
DASHED2
 70
     0
  3
Dashed2 _ _ _ _ _ _ _ _ _ _ _ _ _ _ _ _ _ 
 72
    65
 73
     2
 40
0.375
 49
0.25
 74
     0
 49
-0.125
 74
     0
  0
LTYPE
  5
870
330
837
100
AcDbSymbolTableRecord
100
AcDbLinetypeTableRecord
  2
DASHEDX2
 70
     0
  3
Dashedx2 ____  ____  ____  ____  ____  ___
 72
    65
 73
     2
 40
1.5
 49
1.0
 74
     0
 49
-0.5
 74
     0
  0
LTYPE
  5
871
330
837
100
AcDbSymbolTableRecord
100
AcDbLinetypeTableRecord
  2
DIVIDE
 70
     0
  3
Divide ____ . . ____ . . ____ . . ____ . . ____
 72
    65
 73
     6
 40
1.25
 49
0.5
 74
     0
 49
-0.25
 74
     0
 49
0.0
 74
     0
 49
-0.25
 74
     0
 49
0.0
 74
     0
 49
-0.25
 74
     0
  0
LTYPE
  5
872
330
837
100
AcDbSymbolTableRecord
100
AcDbLinetypeTableRecord
  2
DIVIDE2
 70
     0
  3
Divide2 __..__..__..__..__..__..__..__.._
 72
    65
 73
     6
 40
0.625
 49
0.25
 74
     0
 49
-0.125
 74
     0
 49
0.0
 74
     0
 49
-0.125
 74
     0
 49
0.0
 74
     0
 49
-0.125
 74
     0
  0
LTYPE
  5
873
330
837
100
AcDbSymbolTableRecord
100
AcDbLinetypeTableRecord
  2
DIVIDEX2
 70
     0
  3
Dividex2 ________  .  .  ________  .  .  _
 72
    65
 73
     6
 40
2.5
 49
1.0
 74
     0
 49
-0.5
 74
     0
 49
0.0
 74
     0
 49
-0.5
 74
     0
 49
0.0
 74
     0
 49
-0.5
 74
     0
  0
LTYPE
  5
874
330
837
100
AcDbSymbolTableRecord
100
AcDbLinetypeTableRecord
  2
DOT
 70
     0
  3
Dot . . . . . . . . . . . . . . . . . . . . . . . .
 72
    65
 73
     2
 40
0.25
 49
0.0
 74
     0
 49
-0.25
 74
     0
  0
LTYPE
  5
875
330
837
100
AcDbSymbolTableRecord
100
AcDbLinetypeTableRecord
  2
DOT2
 70
     0
  3
Dot2 ........................................
 72
    65
 73
     2
 40
0.125
 49
0.0
 74
     0
 49
-0.125
 74
     0
  0
LTYPE
  5
876
330
837
100
AcDbSymbolTableRecord
100
AcDbLinetypeTableRecord
  2
DOTX2
 70
     0
  3
Dotx2 .  .  .  .  .  .  .  .  .  .  .  .  .  .
 72
    65
 73
     2
 40
0.5
 49
0.0
 74
     0
 49
-0.5
 74
     0
  0
LTYPE
  5
877
330
837
100
AcDbSymbolTableRecord
100
AcDbLinetypeTableRecord
  2
HIDDENX2
 70
     0
  3
Hiddenx2 ____ ____ ____ ____ ____ ____ ____ 
 72
    65
 73
     2
 40
0.75
 49
0.5
 74
     0
 49
-0.25
 74
     0
  0
LTYPE
  5
878
330
837
100
AcDbSymbolTableRecord
100
AcDbLinetypeTableRecord
  2
PHANTOM
 70
     0
  3
Phantom ______  __  __  ______  __  __  ______ 
 72
    65
 73
     6
 40
2.5
 49
1.25
 74
     0
 49
-0.25
 74
     0
 49
0.25
 74
     0
 49
-0.25
 74
     0
 49
0.25
 74
     0
 49
-0.25
 74
     0
  0
LTYPE
  5
879
330
837
100
AcDbSymbolTableRecord
100
AcDbLinetypeTableRecord
  2
PHANTOM2
 70
     0
  3
Phantom2 ___ _ _ ___ _ _ ___ _ _ ___ _ _
 72
    65
 73
     6
 40
1.25
 49
0.625
 74
     0
 49
-0.125
 74
     0
 49
0.125
 74
     0
 49
-0.125
 74
     0
 49
0.125
 74
     0
 49
-0.125
 74
     0
  0
LTYPE
  5
87A
330
837
100
AcDbSymbolTableRecord
100
AcDbLinetypeTableRecord
  2
PHANTOMX2
 70
     0
  3
Phantomx2 ____________    ____    ____   _
 72
    65
 73
     6
 40
5.0
 49
2.5
 74
     0
 49
-0.5
 74
     0
 49
0.5
 74
     0
 49
-0.5
 74
     0
 49
0.5
 74
     0
 49
-0.5
 74
     0
  0
ENDTAB
  0
TABLE
  2
LAYER
  5
834
330
0
100
AcDbSymbolTable
 70
     6
  0
LAYER
  5
842
330
834
100
AcDbSymbolTableRecord
100
AcDbLayerTableRecord
  2
0
 70
     0
 62
     7
  6
CONTINUOUS
  0
LAYER
  5
38
330
834
100
AcDbSymbolTableRecord
100
AcDbLayerTableRecord
  2
DEFPOINTS
 70
     0
 62
     7
  6
CONTINUOUS
  0
LAYER
  5
1B
330
834
100
AcDbSymbolTableRecord
100
AcDbLayerTableRecord
  2
V0-OBRYS
 70
     0
 62
    90
  6
CONTINUOUS
  0
LAYER
  5
2B
330
834
100
AcDbSymbolTableRecord
100
AcDbLayerTableRecord
  2
V0-VYPLNE
 70
     0
 62
    52
  6
CONTINUOUS
  0
LAYER
  5
43
330
834
100
AcDbSymbolTableRecord
100
AcDbLayerTableRecord
  2
V0-NAZVY
 70
     0
 62
   210
  6
CONTINUOUS
  0
LAYER
  5
48
330
834
100
AcDbSymbolTableRecord
100
AcDbLayerTableRecord
  2
V0-ZBYTEK
 70
     0
 62
    51
  6
CONTINUOUS
  0
ENDTAB
  0
TABLE
  2
STYLE
  5
835
330
0
100
AcDbSymbolTable
 70
     3
  0
STYLE
  5
843
330
835
100
AcDbSymbolTableRecord
100
AcDbTextStyleTableRecord
  2
STANDARD
 70
     0
 40
0.0
 41
1.0
 50
0.0
 71
     0
 42
0.2
  3
ISOCP.shx
  4

1001
ACAD
1000
ISOCP.shx
1071
        0
  0
STYLE
  5
1C
330
835
100
AcDbSymbolTableRecord
100
AcDbTextStyleTableRecord
  2
ED20
 70
     0
 40
20.0
 41
1.0
 50
0.0
 71
     0
 42
0.2
  3
isocp.shx
  4

1001
ACAD
1000
isocp.shx
1071
        0
  0
STYLE
  5
1D
330
835
100
AcDbSymbolTableRecord
100
AcDbTextStyleTableRecord
  2
ED10
 70
     0
 40
10.0
 41
1.0
 50
0.0
 71
     0
 42
0.2
  3
isocp.shx
  4

1001
ACAD
1000
isocp.shx
1071
        0
  0
ENDTAB
  0
TABLE
  2
VIEW
  5
838
330
0
100
AcDbSymbolTable
 70
     0
  0
ENDTAB
  0
TABLE
  2
UCS
  5
839
330
0
100
AcDbSymbolTable
 70
     0
  0
ENDTAB
  0
TABLE
  2
APPID
  5
83B
330
0
100
AcDbSymbolTable
 70
     6
  0
APPID
  5
844
330
83B
100
AcDbSymbolTableRecord
100
AcDbRegAppTableRecord
  2
ACAD
 70
     0
  0
APPID
  5
85C
330
83B
100
AcDbSymbolTableRecord
100
AcDbRegAppTableRecord
  2
VD_INVISIBLE_NOT_FOR_READ
 70
     0
  0
APPID
  5
85D
330
83B
100
AcDbSymbolTableRecord
100
AcDbRegAppTableRecord
  2
VD_TEMPHATCH
 70
     0
  0
APPID
  5
85E
330
83B
100
AcDbSymbolTableRecord
100
AcDbRegAppTableRecord
  2
VDEXTRAPARAM
 70
     0
  0
APPID
  5
85F
330
83B
100
AcDbSymbolTableRecord
100
AcDbRegAppTableRecord
  2
PE_URL
 70
     0
  0
APPID
  5
860
330
83B
100
AcDbSymbolTableRecord
100
AcDbRegAppTableRecord
  2
VD_UNKNOWN
 70
     0
  0
ENDTAB
  0
TABLE
  2
DIMSTYLE
  5
83C
330
0
100
AcDbSymbolTable
 70
     2
  0
DIMSTYLE
105
859
330
83C
100
AcDbSymbolTableRecord
100
AcDbDimStyleTableRecord
  2
STANDARD
 70
     0
  3

  4

  5
VDDIM_DEFAULT
  6

  7

 40
1.0
 41
0.2
 42
0.05
 43
0.38
 44
0.2
 45
0.0
 46
0.0
 47
0.0
 48
0.0
140
0.2
141
0.09
142
0.0
143
25.4
144
1.0
145
0.0
146
1.0
147
0.09
 71
     0
 72
     0
 73
     0
 74
     0
 75
     0
 76
     0
 77
     0
 78
     0
170
     0
171
     2
172
     1
173
     0
174
     1
175
     0
176
     0
177
   256
178
   256
270
     2
271
     4
272
     4
273
     2
274
     2
340
843
275
     0
280
     0
281
     0
282
     0
283
     1
284
     0
285
     0
286
     0
287
     3
288
     1
  0
DIMSTYLE
105
1F
102
{ACAD_REACTORS
330
2F
330
49
330
F8
330
278
330
279
330
314
102
}
330
83C
100
AcDbSymbolTableRecord
100
AcDbDimStyleTableRecord
  2
ED10
 70
     0
  3

  4

  5
OPEN
  6

  7

 40
1.0
 41
15.0
 42
1.0
 43
0.38
 44
1.25
 45
0.0
 46
0.0
 47
0.0
 48
0.0
140
10.0
141
0.09
142
0.0
143
25.4
144
1.0
145
0.0
146
1.0
147
1.5
 71
     0
 72
     0
 73
     0
 74
     0
 75
     0
 76
     0
 77
     1
 78
     0
170
     0
171
     2
172
     1
173
     0
174
     1
175
     0
176
     0
177
     0
178
     0
270
     2
271
     0
272
     4
273
     2
274
     2
340
1C
275
     0
280
     0
281
     0
282
     0
283
     1
284
     0
285
     0
286
     0
287
     3
288
     1
  0
ENDTAB
  0
TABLE
  2
BLOCK_RECORD
  5
833
330
0
100
AcDbSymbolTable
 70
    10
  0
BLOCK_RECORD
  5
851
330
833
100
AcDbSymbolTableRecord
100
AcDbBlockTableRecord
  2
*MODEL_SPACE
  0
BLOCK_RECORD
  5
84D
330
833
100
AcDbSymbolTableRecord
100
AcDbBlockTableRecord
  2
*PAPER_SPACE
  0
BLOCK_RECORD
  5
20
330
833
100
AcDbSymbolTableRecord
100
AcDbBlockTableRecord
  2
_OPEN
  0
BLOCK_RECORD
  5
82F
330
833
100
AcDbSymbolTableRecord
100
AcDbBlockTableRecord
  2
VDDIM_DEFAULT
  0
BLOCK_RECORD
  5
831
330
833
100
AcDbSymbolTableRecord
100
AcDbBlockTableRecord
  2
VDDIM_NONE
  0
BLOCK_RECORD
  5
882
330
833
100
AcDbSymbolTableRecord
100
AcDbBlockTableRecord
  2
*D4
  0
BLOCK_RECORD
  5
88E
330
833
100
AcDbSymbolTableRecord
100
AcDbBlockTableRecord
  2
*D5
  0
BLOCK_RECORD
  5
89B
330
833
100
AcDbSymbolTableRecord
100
AcDbBlockTableRecord
  2
*D6
  0
BLOCK_RECORD
  5
8A6
330
833
100
AcDbSymbolTableRecord
100
AcDbBlockTableRecord
  2
*D7
  0
BLOCK_RECORD
  5
8B4
330
833
100
AcDbSymbolTableRecord
100
AcDbBlockTableRecord
  2
*D8
  0
BLOCK_RECORD
  5
8C2
330
833
100
AcDbSymbolTableRecord
100
AcDbBlockTableRecord
  2
*D9
  0
ENDTAB
  0
ENDSEC
  0
SECTION
  2
BLOCKS
  0
BLOCK
  5
852
330
851
100
AcDbEntity
  8
0
100
AcDbBlockBegin
  2
*MODEL_SPACE
 70
     0
 71
     0
 10
0.0
 20
0.0
 30
0.0
  3
*MODEL_SPACE
  1

  0
ENDBLK
  5
853
330
851
100
AcDbEntity
  8
0
100
AcDbBlockEnd
  0
BLOCK
  5
84E
330
84D
100
AcDbEntity
 67
     1
  8
0
100
AcDbBlockBegin
  2
*PAPER_SPACE
 70
     0
 71
     0
 10
0.0
 20
0.0
 30
0.0
  3
*PAPER_SPACE
  1

  0
ENDBLK
  5
84F
330
84D
100
AcDbEntity
 67
     1
  8
0
100
AcDbBlockEnd
  0
BLOCK
  5
87B
330
20
100
AcDbEntity
  8
0
100
AcDbBlockBegin
  2
_OPEN
 70
     0
 71
     0
 10
0.0
 20
0.0
 30
0.0
  3
_OPEN
  1

  0
LINE
  5
21
330
20
100
AcDbEntity
  8
0
  6
BYBLOCK
 62
     0
100
AcDbLine
 10
-1.0
 20
0.166667
 30
0.0
 11
0.0
 21
0.0
 31
0.0
  0
LINE
  5
22
330
20
100
AcDbEntity
  8
0
  6
BYBLOCK
 62
     0
100
AcDbLine
 10
0.0
 20
0.0
 30
0.0
 11
-1.0
 21
-0.166667
 31
0.0
  0
LINE
  5
23
330
20
100
AcDbEntity
  8
0
  6
BYBLOCK
 62
     0
100
AcDbLine
 10
0.0
 20
0.0
 30
0.0
 11
-1.0
 21
0.0
 31
0.0
  0
ENDBLK
  5
87C
330
20
100
AcDbEntity
  8
0
100
AcDbBlockEnd
  0
BLOCK
  5
87D
330
82F
100
AcDbEntity
  8
0
100
AcDbBlockBegin
  2
VDDIM_DEFAULT
 70
     0
 71
     0
 10
0.0
 20
0.0
 30
0.0
  3
VDDIM_DEFAULT
  1

  0
LWPOLYLINE
  5
830
330
82F
100
AcDbEntity
  8
0
  6
CONTINUOUS
 62
     0
100
AcDbPolyline
 90
        4
 70
     0
 43
0.0
 10
0.0
 20
0.0
 10
-1.0
 20
-0.1665
 10
-1.0
 20
0.1665
 10
0.0
 20
0.0
1001
VDEXTRAPARAM
1071
        1
1071
        0
1071
        0
1040
1.0
1000

1000

1040
0.0
1040
0.0
  0
HATCH
  5
881
330
82F
100
AcDbEntity
  8
0
  6
CONTINUOUS
 62
     0
100
AcDbHatch
 10
0.0
 20
0.0
 30
0.0
210
0.0
220
0.0
230
1.0
  2
SOLID
 70
     1
 71
     0
 91
        1
 92
        2
 72
     0
 73
     1
 93
        3
 10
0.0
 20
0.0
 10
-1.0
 20
-0.1665
 10
-1.0
 20
0.1665
 97
        0
 75
     0
 76
     1
 98
        1
 10
0.0
 20
0.0
1001
VDEXTRAPARAM
1071
        1
1071
        0
1071
        0
1040
1.0
1000

1000

1040
0.0
1040
0.0
1001
VD_TEMPHATCH
1000
VD_TEMPHATCH
  0
ENDBLK
  5
87E
330
82F
100
AcDbEntity
  8
0
100
AcDbBlockEnd
  0
BLOCK
  5
87F
330
831
100
AcDbEntity
  8
0
100
AcDbBlockBegin
  2
VDDIM_NONE
 70
     0
 71
     0
 10
0.0
 20
0.0
 30
0.0
  3
VDDIM_NONE
  1

  0
ENDBLK
  5
880
330
831
100
AcDbEntity
  8
0
100
AcDbBlockEnd
  0
BLOCK
  5
88C
330
882
100
AcDbEntity
  8
0
100
AcDbBlockBegin
  2
*D4
 70
     1
 71
     0
 10
0.0
 20
0.0
 30
0.0
  3
*D4
  1

  0
LINE
  5
883
330
882
100
AcDbEntity
  8
V0-VYPLNE
 62
     0
100
AcDbLine
 10
128.163872
 20
351.992319
 30
0.0
 11
85.65333300000022
 21
351.992319
 31
0.0
  0
LINE
  5
884
330
882
100
AcDbEntity
  8
V0-VYPLNE
 62
     0
100
AcDbLine
 10
128.163872
 20
101.421881
 30
0.0
 11
85.6533330000002
 21
101.421881
 31
0.0
  0
LINE
  5
885
330
882
100
AcDbEntity
  8
V0-VYPLNE
 62
     0
100
AcDbLine
 10
86.9033330000002
 20
336.992319
 30
0.0
 11
86.9033330000002
 21
116.421881
 31
0.0
  0
INSERT
  5
886
330
882
100
AcDbEntity
  8
V0-VYPLNE
 62
     0
100
AcDbBlockReference
  2
_OPEN
 10
86.9033330000002
 20
351.992319
 30
0.0
 41
15.0
 42
15.0
 43
15.0
 50
90.0
  0
INSERT
  5
887
330
882
100
AcDbEntity
  8
V0-VYPLNE
 62
     0
100
AcDbBlockReference
  2
_OPEN
 10
86.9033330000002
 20
101.421881
 30
0.0
 41
15.0
 42
15.0
 43
15.0
 50
270.0
  0
MTEXT
  5
888
330
882
100
AcDbEntity
  8
V0-VYPLNE
 62
     0
100
AcDbMText
 10
80.4033330000002
 20
226.7071
 30
0.0
 40
10.0
 41
0.0
 71
     5
 72
     1
  1
\A1;251
  7
ED20
 11
5.671401155152230E-17
 21
1.0
 31
0.0
  0
POINT
  5
889
330
882
100
AcDbEntity
  8
DEFPOINTS
 62
     0
100
AcDbPoint
 10
129.163872
 20
351.992319
 30
0.0
  0
POINT
  5
88A
330
882
100
AcDbEntity
  8
DEFPOINTS
 62
     0
100
AcDbPoint
 10
129.163872
 20
101.421881
 30
0.0
  0
POINT
  5
88B
330
882
100
AcDbEntity
  8
DEFPOINTS
 62
     0
100
AcDbPoint
 10
86.9033330000002
 20
101.421881
 30
0.0
  0
ENDBLK
  5
88D
330
882
100
AcDbEntity
  8
0
100
AcDbBlockEnd
  0
BLOCK
  5
899
330
88E
100
AcDbEntity
  8
0
100
AcDbBlockBegin
  2
*D5
 70
     1
 71
     0
 10
0.0
 20
0.0
 30
0.0
  3
*D5
  1

  0
LINE
  5
88F
330
88E
100
AcDbEntity
  8
V0-VYPLNE
 62
     0
100
AcDbLine
 10
114.283872
 20
115.301881
 30
0.0
 11
114.283872
 21
68.7721219999985
 31
0.0
  0
LINE
  5
890
330
88E
100
AcDbEntity
  8
V0-VYPLNE
 62
     0
100
AcDbLine
 10
343.854311
 20
115.301881
 30
0.0
 11
343.854311
 21
68.77212199999849
 31
0.0
  0
LINE
  5
891
330
88E
100
AcDbEntity
  8
V0-VYPLNE
 62
     0
100
AcDbLine
 10
129.283872
 20
70.0221219999985
 30
0.0
 11
214.7119491428572
 21
70.02212199999849
 31
0.0
  0
LINE
  5
892
330
88E
100
AcDbEntity
  8
V0-VYPLNE
 62
     0
100
AcDbLine
 10
328.854311
 20
70.02212199999849
 30
0.0
 11
243.4262348571429
 21
70.02212199999849
 31
0.0
  0
INSERT
  5
893
330
88E
100
AcDbEntity
  8
V0-VYPLNE
 62
     0
100
AcDbBlockReference
  2
_OPEN
 10
114.283872
 20
70.0221219999985
 30
0.0
 41
15.0
 42
15.0
 43
15.0
 50
180.0
  0
INSERT
  5
894
330
88E
100
AcDbEntity
  8
V0-VYPLNE
 62
     0
100
AcDbBlockReference
  2
_OPEN
 10
343.854311
 20
70.02212199999849
 30
0.0
 41
15.0
 42
15.0
 43
15.0
 50
360.0
  0
MTEXT
  5
895
330
88E
100
AcDbEntity
  8
V0-VYPLNE
 62
     0
100
AcDbMText
 10
229.069092
 20
70.022122
 30
0.0
 40
10.0
 41
0.0
 71
     5
 72
     1
  1
\A1;230
  7
ED20
  0
POINT
  5
896
330
88E
100
AcDbEntity
  8
DEFPOINTS
 62
     0
100
AcDbPoint
 10
114.283872
 20
116.301881
 30
0.0
  0
POINT
  5
897
330
88E
100
AcDbEntity
  8
DEFPOINTS
 62
     0
100
AcDbPoint
 10
343.854311
 20
116.301881
 30
0.0
  0
POINT
  5
898
330
88E
100
AcDbEntity
  8
DEFPOINTS
 62
     0
100
AcDbPoint
 10
343.854311
 20
70.02212199999849
 30
0.0
  0
ENDBLK
  5
89A
330
88E
100
AcDbEntity
  8
0
100
AcDbBlockEnd
  0
BLOCK
  5
8A4
330
89B
100
AcDbEntity
  8
0
100
AcDbBlockBegin
  2
*D6
 70
     1
 71
     0
 10
0.0
 20
0.0
 30
0.0
  3
*D6
  1

  0
LINE
  5
89C
330
89B
100
AcDbEntity
  8
V0-VYPLNE
 62
     0
100
AcDbLine
 10
358.6185626077211
 20
255.274651147835
 30
0.0
 11
336.4883704209331
 21
250.3946204210263
 31
0.0
  0
LINE
  5
89D
330
89B
100
AcDbEntity
  8
V0-VYPLNE
 62
     0
100
AcDbLine
 10
121.6498135790669
 20
203.0195795789737
 30
0.0
 11
107.0017301581337
 21
199.7894631579474
 31
0.0
  0
MTEXT
  5
89E
330
89B
100
AcDbEntity
  8
V0-VYPLNE
 62
     0
100
AcDbMText
 10
377.056547
 20
259.340496
 30
0.0
 40
10.0
 41
0.0
 71
     5
 72
     1
  1
\A1;\U+2205190
  7
ED20
 11
0.9765388947288762
 21
0.2153410947350855
 31
0.0
  0
INSERT
  5
89F
330
89B
100
AcDbEntity
  8
V0-VYPLNE
 62
     0
100
AcDbBlockReference
  2
_OPEN
 10
321.840287
 20
247.164504
 30
0.0
 41
15.0
 42
15.0
 43
15.0
 50
192.4355393460568
  0
INSERT
  5
8A0
330
89B
100
AcDbEntity
  8
V0-VYPLNE
 62
     0
100
AcDbBlockReference
  2
_OPEN
 10
136.297897
 20
206.249696
 30
0.0
 41
15.0
 42
15.0
 43
15.0
 50
12.43553934605682
  0
LINE
  5
8A1
330
89B
100
AcDbEntity
  8
V0-VYPLNE
 62
     0
100
AcDbLine
 10
136.297897
 20
206.249696
 30
0.0
 11
321.840287
 21
247.164504
 31
0.0
  0
POINT
  5
8A2
330
89B
100
AcDbEntity
  8
DEFPOINTS
 62
     0
100
AcDbPoint
 10
321.840287
 20
247.164504
 30
0.0
  0
POINT
  5
8A3
330
89B
100
AcDbEntity
  8
DEFPOINTS
 62
     0
100
AcDbPoint
 10
136.297897
 20
206.249696
 30
0.0
  0
ENDBLK
  5
8A5
330
89B
100
AcDbEntity
  8
0
100
AcDbBlockEnd
  0
BLOCK
  5
8B2
330
8A6
100
AcDbEntity
  8
0
100
AcDbBlockBegin
  2
*D7
 70
     1
 71
     0
 10
0.0
 20
0.0
 30
0.0
  3
*D7
  1

  0
LINE
  5
8A7
330
8A6
100
AcDbEntity
  8
V0-VYPLNE
 62
     0
100
AcDbLine
 10
-33.229026
 20
128.540132
 30
0.0
 11
-33.229026
 21
69.71310000000032
 31
0.0
  0
LINE
  5
8A8
330
8A6
100
AcDbEntity
  8
V0-VYPLNE
 62
     0
100
AcDbLine
 10
-55.001414
 20
100.393052
 30
0.0
 11
-55.001414
 21
69.71310000000032
 31
0.0
  0
LINE
  5
8A9
330
8A6
100
AcDbEntity
  8
V0-VYPLNE
 62
     0
100
AcDbLine
 10
-70.001414
 20
70.96310000000032
 30
0.0
 11
-85.001414
 21
70.96310000000032
 31
0.0
  0
LINE
  5
8AA
330
8A6
100
AcDbEntity
  8
V0-VYPLNE
 62
     0
100
AcDbLine
 10
-18.229026
 20
70.96310000000032
 30
0.0
 11
19.7207390952381
 21
70.96310000000032
 31
0.0
  0
LINE
  5
8AB
330
8A6
100
AcDbEntity
  8
V0-VYPLNE
 62
     0
100
AcDbLine
 10
-33.229026
 20
70.96310000000032
 30
0.0
 11
-55.001414
 21
70.96310000000032
 31
0.0
  0
INSERT
  5
8AC
330
8A6
100
AcDbEntity
  8
V0-VYPLNE
 62
     0
100
AcDbBlockReference
  2
_OPEN
 10
-33.229026
 20
70.96310000000032
 30
0.0
 41
15.0
 42
15.0
 43
15.0
 50
180.0
  0
INSERT
  5
8AD
330
8A6
100
AcDbEntity
  8
V0-VYPLNE
 62
     0
100
AcDbBlockReference
  2
_OPEN
 10
-55.001414
 20
70.96310000000032
 30
0.0
 41
15.0
 42
15.0
 43
15.0
  0
MTEXT
  5
8AE
330
8A6
100
AcDbEntity
  8
V0-VYPLNE
 62
     0
100
AcDbMText
 10
10.125501
 20
70.9631
 30
0.0
 40
10.0
 41
0.0
 71
     5
 72
     1
  1
\A1;22
  7
ED20
  0
POINT
  5
8AF
330
8A6
100
AcDbEntity
  8
DEFPOINTS
 62
     0
100
AcDbPoint
 10
-33.229026
 20
129.540132
 30
0.0
  0
POINT
  5
8B0
330
8A6
100
AcDbEntity
  8
DEFPOINTS
 62
     0
100
AcDbPoint
 10
-55.001414
 20
101.393052
 30
0.0
  0
POINT
  5
8B1
330
8A6
100
AcDbEntity
  8
DEFPOINTS
 62
     0
100
AcDbPoint
 10
-55.001414
 20
70.96310000000032
 30
0.0
  0
ENDBLK
  5
8B3
330
8A6
100
AcDbEntity
  8
0
100
AcDbBlockEnd
  0
BLOCK
  5
8C0
330
8B4
100
AcDbEntity
  8
0
100
AcDbBlockBegin
  2
*D8
 70
     1
 71
     0
 10
0.0
 20
0.0
 30
0.0
  3
*D8
  1

  0
LINE
  5
8B5
330
8B4
100
AcDbEntity
  8
V0-VYPLNE
 62
     0
100
AcDbLine
 10
-55.001414
 20
100.393052
 30
0.0
 11
-55.001414
 21
38.71309999999994
 31
0.0
  0
LINE
  5
8B6
330
8B4
100
AcDbEntity
  8
V0-VYPLNE
 62
     0
100
AcDbLine
 10
-57.001414
 20
100.393052
 30
0.0
 11
-57.001414
 21
38.71309999999994
 31
0.0
  0
LINE
  5
8B7
330
8B4
100
AcDbEntity
  8
V0-VYPLNE
 62
     0
100
AcDbLine
 10
-72.001414
 20
39.96309999999994
 30
0.0
 11
-87.001414
 21
39.96309999999994
 31
0.0
  0
LINE
  5
8B8
330
8B4
100
AcDbEntity
  8
V0-VYPLNE
 62
     0
100
AcDbLine
 10
-40.001414
 20
39.96309999999994
 30
0.0
 11
49.84137142857144
 21
39.96309999999994
 31
0.0
  0
LINE
  5
8B9
330
8B4
100
AcDbEntity
  8
V0-VYPLNE
 62
     0
100
AcDbLine
 10
-55.001414
 20
39.96309999999994
 30
0.0
 11
-57.001414
 21
39.96309999999994
 31
0.0
  0
INSERT
  5
8BA
330
8B4
100
AcDbEntity
  8
V0-VYPLNE
 62
     0
100
AcDbBlockReference
  2
_OPEN
 10
-55.001414
 20
39.96309999999994
 30
0.0
 41
15.0
 42
15.0
 43
15.0
 50
180.0
  0
INSERT
  5
8BB
330
8B4
100
AcDbEntity
  8
V0-VYPLNE
 62
     0
100
AcDbBlockReference
  2
_OPEN
 10
-57.001414
 20
39.96309999999994
 30
0.0
 41
15.0
 42
15.0
 43
15.0
  0
MTEXT
  5
8BC
330
8B4
100
AcDbEntity
  8
V0-VYPLNE
 62
     0
100
AcDbMText
 10
16.9128
 20
39.9631
 30
0.0
 40
10.0
 41
0.0
 71
     5
 72
     1
  1
3 az 25
  7
ED20
  0
POINT
  5
8BD
330
8B4
100
AcDbEntity
  8
DEFPOINTS
 62
     0
100
AcDbPoint
 10
-55.001414
 20
101.393052
 30
0.0
  0
POINT
  5
8BE
330
8B4
100
AcDbEntity
  8
DEFPOINTS
 62
     0
100
AcDbPoint
 10
-57.001414
 20
101.393052
 30
0.0
  0
POINT
  5
8BF
330
8B4
100
AcDbEntity
  8
DEFPOINTS
 62
     0
100
AcDbPoint
 10
-57.001414
 20
39.96309999999994
 30
0.0
  0
ENDBLK
  5
8C1
330
8B4
100
AcDbEntity
  8
0
100
AcDbBlockEnd
  0
BLOCK
  5
8CD
330
8C2
100
AcDbEntity
  8
0
100
AcDbBlockBegin
  2
*D9
 70
     1
 71
     0
 10
0.0
 20
0.0
 30
0.0
  3
*D9
  1

  0
LINE
  5
8C3
330
8C2
100
AcDbEntity
  8
V0-VYPLNE
 62
     0
100
AcDbLine
 10
-57.001414
 20
99.393052
 30
0.0
 11
-57.00141400000001
 21
6.580435999999949
 31
0.0
  0
LINE
  5
8C4
330
8C2
100
AcDbEntity
  8
V0-VYPLNE
 62
     0
100
AcDbLine
 10
-165.863579
 20
100.393052
 30
0.0
 11
-165.863579
 21
6.580435999999949
 31
0.0
  0
LINE
  5
8C5
330
8C2
100
AcDbEntity
  8
V0-VYPLNE
 62
     0
100
AcDbLine
 10
-72.00141400000001
 20
7.830435999999943
 30
0.0
 11
-92.81363809523811
 21
7.830435999999945
 31
0.0
  0
LINE
  5
8C6
330
8C2
100
AcDbEntity
  8
V0-VYPLNE
 62
     0
100
AcDbLine
 10
-150.863579
 20
7.830435999999948
 30
0.0
 11
-119.6231619047619
 21
7.830435999999946
 31
0.0
  0
INSERT
  5
8C7
330
8C2
100
AcDbEntity
  8
V0-VYPLNE
 62
     0
100
AcDbBlockReference
  2
_OPEN
 10
-57.00141400000001
 20
7.830435999999942
 30
0.0
 41
15.0
 42
15.0
 43
15.0
 50
360.0
  0
INSERT
  5
8C8
330
8C2
100
AcDbEntity
  8
V0-VYPLNE
 62
     0
100
AcDbBlockReference
  2
_OPEN
 10
-165.863579
 20
7.830435999999949
 30
0.0
 41
15.0
 42
15.0
 43
15.0
 50
180.0
  0
MTEXT
  5
8C9
330
8C2
100
AcDbEntity
  8
V0-VYPLNE
 62
     0
100
AcDbMText
 10
-106.2184
 20
7.830436
 30
0.0
 40
10.0
 41
0.0
 71
     5
 72
     1
  1
\A1;109
  7
ED20
  0
POINT
  5
8CA
330
8C2
100
AcDbEntity
  8
DEFPOINTS
 62
     0
100
AcDbPoint
 10
-57.001414
 20
100.393052
 30
0.0
  0
POINT
  5
8CB
330
8C2
100
AcDbEntity
  8
DEFPOINTS
 62
     0
100
AcDbPoint
 10
-165.863579
 20
101.393052
 30
0.0
  0
POINT
  5
8CC
330
8C2
100
AcDbEntity
  8
DEFPOINTS
 62
     0
100
AcDbPoint
 10
-165.863579
 20
7.830435999999949
 30
0.0
  0
ENDBLK
  5
8CE
330
8C2
100
AcDbEntity
  8
0
100
AcDbBlockEnd
  0
ENDSEC
  0
SECTION
  2
ENTITIES
  0
LINE
  5
26
330
851
100
AcDbEntity
  8
V0-OBRYS
  6
CONTINUOUS
 62
    90
100
AcDbLine
 10
269.891526
 20
191.00632
 30
0.0
 11
269.891526
 21
198.815515
 31
0.0
  0
LINE
  5
27
330
851
100
AcDbEntity
  8
V0-OBRYS
  6
CONTINUOUS
 62
    90
100
AcDbLine
 10
271.891526
 20
191.00632
 30
0.0
 11
271.891526
 21
198.815515
 31
0.0
  0
LINE
  5
28
330
851
100
AcDbEntity
  8
V0-OBRYS
  6
CONTINUOUS
 62
    90
100
AcDbLine
 10
186.246658
 20
191.00632
 30
0.0
 11
186.246658
 21
198.815515
 31
0.0
  0
LINE
  5
29
330
851
100
AcDbEntity
  8
V0-OBRYS
  6
CONTINUOUS
 62
    90
100
AcDbLine
 10
188.246658
 20
191.00632
 30
0.0
 11
188.246658
 21
198.815515
 31
0.0
  0
CIRCLE
  5
2A
330
851
100
AcDbEntity
  8
V0-VYPLNE
  6
DASHED
 62
    52
100
AcDbCircle
 10
229.069092
 20
226.7071
 30
0.0
 40
95.0
  0
DIMENSION
  5
2F
330
851
100
AcDbEntity
  8
V0-VYPLNE
  6
CONTINUOUS
 62
    41
100
AcDbDimension
  2
*D4
 10
86.9033330000002
 20
101.421881
 30
0.0
 11
80.4033330000002
 21
226.7071
 31
0.0
 70
    32
  3
ED10
100
AcDbAlignedDimension
 13
129.163872
 23
351.992319
 33
0.0
 14
129.163872
 24
101.421881
 34
0.0
 50
90.0
100
AcDbRotatedDimension
1001
ACAD
1000
DSTYLE
1002
{
1070
    40
1040
1.0
1002
}
  0
LINE
  5
40
330
851
100
AcDbEntity
  8
V0-OBRYS
  6
CONTINUOUS
 62
    90
100
AcDbLine
 10
343.854311
 20
226.7071
 30
0.0
 11
343.854311
 21
116.301881
 31
0.0
  0
LINE
  5
41
330
851
100
AcDbEntity
  8
V0-OBRYS
  6
CONTINUOUS
 62
    90
100
AcDbLine
 10
114.283872
 20
225.2191
 30
0.0
 11
114.283872
 21
116.301881
 31
0.0
  0
LINE
  5
44
330
851
100
AcDbEntity
  8
V0-VYPLNE
  6
DASHDOT
 62
    63
100
AcDbLine
 10
229.069092
 20
358.727271
 30
0.0
 11
229.069092
 21
94.416922
 31
0.0
  0
DIMENSION
  5
49
330
851
100
AcDbEntity
  8
V0-VYPLNE
  6
CONTINUOUS
 62
    41
100
AcDbDimension
  2
*D5
 10
343.854311
 20
70.02212199999849
 30
0.0
 11
229.069092
 21
70.022122
 31
0.0
 70
   160
  3
ED10
100
AcDbAlignedDimension
 13
114.283872
 23
116.301881
 33
0.0
 14
343.854311
 24
116.301881
 34
0.0
100
AcDbRotatedDimension
1001
ACAD
1000
DSTYLE
1002
{
1070
    40
1040
1.0
1002
}
  0
LINE
  5
56
330
851
100
AcDbEntity
  8
V0-OBRYS
  6
CONTINUOUS
 62
    90
100
AcDbLine
 10
136.202709
 20
144.520344
 30
0.0
 11
321.935475
 21
144.520344
 31
0.0
  0
LINE
  5
57
330
851
100
AcDbEntity
  8
V0-OBRYS
  6
CONTINUOUS
 62
    90
100
AcDbLine
 10
136.202709
 20
153.817539
 30
0.0
 11
321.935475
 21
153.817539
 31
0.0
  0
LINE
  5
58
330
851
100
AcDbEntity
  8
V0-OBRYS
  6
CONTINUOUS
 62
    90
100
AcDbLine
 10
136.202709
 20
143.032344
 30
0.0
 11
321.935475
 21
143.032344
 31
0.0
  0
LINE
  5
59
330
851
100
AcDbEntity
  8
V0-OBRYS
  6
CONTINUOUS
 62
    90
100
AcDbLine
 10
136.202709
 20
152.329539
 30
0.0
 11
321.935475
 21
152.329539
 31
0.0
  0
LINE
  5
5A
330
851
100
AcDbEntity
  8
V0-OBRYS
  6
CONTINUOUS
 62
    90
100
AcDbLine
 10
136.202709
 20
163.114734
 30
0.0
 11
321.935475
 21
163.114734
 31
0.0
  0
LINE
  5
5B
330
851
100
AcDbEntity
  8
V0-OBRYS
  6
CONTINUOUS
 62
    90
100
AcDbLine
 10
136.202709
 20
172.411929
 30
0.0
 11
321.935475
 21
172.411929
 31
0.0
  0
LINE
  5
5C
330
851
100
AcDbEntity
  8
V0-OBRYS
  6
CONTINUOUS
 62
    90
100
AcDbLine
 10
136.202709
 20
181.709124
 30
0.0
 11
321.935475
 21
181.709124
 31
0.0
  0
LINE
  5
5D
330
851
100
AcDbEntity
  8
V0-OBRYS
  6
CONTINUOUS
 62
    90
100
AcDbLine
 10
136.202709
 20
191.00632
 30
0.0
 11
321.935475
 21
191.00632
 31
0.0
  0
LINE
  5
5E
330
851
100
AcDbEntity
  8
V0-OBRYS
  6
CONTINUOUS
 62
    90
100
AcDbLine
 10
230.557092
 20
101.421881
 30
0.0
 11
328.974311
 21
101.421881
 31
0.0
  0
LINE
  5
61
330
851
100
AcDbEntity
  8
V0-OBRYS
  6
CONTINUOUS
 62
    90
100
AcDbLine
 10
136.202709
 20
161.626734
 30
0.0
 11
321.935475
 21
161.626734
 31
0.0
  0
LINE
  5
62
330
851
100
AcDbEntity
  8
V0-OBRYS
  6
CONTINUOUS
 62
    90
100
AcDbLine
 10
136.202709
 20
180.221124
 30
0.0
 11
321.935475
 21
180.221124
 31
0.0
  0
LINE
  5
63
330
851
100
AcDbEntity
  8
V0-OBRYS
  6
CONTINUOUS
 62
    90
100
AcDbLine
 10
136.202709
 20
189.51832
 30
0.0
 11
321.935475
 21
189.51832
 31
0.0
  0
LINE
  5
64
330
851
100
AcDbEntity
  8
V0-OBRYS
  6
CONTINUOUS
 62
    90
100
AcDbLine
 10
136.202709
 20
170.923929
 30
0.0
 11
321.935475
 21
170.923929
 31
0.0
  0
ARC
  5
D5
330
851
100
AcDbEntity
  8
V0-OBRYS
  6
CONTINUOUS
 62
    90
100
AcDbCircle
 10
129.163872
 20
116.301881
 30
0.0
 40
14.88
100
AcDbArc
 50
180.0
 51
270.0
  0
LINE
  5
D6
330
851
100
AcDbEntity
  8
V0-OBRYS
  6
CONTINUOUS
 62
    90
100
AcDbLine
 10
229.069092
 20
101.421881
 30
0.0
 11
129.163872
 21
101.421881
 31
0.0
  0
LINE
  5
D7
330
851
100
AcDbEntity
  8
V0-OBRYS
  6
CONTINUOUS
 62
    90
100
AcDbLine
 10
136.202709
 20
144.520344
 30
0.0
 11
136.202709
 21
143.032344
 31
0.0
  0
LINE
  5
D8
330
851
100
AcDbEntity
  8
V0-OBRYS
  6
CONTINUOUS
 62
    90
100
AcDbLine
 10
136.202709
 20
153.817539
 30
0.0
 11
136.202709
 21
152.329539
 31
0.0
  0
LINE
  5
D9
330
851
100
AcDbEntity
  8
V0-OBRYS
  6
CONTINUOUS
 62
    90
100
AcDbLine
 10
136.202709
 20
163.114734
 30
0.0
 11
136.202709
 21
161.626734
 31
0.0
  0
LINE
  5
DA
330
851
100
AcDbEntity
  8
V0-OBRYS
  6
CONTINUOUS
 62
    90
100
AcDbLine
 10
136.202709
 20
172.411929
 30
0.0
 11
136.202709
 21
170.923929
 31
0.0
  0
LINE
  5
DB
330
851
100
AcDbEntity
  8
V0-OBRYS
  6
CONTINUOUS
 62
    90
100
AcDbLine
 10
136.202709
 20
181.709124
 30
0.0
 11
136.202709
 21
180.221124
 31
0.0
  0
LINE
  5
DC
330
851
100
AcDbEntity
  8
V0-OBRYS
  6
CONTINUOUS
 62
    90
100
AcDbLine
 10
136.202709
 20
191.00632
 30
0.0
 11
136.202709
 21
189.51832
 31
0.0
  0
LINE
  5
DD
330
851
100
AcDbEntity
  8
V0-OBRYS
  6
CONTINUOUS
 62
    90
100
AcDbLine
 10
188.246658
 20
153.817539
 30
0.0
 11
188.246658
 21
161.626734
 31
0.0
  0
LINE
  5
DE
330
851
100
AcDbEntity
  8
V0-OBRYS
  6
CONTINUOUS
 62
    90
100
AcDbLine
 10
186.246658
 20
153.817539
 30
0.0
 11
186.246658
 21
161.626734
 31
0.0
  0
LINE
  5
DF
330
851
100
AcDbEntity
  8
V0-OBRYS
  6
CONTINUOUS
 62
    90
100
AcDbLine
 10
188.246658
 20
144.520344
 30
0.0
 11
188.246658
 21
152.329539
 31
0.0
  0
LINE
  5
E0
330
851
100
AcDbEntity
  8
V0-OBRYS
  6
CONTINUOUS
 62
    90
100
AcDbLine
 10
186.246658
 20
144.520344
 30
0.0
 11
186.246658
 21
152.329539
 31
0.0
  0
LINE
  5
E1
330
851
100
AcDbEntity
  8
V0-OBRYS
  6
CONTINUOUS
 62
    90
100
AcDbLine
 10
188.246658
 20
172.411929
 30
0.0
 11
188.246658
 21
180.221124
 31
0.0
  0
LINE
  5
E2
330
851
100
AcDbEntity
  8
V0-OBRYS
  6
CONTINUOUS
 62
    90
100
AcDbLine
 10
186.246658
 20
172.411929
 30
0.0
 11
186.246658
 21
180.221124
 31
0.0
  0
LINE
  5
E3
330
851
100
AcDbEntity
  8
V0-OBRYS
  6
CONTINUOUS
 62
    90
100
AcDbLine
 10
186.246658
 20
163.114734
 30
0.0
 11
186.246658
 21
170.923929
 31
0.0
  0
LINE
  5
E4
330
851
100
AcDbEntity
  8
V0-OBRYS
  6
CONTINUOUS
 62
    90
100
AcDbLine
 10
188.246658
 20
163.114734
 30
0.0
 11
188.246658
 21
170.923929
 31
0.0
  0
LINE
  5
E5
330
851
100
AcDbEntity
  8
V0-OBRYS
  6
CONTINUOUS
 62
    90
100
AcDbLine
 10
188.246658
 20
181.709124
 30
0.0
 11
188.246658
 21
189.51832
 31
0.0
  0
LINE
  5
E6
330
851
100
AcDbEntity
  8
V0-OBRYS
  6
CONTINUOUS
 62
    90
100
AcDbLine
 10
186.246658
 20
181.709124
 30
0.0
 11
186.246658
 21
189.51832
 31
0.0
  0
ARC
  5
E7
330
851
100
AcDbEntity
  8
V0-OBRYS
  6
CONTINUOUS
 62
    90
100
AcDbCircle
 10
328.974311
 20
116.301881
 30
0.0
 40
14.88
100
AcDbArc
 50
270.0
 51
0.0
  0
LINE
  5
E8
330
851
100
AcDbEntity
  8
V0-OBRYS
  6
CONTINUOUS
 62
    90
100
AcDbLine
 10
271.891526
 20
153.817539
 30
0.0
 11
271.891526
 21
161.626734
 31
0.0
  0
LINE
  5
E9
330
851
100
AcDbEntity
  8
V0-OBRYS
  6
CONTINUOUS
 62
    90
100
AcDbLine
 10
269.891526
 20
153.817539
 30
0.0
 11
269.891526
 21
161.626734
 31
0.0
  0
LINE
  5
EA
330
851
100
AcDbEntity
  8
V0-OBRYS
  6
CONTINUOUS
 62
    90
100
AcDbLine
 10
271.891526
 20
144.520344
 30
0.0
 11
271.891526
 21
152.329539
 31
0.0
  0
LINE
  5
EB
330
851
100
AcDbEntity
  8
V0-OBRYS
  6
CONTINUOUS
 62
    90
100
AcDbLine
 10
269.891526
 20
144.520344
 30
0.0
 11
269.891526
 21
152.329539
 31
0.0
  0
LINE
  5
EC
330
851
100
AcDbEntity
  8
V0-OBRYS
  6
CONTINUOUS
 62
    90
100
AcDbLine
 10
271.891526
 20
172.411929
 30
0.0
 11
271.891526
 21
180.221124
 31
0.0
  0
LINE
  5
ED
330
851
100
AcDbEntity
  8
V0-OBRYS
  6
CONTINUOUS
 62
    90
100
AcDbLine
 10
269.891526
 20
172.411929
 30
0.0
 11
269.891526
 21
180.221124
 31
0.0
  0
LINE
  5
EE
330
851
100
AcDbEntity
  8
V0-OBRYS
  6
CONTINUOUS
 62
    90
100
AcDbLine
 10
269.891526
 20
163.114734
 30
0.0
 11
269.891526
 21
170.923929
 31
0.0
  0
LINE
  5
EF
330
851
100
AcDbEntity
  8
V0-OBRYS
  6
CONTINUOUS
 62
    90
100
AcDbLine
 10
271.891526
 20
163.114734
 30
0.0
 11
271.891526
 21
170.923929
 31
0.0
  0
LINE
  5
F0
330
851
100
AcDbEntity
  8
V0-OBRYS
  6
CONTINUOUS
 62
    90
100
AcDbLine
 10
271.891526
 20
181.709124
 30
0.0
 11
271.891526
 21
189.51832
 31
0.0
  0
LINE
  5
F1
330
851
100
AcDbEntity
  8
V0-OBRYS
  6
CONTINUOUS
 62
    90
100
AcDbLine
 10
269.891526
 20
181.709124
 30
0.0
 11
269.891526
 21
189.51832
 31
0.0
  0
LINE
  5
F2
330
851
100
AcDbEntity
  8
V0-OBRYS
  6
CONTINUOUS
 62
    90
100
AcDbLine
 10
321.935475
 20
172.411929
 30
0.0
 11
321.935475
 21
170.923929
 31
0.0
  0
LINE
  5
F3
330
851
100
AcDbEntity
  8
V0-OBRYS
  6
CONTINUOUS
 62
    90
100
AcDbLine
 10
321.935475
 20
163.114734
 30
0.0
 11
321.935475
 21
161.626734
 31
0.0
  0
LINE
  5
F4
330
851
100
AcDbEntity
  8
V0-OBRYS
  6
CONTINUOUS
 62
    90
100
AcDbLine
 10
321.935475
 20
191.00632
 30
0.0
 11
321.935475
 21
189.51832
 31
0.0
  0
LINE
  5
F5
330
851
100
AcDbEntity
  8
V0-OBRYS
  6
CONTINUOUS
 62
    90
100
AcDbLine
 10
321.935475
 20
181.709124
 30
0.0
 11
321.935475
 21
180.221124
 31
0.0
  0
LINE
  5
F6
330
851
100
AcDbEntity
  8
V0-OBRYS
  6
CONTINUOUS
 62
    90
100
AcDbLine
 10
136.202709
 20
227.335515
 30
0.0
 11
321.935475
 21
227.335515
 31
0.0
  0
LINE
  5
F7
330
851
100
AcDbEntity
  8
V0-OBRYS
  6
CONTINUOUS
 62
    90
100
AcDbLine
 10
136.202709
 20
225.847515
 30
0.0
 11
321.935475
 21
225.847515
 31
0.0
  0
DIMENSION
  5
F8
330
851
100
AcDbEntity
  8
V0-VYPLNE
  6
DASHED
 62
    41
100
AcDbDimension
  2
*D6
 10
136.297897
 20
206.249696
 30
0.0
 11
377.056547
 21
259.340496
 31
0.0
 70
   163
  3
ED10
100
AcDbDiametricDimension
 15
321.840287
 25
247.164504
 35
0.0
 40
0.0
1001
ACAD
1000
DSTYLE
1002
{
1070
    40
1040
1.0
1002
}
  0
LINE
  5
104
330
851
100
AcDbEntity
  8
V0-OBRYS
  6
CONTINUOUS
 62
    90
100
AcDbLine
 10
136.202709
 20
290.299466
 30
0.0
 11
321.935475
 21
290.299466
 31
0.0
  0
LINE
  5
105
330
851
100
AcDbEntity
  8
V0-OBRYS
  6
CONTINUOUS
 62
    90
100
AcDbLine
 10
136.202709
 20
299.596661
 30
0.0
 11
321.935475
 21
299.596661
 31
0.0
  0
LINE
  5
106
330
851
100
AcDbEntity
  8
V0-OBRYS
  6
CONTINUOUS
 62
    90
100
AcDbLine
 10
136.202709
 20
308.893856
 30
0.0
 11
321.935475
 21
308.893856
 31
0.0
  0
LINE
  5
107
330
851
100
AcDbEntity
  8
V0-OBRYS
  6
CONTINUOUS
 62
    90
100
AcDbLine
 10
136.202709
 20
301.084661
 30
0.0
 11
321.935475
 21
301.084661
 31
0.0
  0
LINE
  5
108
330
851
100
AcDbEntity
  8
V0-OBRYS
  6
CONTINUOUS
 62
    90
100
AcDbLine
 10
136.202709
 20
291.787466
 30
0.0
 11
321.935475
 21
291.787466
 31
0.0
  0
LINE
  5
109
330
851
100
AcDbEntity
  8
V0-OBRYS
  6
CONTINUOUS
 62
    90
100
AcDbLine
 10
136.202709
 20
310.381856
 30
0.0
 11
321.935475
 21
310.381856
 31
0.0
  0
LINE
  5
10A
330
851
100
AcDbEntity
  8
V0-OBRYS
  6
CONTINUOUS
 62
    90
100
AcDbLine
 10
136.202709
 20
200.303515
 30
0.0
 11
321.935475
 21
200.303515
 31
0.0
  0
LINE
  5
10B
330
851
100
AcDbEntity
  8
V0-OBRYS
  6
CONTINUOUS
 62
    90
100
AcDbLine
 10
136.202709
 20
209.60071
 30
0.0
 11
321.935475
 21
209.60071
 31
0.0
  0
LINE
  5
10C
330
851
100
AcDbEntity
  8
V0-OBRYS
  6
CONTINUOUS
 62
    90
100
AcDbLine
 10
136.202709
 20
218.897905
 30
0.0
 11
321.935475
 21
218.897905
 31
0.0
  0
LINE
  5
10D
330
851
100
AcDbEntity
  8
V0-OBRYS
  6
CONTINUOUS
 62
    90
100
AcDbLine
 10
136.202709
 20
208.11271
 30
0.0
 11
321.935475
 21
208.11271
 31
0.0
  0
LINE
  5
10E
330
851
100
AcDbEntity
  8
V0-OBRYS
  6
CONTINUOUS
 62
    90
100
AcDbLine
 10
136.202709
 20
217.409905
 30
0.0
 11
321.935475
 21
217.409905
 31
0.0
  0
LINE
  5
10F
330
851
100
AcDbEntity
  8
V0-OBRYS
  6
CONTINUOUS
 62
    90
100
AcDbLine
 10
136.202709
 20
198.815515
 30
0.0
 11
321.935475
 21
198.815515
 31
0.0
  0
LINE
  5
110
330
851
100
AcDbEntity
  8
V0-OBRYS
  6
CONTINUOUS
 62
    90
100
AcDbLine
 10
136.202709
 20
234.516295
 30
0.0
 11
321.935475
 21
234.516295
 31
0.0
  0
LINE
  5
111
330
851
100
AcDbEntity
  8
V0-OBRYS
  6
CONTINUOUS
 62
    90
100
AcDbLine
 10
136.202709
 20
243.81349
 30
0.0
 11
321.935475
 21
243.81349
 31
0.0
  0
LINE
  5
112
330
851
100
AcDbEntity
  8
V0-OBRYS
  6
CONTINUOUS
 62
    90
100
AcDbLine
 10
136.202709
 20
253.110685
 30
0.0
 11
321.935475
 21
253.110685
 31
0.0
  0
LINE
  5
113
330
851
100
AcDbEntity
  8
V0-OBRYS
  6
CONTINUOUS
 62
    90
100
AcDbLine
 10
136.202709
 20
262.40788
 30
0.0
 11
321.935475
 21
262.40788
 31
0.0
  0
LINE
  5
114
330
851
100
AcDbEntity
  8
V0-OBRYS
  6
CONTINUOUS
 62
    90
100
AcDbLine
 10
136.202709
 20
254.598685
 30
0.0
 11
321.935475
 21
254.598685
 31
0.0
  0
LINE
  5
115
330
851
100
AcDbEntity
  8
V0-OBRYS
  6
CONTINUOUS
 62
    90
100
AcDbLine
 10
136.202709
 20
236.004295
 30
0.0
 11
321.935475
 21
236.004295
 31
0.0
  0
LINE
  5
116
330
851
100
AcDbEntity
  8
V0-OBRYS
  6
CONTINUOUS
 62
    90
100
AcDbLine
 10
136.202709
 20
245.30149
 30
0.0
 11
321.935475
 21
245.30149
 31
0.0
  0
LINE
  5
117
330
851
100
AcDbEntity
  8
V0-OBRYS
  6
CONTINUOUS
 62
    90
100
AcDbLine
 10
136.202709
 20
263.89588
 30
0.0
 11
321.935475
 21
263.89588
 31
0.0
  0
LINE
  5
118
330
851
100
AcDbEntity
  8
V0-OBRYS
  6
CONTINUOUS
 62
    90
100
AcDbLine
 10
136.202709
 20
262.40788
 30
0.0
 11
321.935475
 21
262.40788
 31
0.0
  0
LINE
  5
119
330
851
100
AcDbEntity
  8
V0-OBRYS
  6
CONTINUOUS
 62
    90
100
AcDbLine
 10
136.202709
 20
271.705076
 30
0.0
 11
321.935475
 21
271.705076
 31
0.0
  0
LINE
  5
11A
330
851
100
AcDbEntity
  8
V0-OBRYS
  6
CONTINUOUS
 62
    90
100
AcDbLine
 10
136.202709
 20
281.002271
 30
0.0
 11
321.935475
 21
281.002271
 31
0.0
  0
LINE
  5
11B
330
851
100
AcDbEntity
  8
V0-OBRYS
  6
CONTINUOUS
 62
    90
100
AcDbLine
 10
136.202709
 20
290.299466
 30
0.0
 11
321.935475
 21
290.299466
 31
0.0
  0
LINE
  5
11C
330
851
100
AcDbEntity
  8
V0-OBRYS
  6
CONTINUOUS
 62
    90
100
AcDbLine
 10
229.069092
 20
351.992319
 30
0.0
 11
328.974311
 21
351.992319
 31
0.0
  0
LINE
  5
11E
330
851
100
AcDbEntity
  8
V0-VYPLNE
  6
DASHDOT
 62
    63
100
AcDbLine
 10
93.830043
 20
226.580129
 30
0.0
 11
372.732522
 21
226.580129
 31
0.0
  0
LINE
  5
11F
330
851
100
AcDbEntity
  8
V0-OBRYS
  6
CONTINUOUS
 62
    90
100
AcDbLine
 10
136.202709
 20
282.490271
 30
0.0
 11
321.935475
 21
282.490271
 31
0.0
  0
LINE
  5
120
330
851
100
AcDbEntity
  8
V0-OBRYS
  6
CONTINUOUS
 62
    90
100
AcDbLine
 10
136.202709
 20
263.89588
 30
0.0
 11
321.935475
 21
263.89588
 31
0.0
  0
LINE
  5
121
330
851
100
AcDbEntity
  8
V0-OBRYS
  6
CONTINUOUS
 62
    90
100
AcDbLine
 10
136.202709
 20
273.193076
 30
0.0
 11
321.935475
 21
273.193076
 31
0.0
  0
LINE
  5
122
330
851
100
AcDbEntity
  8
V0-OBRYS
  6
CONTINUOUS
 62
    90
100
AcDbLine
 10
136.202709
 20
291.787466
 30
0.0
 11
321.935475
 21
291.787466
 31
0.0
  0
ARC
  5
180
330
851
100
AcDbEntity
  8
V0-OBRYS
  6
CONTINUOUS
 62
    90
100
AcDbCircle
 10
129.163872
 20
337.112319
 30
0.0
 40
14.88
100
AcDbArc
 50
90.0
 51
180.0
  0
LINE
  5
181
330
851
100
AcDbEntity
  8
V0-OBRYS
  6
CONTINUOUS
 62
    90
100
AcDbLine
 10
188.246658
 20
263.89588
 30
0.0
 11
188.246658
 21
271.705076
 31
0.0
  0
LINE
  5
182
330
851
100
AcDbEntity
  8
V0-OBRYS
  6
CONTINUOUS
 62
    90
100
AcDbLine
 10
186.246658
 20
263.89588
 30
0.0
 11
186.246658
 21
271.705076
 31
0.0
  0
LINE
  5
183
330
851
100
AcDbEntity
  8
V0-OBRYS
  6
CONTINUOUS
 62
    90
100
AcDbLine
 10
114.283872
 20
226.7071
 30
0.0
 11
114.283872
 21
337.112319
 31
0.0
  0
LINE
  5
184
330
851
100
AcDbEntity
  8
V0-OBRYS
  6
CONTINUOUS
 62
    90
100
AcDbLine
 10
136.202709
 20
209.60071
 30
0.0
 11
136.202709
 21
208.11271
 31
0.0
  0
LINE
  5
185
330
851
100
AcDbEntity
  8
V0-OBRYS
  6
CONTINUOUS
 62
    90
100
AcDbLine
 10
136.202709
 20
200.303515
 30
0.0
 11
136.202709
 21
198.815515
 31
0.0
  0
LINE
  5
186
330
851
100
AcDbEntity
  8
V0-OBRYS
  6
CONTINUOUS
 62
    90
100
AcDbLine
 10
136.202709
 20
227.335515
 30
0.0
 11
136.202709
 21
225.847515
 31
0.0
  0
LINE
  5
187
330
851
100
AcDbEntity
  8
V0-OBRYS
  6
CONTINUOUS
 62
    90
100
AcDbLine
 10
136.202709
 20
218.897905
 30
0.0
 11
136.202709
 21
217.409905
 31
0.0
  0
LINE
  5
188
330
851
100
AcDbEntity
  8
V0-OBRYS
  6
CONTINUOUS
 62
    90
100
AcDbLine
 10
136.202709
 20
236.004295
 30
0.0
 11
136.202709
 21
234.516295
 31
0.0
  0
LINE
  5
189
330
851
100
AcDbEntity
  8
V0-OBRYS
  6
CONTINUOUS
 62
    90
100
AcDbLine
 10
136.202709
 20
245.30149
 30
0.0
 11
136.202709
 21
243.81349
 31
0.0
  0
LINE
  5
18A
330
851
100
AcDbEntity
  8
V0-OBRYS
  6
CONTINUOUS
 62
    90
100
AcDbLine
 10
136.202709
 20
254.598685
 30
0.0
 11
136.202709
 21
253.110685
 31
0.0
  0
LINE
  5
18B
330
851
100
AcDbEntity
  8
V0-OBRYS
  6
CONTINUOUS
 62
    90
100
AcDbLine
 10
136.202709
 20
263.89588
 30
0.0
 11
136.202709
 21
262.40788
 31
0.0
  0
LINE
  5
18C
330
851
100
AcDbEntity
  8
V0-OBRYS
  6
CONTINUOUS
 62
    90
100
AcDbLine
 10
136.202709
 20
263.89588
 30
0.0
 11
136.202709
 21
262.40788
 31
0.0
  0
LINE
  5
18D
330
851
100
AcDbEntity
  8
V0-OBRYS
  6
CONTINUOUS
 62
    90
100
AcDbLine
 10
188.246658
 20
227.335515
 30
0.0
 11
188.246658
 21
234.516295
 31
0.0
  0
LINE
  5
18E
330
851
100
AcDbEntity
  8
V0-OBRYS
  6
CONTINUOUS
 62
    90
100
AcDbLine
 10
186.246658
 20
227.335515
 30
0.0
 11
186.246658
 21
234.516295
 31
0.0
  0
POINT
  5
18F
330
851
100
AcDbEntity
  8
V0-VYPLNE
  6
CONTINUOUS
 62
    52
100
AcDbPoint
 10
229.069092
 20
226.7071
 30
0.0
  0
LINE
  5
190
330
851
100
AcDbEntity
  8
V0-OBRYS
  6
CONTINUOUS
 62
    90
100
AcDbLine
 10
186.246658
 20
209.60071
 30
0.0
 11
186.246658
 21
217.409905
 31
0.0
  0
LINE
  5
191
330
851
100
AcDbEntity
  8
V0-OBRYS
  6
CONTINUOUS
 62
    90
100
AcDbLine
 10
188.246658
 20
209.60071
 30
0.0
 11
188.246658
 21
217.409905
 31
0.0
  0
LINE
  5
192
330
851
100
AcDbEntity
  8
V0-OBRYS
  6
CONTINUOUS
 62
    90
100
AcDbLine
 10
188.246658
 20
200.303515
 30
0.0
 11
188.246658
 21
208.11271
 31
0.0
  0
LINE
  5
193
330
851
100
AcDbEntity
  8
V0-OBRYS
  6
CONTINUOUS
 62
    90
100
AcDbLine
 10
186.246658
 20
200.303515
 30
0.0
 11
186.246658
 21
208.11271
 31
0.0
  0
LINE
  5
194
330
851
100
AcDbEntity
  8
V0-OBRYS
  6
CONTINUOUS
 62
    90
100
AcDbLine
 10
188.246658
 20
218.897905
 30
0.0
 11
188.246658
 21
225.847515
 31
0.0
  0
LINE
  5
195
330
851
100
AcDbEntity
  8
V0-OBRYS
  6
CONTINUOUS
 62
    90
100
AcDbLine
 10
186.246658
 20
218.897905
 30
0.0
 11
186.246658
 21
225.847515
 31
0.0
  0
LINE
  5
196
330
851
100
AcDbEntity
  8
V0-OBRYS
  6
CONTINUOUS
 62
    90
100
AcDbLine
 10
188.246658
 20
245.30149
 30
0.0
 11
188.246658
 21
253.110685
 31
0.0
  0
LINE
  5
197
330
851
100
AcDbEntity
  8
V0-OBRYS
  6
CONTINUOUS
 62
    90
100
AcDbLine
 10
186.246658
 20
245.30149
 30
0.0
 11
186.246658
 21
253.110685
 31
0.0
  0
LINE
  5
198
330
851
100
AcDbEntity
  8
V0-OBRYS
  6
CONTINUOUS
 62
    90
100
AcDbLine
 10
186.246658
 20
236.004295
 30
0.0
 11
186.246658
 21
243.81349
 31
0.0
  0
LINE
  5
199
330
851
100
AcDbEntity
  8
V0-OBRYS
  6
CONTINUOUS
 62
    90
100
AcDbLine
 10
188.246658
 20
236.004295
 30
0.0
 11
188.246658
 21
243.81349
 31
0.0
  0
LINE
  5
19A
330
851
100
AcDbEntity
  8
V0-OBRYS
  6
CONTINUOUS
 62
    90
100
AcDbLine
 10
186.246658
 20
254.598685
 30
0.0
 11
186.246658
 21
262.40788
 31
0.0
  0
LINE
  5
19B
330
851
100
AcDbEntity
  8
V0-OBRYS
  6
CONTINUOUS
 62
    90
100
AcDbLine
 10
188.246658
 20
254.598685
 30
0.0
 11
188.246658
 21
262.40788
 31
0.0
  0
LINE
  5
19C
330
851
100
AcDbEntity
  8
V0-OBRYS
  6
CONTINUOUS
 62
    90
100
AcDbLine
 10
136.202709
 20
273.193076
 30
0.0
 11
136.202709
 21
271.705076
 31
0.0
  0
LINE
  5
19D
330
851
100
AcDbEntity
  8
V0-OBRYS
  6
CONTINUOUS
 62
    90
100
AcDbLine
 10
136.202709
 20
282.490271
 30
0.0
 11
136.202709
 21
281.002271
 31
0.0
  0
LINE
  5
19E
330
851
100
AcDbEntity
  8
V0-OBRYS
  6
CONTINUOUS
 62
    90
100
AcDbLine
 10
136.202709
 20
301.084661
 30
0.0
 11
136.202709
 21
299.596661
 31
0.0
  0
LINE
  5
19F
330
851
100
AcDbEntity
  8
V0-OBRYS
  6
CONTINUOUS
 62
    90
100
AcDbLine
 10
136.202709
 20
291.787466
 30
0.0
 11
136.202709
 21
290.299466
 31
0.0
  0
LINE
  5
1A0
330
851
100
AcDbEntity
  8
V0-OBRYS
  6
CONTINUOUS
 62
    90
100
AcDbLine
 10
136.202709
 20
291.787466
 30
0.0
 11
136.202709
 21
290.299466
 31
0.0
  0
LINE
  5
1A1
330
851
100
AcDbEntity
  8
V0-OBRYS
  6
CONTINUOUS
 62
    90
100
AcDbLine
 10
177.504799
 20
282.490271
 30
0.0
 11
177.604507
 21
282.490271
 31
0.0
  0
LINE
  5
1A2
330
851
100
AcDbEntity
  8
V0-OBRYS
  6
CONTINUOUS
 62
    90
100
AcDbLine
 10
136.202709
 20
310.381856
 30
0.0
 11
136.202709
 21
308.893856
 31
0.0
  0
LINE
  5
1A3
330
851
100
AcDbEntity
  8
V0-OBRYS
  6
CONTINUOUS
 62
    90
100
AcDbLine
 10
188.246658
 20
301.084661
 30
0.0
 11
188.246658
 21
308.893856
 31
0.0
  0
LINE
  5
1A4
330
851
100
AcDbEntity
  8
V0-OBRYS
  6
CONTINUOUS
 62
    90
100
AcDbLine
 10
186.246658
 20
301.084661
 30
0.0
 11
186.246658
 21
308.893856
 31
0.0
  0
LINE
  5
1A5
330
851
100
AcDbEntity
  8
V0-OBRYS
  6
CONTINUOUS
 62
    90
100
AcDbLine
 10
188.246658
 20
282.490271
 30
0.0
 11
188.246658
 21
290.299466
 31
0.0
  0
LINE
  5
1A6
330
851
100
AcDbEntity
  8
V0-OBRYS
  6
CONTINUOUS
 62
    90
100
AcDbLine
 10
186.246658
 20
282.490271
 30
0.0
 11
186.246658
 21
290.299466
 31
0.0
  0
LINE
  5
1A7
330
851
100
AcDbEntity
  8
V0-OBRYS
  6
CONTINUOUS
 62
    90
100
AcDbLine
 10
186.246658
 20
273.193076
 30
0.0
 11
186.246658
 21
281.002271
 31
0.0
  0
LINE
  5
1A8
330
851
100
AcDbEntity
  8
V0-OBRYS
  6
CONTINUOUS
 62
    90
100
AcDbLine
 10
188.246658
 20
273.193076
 30
0.0
 11
188.246658
 21
281.002271
 31
0.0
  0
LINE
  5
1A9
330
851
100
AcDbEntity
  8
V0-OBRYS
  6
CONTINUOUS
 62
    90
100
AcDbLine
 10
186.246658
 20
291.787466
 30
0.0
 11
186.246658
 21
299.596661
 31
0.0
  0
LINE
  5
1AA
330
851
100
AcDbEntity
  8
V0-OBRYS
  6
CONTINUOUS
 62
    90
100
AcDbLine
 10
188.246658
 20
291.787466
 30
0.0
 11
188.246658
 21
299.596661
 31
0.0
  0
LINE
  5
1AB
330
851
100
AcDbEntity
  8
V0-OBRYS
  6
CONTINUOUS
 62
    90
100
AcDbLine
 10
227.581092
 20
351.992319
 30
0.0
 11
129.163872
 21
351.992319
 31
0.0
  0
ARC
  5
1AC
330
851
100
AcDbEntity
  8
V0-OBRYS
  6
CONTINUOUS
 62
    90
100
AcDbCircle
 10
328.974311
 20
337.112319
 30
0.0
 40
14.88
100
AcDbArc
 50
360.0
 51
90.0
  0
LINE
  5
1AD
330
851
100
AcDbEntity
  8
V0-OBRYS
  6
CONTINUOUS
 62
    90
100
AcDbLine
 10
271.891526
 20
263.89588
 30
0.0
 11
271.891526
 21
271.705076
 31
0.0
  0
LINE
  5
1AE
330
851
100
AcDbEntity
  8
V0-OBRYS
  6
CONTINUOUS
 62
    90
100
AcDbLine
 10
269.891526
 20
263.89588
 30
0.0
 11
269.891526
 21
271.705076
 31
0.0
  0
LINE
  5
1AF
330
851
100
AcDbEntity
  8
V0-OBRYS
  6
CONTINUOUS
 62
    90
100
AcDbLine
 10
343.854311
 20
228.1951
 30
0.0
 11
343.854311
 21
337.112319
 31
0.0
  0
LINE
  5
1B0
330
851
100
AcDbEntity
  8
V0-OBRYS
  6
CONTINUOUS
 62
    90
100
AcDbLine
 10
271.891526
 20
227.335515
 30
0.0
 11
271.891526
 21
234.516295
 31
0.0
  0
LINE
  5
1B1
330
851
100
AcDbEntity
  8
V0-OBRYS
  6
CONTINUOUS
 62
    90
100
AcDbLine
 10
269.891526
 20
227.335515
 30
0.0
 11
269.891526
 21
234.516295
 31
0.0
  0
LINE
  5
1B2
330
851
100
AcDbEntity
  8
V0-OBRYS
  6
CONTINUOUS
 62
    90
100
AcDbLine
 10
269.891526
 20
209.60071
 30
0.0
 11
269.891526
 21
217.409905
 31
0.0
  0
LINE
  5
1B3
330
851
100
AcDbEntity
  8
V0-OBRYS
  6
CONTINUOUS
 62
    90
100
AcDbLine
 10
271.891526
 20
209.60071
 30
0.0
 11
271.891526
 21
217.409905
 31
0.0
  0
LINE
  5
1B4
330
851
100
AcDbEntity
  8
V0-OBRYS
  6
CONTINUOUS
 62
    90
100
AcDbLine
 10
271.891526
 20
200.303515
 30
0.0
 11
271.891526
 21
208.11271
 31
0.0
  0
LINE
  5
1B5
330
851
100
AcDbEntity
  8
V0-OBRYS
  6
CONTINUOUS
 62
    90
100
AcDbLine
 10
269.891526
 20
200.303515
 30
0.0
 11
269.891526
 21
208.11271
 31
0.0
  0
LINE
  5
1B6
330
851
100
AcDbEntity
  8
V0-OBRYS
  6
CONTINUOUS
 62
    90
100
AcDbLine
 10
271.891526
 20
218.897905
 30
0.0
 11
271.891526
 21
225.847515
 31
0.0
  0
LINE
  5
1B7
330
851
100
AcDbEntity
  8
V0-OBRYS
  6
CONTINUOUS
 62
    90
100
AcDbLine
 10
269.891526
 20
218.897905
 30
0.0
 11
269.891526
 21
225.847515
 31
0.0
  0
LINE
  5
1B8
330
851
100
AcDbEntity
  8
V0-OBRYS
  6
CONTINUOUS
 62
    90
100
AcDbLine
 10
271.891526
 20
245.30149
 30
0.0
 11
271.891526
 21
253.110685
 31
0.0
  0
LINE
  5
1B9
330
851
100
AcDbEntity
  8
V0-OBRYS
  6
CONTINUOUS
 62
    90
100
AcDbLine
 10
269.891526
 20
245.30149
 30
0.0
 11
269.891526
 21
253.110685
 31
0.0
  0
LINE
  5
1BA
330
851
100
AcDbEntity
  8
V0-OBRYS
  6
CONTINUOUS
 62
    90
100
AcDbLine
 10
269.891526
 20
236.004295
 30
0.0
 11
269.891526
 21
243.81349
 31
0.0
  0
LINE
  5
1BB
330
851
100
AcDbEntity
  8
V0-OBRYS
  6
CONTINUOUS
 62
    90
100
AcDbLine
 10
271.891526
 20
236.004295
 30
0.0
 11
271.891526
 21
243.81349
 31
0.0
  0
LINE
  5
1BC
330
851
100
AcDbEntity
  8
V0-OBRYS
  6
CONTINUOUS
 62
    90
100
AcDbLine
 10
269.891526
 20
254.598685
 30
0.0
 11
269.891526
 21
262.40788
 31
0.0
  0
LINE
  5
1BD
330
851
100
AcDbEntity
  8
V0-OBRYS
  6
CONTINUOUS
 62
    90
100
AcDbLine
 10
271.891526
 20
254.598685
 30
0.0
 11
271.891526
 21
262.40788
 31
0.0
  0
LINE
  5
1BE
330
851
100
AcDbEntity
  8
V0-OBRYS
  6
CONTINUOUS
 62
    90
100
AcDbLine
 10
321.935475
 20
200.303515
 30
0.0
 11
321.935475
 21
198.815515
 31
0.0
  0
LINE
  5
1BF
330
851
100
AcDbEntity
  8
V0-OBRYS
  6
CONTINUOUS
 62
    90
100
AcDbLine
 10
321.935475
 20
209.60071
 30
0.0
 11
321.935475
 21
208.11271
 31
0.0
  0
LINE
  5
1C0
330
851
100
AcDbEntity
  8
V0-OBRYS
  6
CONTINUOUS
 62
    90
100
AcDbLine
 10
321.935475
 20
227.335515
 30
0.0
 11
321.935475
 21
225.847515
 31
0.0
  0
LINE
  5
1C1
330
851
100
AcDbEntity
  8
V0-OBRYS
  6
CONTINUOUS
 62
    90
100
AcDbLine
 10
321.935475
 20
217.409905
 30
0.0
 11
321.935475
 21
218.897905
 31
0.0
  0
LINE
  5
1C2
330
851
100
AcDbEntity
  8
V0-OBRYS
  6
CONTINUOUS
 62
    90
100
AcDbLine
 10
321.935475
 20
236.004295
 30
0.0
 11
321.935475
 21
234.516295
 31
0.0
  0
LINE
  5
1C3
330
851
100
AcDbEntity
  8
V0-OBRYS
  6
CONTINUOUS
 62
    90
100
AcDbLine
 10
321.935475
 20
243.81349
 30
0.0
 11
321.935475
 21
245.30149
 31
0.0
  0
LINE
  5
1C4
330
851
100
AcDbEntity
  8
V0-OBRYS
  6
CONTINUOUS
 62
    90
100
AcDbLine
 10
321.935475
 20
254.598685
 30
0.0
 11
321.935475
 21
253.110685
 31
0.0
  0
LINE
  5
1C5
330
851
100
AcDbEntity
  8
V0-OBRYS
  6
CONTINUOUS
 62
    90
100
AcDbLine
 10
321.935475
 20
263.89588
 30
0.0
 11
321.935475
 21
262.40788
 31
0.0
  0
LINE
  5
1C6
330
851
100
AcDbEntity
  8
V0-OBRYS
  6
CONTINUOUS
 62
    90
100
AcDbLine
 10
271.891526
 20
301.084661
 30
0.0
 11
271.891526
 21
308.893856
 31
0.0
  0
LINE
  5
1C7
330
851
100
AcDbEntity
  8
V0-OBRYS
  6
CONTINUOUS
 62
    90
100
AcDbLine
 10
269.891526
 20
301.084661
 30
0.0
 11
269.891526
 21
308.893856
 31
0.0
  0
LINE
  5
1C8
330
851
100
AcDbEntity
  8
V0-OBRYS
  6
CONTINUOUS
 62
    90
100
AcDbLine
 10
271.891526
 20
282.490271
 30
0.0
 11
271.891526
 21
290.299466
 31
0.0
  0
LINE
  5
1C9
330
851
100
AcDbEntity
  8
V0-OBRYS
  6
CONTINUOUS
 62
    90
100
AcDbLine
 10
269.891526
 20
282.490271
 30
0.0
 11
269.891526
 21
290.299466
 31
0.0
  0
LINE
  5
1CA
330
851
100
AcDbEntity
  8
V0-OBRYS
  6
CONTINUOUS
 62
    90
100
AcDbLine
 10
269.891526
 20
273.193076
 30
0.0
 11
269.891526
 21
281.002271
 31
0.0
  0
LINE
  5
1CB
330
851
100
AcDbEntity
  8
V0-OBRYS
  6
CONTINUOUS
 62
    90
100
AcDbLine
 10
271.891526
 20
273.193076
 30
0.0
 11
271.891526
 21
281.002271
 31
0.0
  0
LINE
  5
1CC
330
851
100
AcDbEntity
  8
V0-OBRYS
  6
CONTINUOUS
 62
    90
100
AcDbLine
 10
269.891526
 20
291.787466
 30
0.0
 11
269.891526
 21
299.596661
 31
0.0
  0
LINE
  5
1CD
330
851
100
AcDbEntity
  8
V0-OBRYS
  6
CONTINUOUS
 62
    90
100
AcDbLine
 10
271.891526
 20
291.787466
 30
0.0
 11
271.891526
 21
299.596661
 31
0.0
  0
LINE
  5
1CE
330
851
100
AcDbEntity
  8
V0-OBRYS
  6
CONTINUOUS
 62
    90
100
AcDbLine
 10
280.633384
 20
282.490271
 30
0.0
 11
280.533676
 21
282.490271
 31
0.0
  0
LINE
  5
1CF
330
851
100
AcDbEntity
  8
V0-OBRYS
  6
CONTINUOUS
 62
    90
100
AcDbLine
 10
321.935475
 20
282.490271
 30
0.0
 11
321.935475
 21
281.002271
 31
0.0
  0
LINE
  5
1D0
330
851
100
AcDbEntity
  8
V0-OBRYS
  6
CONTINUOUS
 62
    90
100
AcDbLine
 10
321.935475
 20
273.193076
 30
0.0
 11
321.935475
 21
271.705076
 31
0.0
  0
LINE
  5
1D1
330
851
100
AcDbEntity
  8
V0-OBRYS
  6
CONTINUOUS
 62
    90
100
AcDbLine
 10
321.935475
 20
291.787466
 30
0.0
 11
321.935475
 21
290.299466
 31
0.0
  0
LINE
  5
276
330
851
100
AcDbEntity
  8
V0-VYPLNE
  6
DASHDOT
 62
    63
100
AcDbLine
 10
-1.082278
 20
226.7071
 30
0.0
 11
-180.603724
 21
226.7071
 31
0.0
  0
LINE
  5
277
330
851
100
AcDbEntity
  8
V0-OBRYS
  6
CONTINUOUS
 62
    90
 48
5.0
100
AcDbLine
 10
-165.863579
 20
352.021148
 30
0.0
 11
-42.27739700000001
 21
352.021148
 31
0.0
  0
DIMENSION
  5
278
330
851
100
AcDbEntity
  8
V0-VYPLNE
  6
CONTINUOUS
 62
    41
100
AcDbDimension
  2
*D7
 10
-55.001414
 20
70.96310000000032
 30
0.0
 11
10.125501
 21
70.9631
 31
0.0
 70
   160
  3
ED10
100
AcDbAlignedDimension
 13
-33.229026
 23
129.540132
 33
0.0
 14
-55.001414
 24
101.393052
 34
0.0
100
AcDbRotatedDimension
1001
ACAD
1000
DSTYLE
1002
{
1070
    40
1040
1.0
1002
}
  0
DIMENSION
  5
279
330
851
100
AcDbEntity
  8
V0-VYPLNE
  6
CONTINUOUS
 62
    41
100
AcDbDimension
  2
*D8
 10
-57.001414
 20
39.96309999999994
 30
0.0
 11
16.9128
 21
39.9631
 31
0.0
 70
   160
  1
3 az 25
  3
ED10
100
AcDbAlignedDimension
 13
-55.001414
 23
101.393052
 33
0.0
 14
-57.001414
 24
101.393052
 34
0.0
100
AcDbRotatedDimension
1001
ACAD
1000
DSTYLE
1002
{
1070
    40
1040
1.0
1002
}
  0
LINE
  5
27A
330
851
100
AcDbEntity
  8
V0-OBRYS
  6
CONTINUOUS
 62
    90
 48
5.0
100
AcDbLine
 10
-42.277397
 20
101.393052
 30
0.0
 11
-165.863579
 21
101.393052
 31
0.0
  0
LINE
  5
27B
330
851
100
AcDbEntity
  8
V0-OBRYS
  6
CONTINUOUS
 62
    90
 48
5.0
100
AcDbLine
 10
-165.863579
 20
-35.768138
 30
0.0
 11
-42.27739700000001
 21
-35.768138
 31
0.0
  0
LINE
  5
27D
330
851
100
AcDbEntity
  8
V0-VYPLNE
  6
DASHDOT
 62
    63
100
AcDbLine
 10
-1.082278
 20
-161.082186
 30
0.0
 11
-180.603724
 21
-161.082186
 31
0.0
  0
LINE
  5
27E
330
851
100
AcDbEntity
  8
V0-OBRYS
  6
CONTINUOUS
 62
    90
 48
5.0
100
AcDbLine
 10
-42.277397
 20
-286.396234
 30
0.0
 11
-165.863579
 21
-286.396234
 31
0.0
  0
LINE
  5
27F
330
851
100
AcDbEntity
  8
V0-OBRYS
  6
CONTINUOUS
 62
    90
100
AcDbLine
 10
-35.441414
 20
-124.626186
 30
0.0
 11
-35.441414
 21
-244.890876
 31
0.0
  0
ARC
  5
280
330
851
100
AcDbEntity
  8
V0-OBRYS
  6
CONTINUOUS
 62
    90
100
AcDbCircle
 10
-1493.95292
 20
-161.543097
 30
0.0
 40
1463.855847
100
AcDbArc
 50
355.373845
 51
1.445093
  0
ARC
  5
281
330
851
100
AcDbEntity
  8
V0-OBRYS
  6
CONTINUOUS
 62
    90
100
AcDbCircle
 10
-42.277397
 20
-278.956234
 30
0.0
 40
7.44
100
AcDbArc
 50
270.0
 51
354.967741
  0
LINE
  5
282
330
851
100
AcDbEntity
  8
V0-OBRYS
  6
CONTINUOUS
 62
    90
100
AcDbLine
 10
-35.441414
 20
-244.890876
 30
0.0
 11
-33.548848
 21
-244.890876
 31
0.0
  0
LINE
  5
283
330
851
100
AcDbEntity
  8
V0-OBRYS
  6
CONTINUOUS
 62
    90
100
AcDbLine
 10
-35.441414
 20
-197.538186
 30
0.0
 11
-35.441414
 21
-193.074186
 31
0.0
  0
ARC
  5
284
330
851
100
AcDbEntity
  8
V0-OBRYS
  6
CONTINUOUS
 62
    90
100
AcDbCircle
 10
-1267.338782
 20
-161.082186
 30
0.0
 40
1237.241694
100
AcDbArc
 50
358.311504
 51
358.518308
  0
LINE
  5
285
330
851
100
AcDbEntity
  8
V0-OBRYS
  6
CONTINUOUS
 62
    90
100
AcDbLine
 10
-35.441414
 20
-197.538186
 30
0.0
 11
-28.001414
 21
-197.538186
 31
0.0
  0
LINE
  5
286
330
851
100
AcDbEntity
  8
V0-OBRYS
  6
CONTINUOUS
 62
    90
100
AcDbLine
 10
-35.441414
 20
-199.026186
 30
0.0
 11
-28.001414
 21
-199.026186
 31
0.0
  0
LINE
  5
287
330
851
100
AcDbEntity
  8
V0-OBRYS
  6
CONTINUOUS
 62
    90
100
AcDbLine
 10
-28.001414
 20
-199.026186
 30
0.0
 11
-28.001414
 21
-197.538186
 31
0.0
  0
ARC
  5
288
330
851
100
AcDbEntity
  8
V0-OBRYS
  6
CONTINUOUS
 62
    90
100
AcDbCircle
 10
-1267.338782
 20
-161.082186
 30
0.0
 40
1237.241694
100
AcDbArc
 50
358.035731
 51
358.242565
  0
LINE
  5
289
330
851
100
AcDbEntity
  8
V0-OBRYS
  6
CONTINUOUS
 62
    90
100
AcDbLine
 10
-35.441414
 20
-203.490186
 30
0.0
 11
-35.441414
 21
-199.026186
 31
0.0
  0
ARC
  5
28A
330
851
100
AcDbEntity
  8
V0-OBRYS
  6
CONTINUOUS
 62
    90
100
AcDbCircle
 10
-1944.238558
 20
-177.570961
 30
0.0
 40
1914.140133
100
AcDbArc
 50
1.629551
 51
4.044763
  0
LINE
  5
28B
330
851
100
AcDbEntity
  8
V0-OBRYS
  6
CONTINUOUS
 62
    90
100
AcDbLine
 10
-35.441414
 20
-77.53492799999999
 30
0.0
 11
-35.441414
 21
-123.138186
 31
0.0
  0
LINE
  5
28C
330
851
100
AcDbEntity
  8
V0-OBRYS
  6
CONTINUOUS
 62
    90
100
AcDbLine
 10
-35.441414
 20
-123.138186
 30
0.0
 11
-28.001414
 21
-123.138186
 31
0.0
  0
LINE
  5
28D
330
851
100
AcDbEntity
  8
V0-OBRYS
  6
CONTINUOUS
 62
    90
100
AcDbLine
 10
-35.441414
 20
-124.626186
 30
0.0
 11
-28.001414
 21
-124.626186
 31
0.0
  0
LINE
  5
28E
330
851
100
AcDbEntity
  8
V0-OBRYS
  6
CONTINUOUS
 62
    90
100
AcDbLine
 10
-28.001414
 20
-123.138186
 30
0.0
 11
-28.001414
 21
-124.626186
 31
0.0
  0
LINE
  5
28F
330
851
100
AcDbEntity
  8
V0-OBRYS
  6
CONTINUOUS
 62
    90
100
AcDbLine
 10
-32.92116
 20
-77.53492799999999
 30
0.0
 11
-35.441414
 21
-77.53492799999999
 31
0.0
  0
ARC
  5
290
330
851
100
AcDbEntity
  8
V0-OBRYS
  6
CONTINUOUS
 62
    90
100
AcDbCircle
 10
-42.277397
 20
-43.208138
 30
0.0
 40
7.44
100
AcDbArc
 50
5.032259
 51
90.0
  0
ARC
  5
291
330
851
100
AcDbEntity
  8
V0-OBRYS
  6
CONTINUOUS
 62
    90
100
AcDbCircle
 10
-1944.238558
 20
210.218325
 30
0.0
 40
1914.140133
100
AcDbArc
 50
2.520948
 51
4.044763
  0
ARC
  5
292
330
851
100
AcDbEntity
  8
V0-OBRYS
  6
CONTINUOUS
 62
    90
100
AcDbCircle
 10
-1267.338782
 20
226.7071
 30
0.0
 40
1237.241694
100
AcDbArc
 50
356.932119
 51
357.13912
  0
LINE
  5
293
330
851
100
AcDbEntity
  8
V0-OBRYS
  6
CONTINUOUS
 62
    90
100
AcDbLine
 10
-35.441414
 20
160.4911
 30
0.0
 11
-35.441414
 21
164.9551
 31
0.0
  0
LINE
  5
294
330
851
100
AcDbEntity
  8
V0-OBRYS
  6
CONTINUOUS
 62
    90
100
AcDbLine
 10
-35.441414
 20
231.9151
 30
0.0
 11
-35.441414
 21
142.898409
 31
0.0
  0
ARC
  5
295
330
851
100
AcDbEntity
  8
V0-OBRYS
  6
CONTINUOUS
 62
    90
100
AcDbCircle
 10
-1493.95292
 20
226.246189
 30
0.0
 40
1463.855847
100
AcDbArc
 50
355.373845
 51
0.221884
  0
ARC
  5
296
330
851
100
AcDbEntity
  8
V0-OBRYS
  6
CONTINUOUS
 62
    90
100
AcDbCircle
 10
-42.277397
 20
108.833052
 30
0.0
 40
7.44
100
AcDbArc
 50
270.0
 51
354.967741
  0
LINE
  5
297
330
851
100
AcDbEntity
  8
V0-OBRYS
  6
CONTINUOUS
 62
    90
100
AcDbLine
 10
-35.441414
 20
142.898409
 30
0.0
 11
-33.548848
 21
142.898409
 31
0.0
  0
LINE
  5
298
330
851
100
AcDbEntity
  8
V0-OBRYS
  6
CONTINUOUS
 62
    90
100
AcDbLine
 10
-35.441414
 20
159.0031
 30
0.0
 11
-28.001414
 21
159.0031
 31
0.0
  0
LINE
  5
299
330
851
100
AcDbEntity
  8
V0-OBRYS
  6
CONTINUOUS
 62
    90
100
AcDbLine
 10
-35.441414
 20
160.4911
 30
0.0
 11
-28.001414
 21
160.4911
 31
0.0
  0
LINE
  5
29A
330
851
100
AcDbEntity
  8
V0-OBRYS
  6
CONTINUOUS
 62
    90
100
AcDbLine
 10
-35.441414
 20
153.0511
 30
0.0
 11
-28.001414
 21
153.0511
 31
0.0
  0
LINE
  5
29B
330
851
100
AcDbEntity
  8
V0-OBRYS
  6
CONTINUOUS
 62
    90
100
AcDbLine
 10
-35.441414
 20
154.5391
 30
0.0
 11
-28.001414
 21
154.5391
 31
0.0
  0
LINE
  5
29C
330
851
100
AcDbEntity
  8
V0-OBRYS
  6
CONTINUOUS
 62
    90
100
AcDbLine
 10
-35.441414
 20
147.0991
 30
0.0
 11
-28.001414
 21
147.0991
 31
0.0
  0
LINE
  5
29D
330
851
100
AcDbEntity
  8
V0-OBRYS
  6
CONTINUOUS
 62
    90
100
AcDbLine
 10
-35.441414
 20
148.5871
 30
0.0
 11
-28.001414
 21
148.5871
 31
0.0
  0
LINE
  5
29E
330
851
100
AcDbEntity
  8
V0-OBRYS
  6
CONTINUOUS
 62
    90
100
AcDbLine
 10
-28.001414
 20
159.0031
 30
0.0
 11
-28.001414
 21
160.4911
 31
0.0
  0
LINE
  5
29F
330
851
100
AcDbEntity
  8
V0-OBRYS
  6
CONTINUOUS
 62
    90
100
AcDbLine
 10
-28.001414
 20
153.0511
 30
0.0
 11
-28.001414
 21
154.5391
 31
0.0
  0
LINE
  5
2A0
330
851
100
AcDbEntity
  8
V0-OBRYS
  6
CONTINUOUS
 62
    90
100
AcDbLine
 10
-28.001414
 20
147.0991
 30
0.0
 11
-28.001414
 21
148.5871
 31
0.0
  0
LINE
  5
2A1
330
851
100
AcDbEntity
  8
V0-OBRYS
  6
CONTINUOUS
 62
    90
100
AcDbLine
 10
-35.441414
 20
148.5871
 30
0.0
 11
-35.441414
 21
153.0511
 31
0.0
  0
LINE
  5
2A2
330
851
100
AcDbEntity
  8
V0-OBRYS
  6
CONTINUOUS
 62
    90
100
AcDbLine
 10
-28.001414
 20
239.3551
 30
0.0
 11
-28.001414
 21
237.8671
 31
0.0
  0
LINE
  5
2A3
330
851
100
AcDbEntity
  8
V0-OBRYS
  6
CONTINUOUS
 62
    90
100
AcDbLine
 10
-28.001414
 20
200.6671
 30
0.0
 11
-28.001414
 21
202.1551
 31
0.0
  0
ARC
  5
2A4
330
851
100
AcDbEntity
  8
V0-OBRYS
  6
CONTINUOUS
 62
    90
100
AcDbCircle
 10
-1267.338782
 20
226.7071
 30
0.0
 40
1237.241694
100
AcDbArc
 50
357.759912
 51
357.966781
  0
LINE
  5
2A5
330
851
100
AcDbEntity
  8
V0-OBRYS
  6
CONTINUOUS
 62
    90
100
AcDbLine
 10
-35.441414
 20
178.3471
 30
0.0
 11
-35.441414
 21
182.8111
 31
0.0
  0
LINE
  5
2A6
330
851
100
AcDbEntity
  8
V0-OBRYS
  6
CONTINUOUS
 62
    90
100
AcDbLine
 10
-35.441414
 20
176.8591
 30
0.0
 11
-28.001414
 21
176.8591
 31
0.0
  0
LINE
  5
2A7
330
851
100
AcDbEntity
  8
V0-OBRYS
  6
CONTINUOUS
 62
    90
100
AcDbLine
 10
-35.441414
 20
178.3471
 30
0.0
 11
-28.001414
 21
178.3471
 31
0.0
  0
ARC
  5
2A8
330
851
100
AcDbEntity
  8
V0-OBRYS
  6
CONTINUOUS
 62
    90
100
AcDbCircle
 10
-1267.338782
 20
226.7071
 30
0.0
 40
1237.241694
100
AcDbArc
 50
357.208112
 51
357.415065
  0
LINE
  5
2A9
330
851
100
AcDbEntity
  8
V0-OBRYS
  6
CONTINUOUS
 62
    90
100
AcDbLine
 10
-35.441414
 20
170.9071
 30
0.0
 11
-28.001414
 21
170.9071
 31
0.0
  0
LINE
  5
2AA
330
851
100
AcDbEntity
  8
V0-OBRYS
  6
CONTINUOUS
 62
    90
100
AcDbLine
 10
-35.441414
 20
172.3951
 30
0.0
 11
-28.001414
 21
172.3951
 31
0.0
  0
LINE
  5
2AB
330
851
100
AcDbEntity
  8
V0-OBRYS
  6
CONTINUOUS
 62
    90
100
AcDbLine
 10
-35.441414
 20
164.9551
 30
0.0
 11
-28.001414
 21
164.9551
 31
0.0
  0
LINE
  5
2AC
330
851
100
AcDbEntity
  8
V0-OBRYS
  6
CONTINUOUS
 62
    90
100
AcDbLine
 10
-35.441414
 20
166.4431
 30
0.0
 11
-28.001414
 21
166.4431
 31
0.0
  0
LINE
  5
2AD
330
851
100
AcDbEntity
  8
V0-OBRYS
  6
CONTINUOUS
 62
    90
100
AcDbLine
 10
-28.001414
 20
176.8591
 30
0.0
 11
-28.001414
 21
178.3471
 31
0.0
  0
LINE
  5
2AE
330
851
100
AcDbEntity
  8
V0-OBRYS
  6
CONTINUOUS
 62
    90
100
AcDbLine
 10
-28.001414
 20
170.9071
 30
0.0
 11
-28.001414
 21
172.3951
 31
0.0
  0
LINE
  5
2AF
330
851
100
AcDbEntity
  8
V0-OBRYS
  6
CONTINUOUS
 62
    90
100
AcDbLine
 10
-28.001414
 20
164.9551
 30
0.0
 11
-28.001414
 21
166.4431
 31
0.0
  0
ARC
  5
2B0
330
851
100
AcDbEntity
  8
V0-OBRYS
  6
CONTINUOUS
 62
    90
100
AcDbCircle
 10
-1267.338782
 20
226.7071
 30
0.0
 40
1237.241694
100
AcDbArc
 50
357.484042
 51
357.69095
  0
LINE
  5
2B1
330
851
100
AcDbEntity
  8
V0-OBRYS
  6
CONTINUOUS
 62
    90
100
AcDbLine
 10
-35.441414
 20
166.4431
 30
0.0
 11
-35.441414
 21
170.9071
 31
0.0
  0
LINE
  5
2B2
330
851
100
AcDbEntity
  8
V0-OBRYS
  6
CONTINUOUS
 62
    90
100
AcDbLine
 10
-35.441414
 20
172.3951
 30
0.0
 11
-35.441414
 21
176.8591
 31
0.0
  0
LINE
  5
2B3
330
851
100
AcDbEntity
  8
V0-OBRYS
  6
CONTINUOUS
 62
    90
100
AcDbLine
 10
-35.441414
 20
200.6671
 30
0.0
 11
-28.001414
 21
200.6671
 31
0.0
  0
LINE
  5
2B4
330
851
100
AcDbEntity
  8
V0-OBRYS
  6
CONTINUOUS
 62
    90
100
AcDbLine
 10
-35.441414
 20
196.2031
 30
0.0
 11
-28.001414
 21
196.2031
 31
0.0
  0
LINE
  5
2B5
330
851
100
AcDbEntity
  8
V0-OBRYS
  6
CONTINUOUS
 62
    90
100
AcDbLine
 10
-35.441414
 20
194.7151
 30
0.0
 11
-28.001414
 21
194.7151
 31
0.0
  0
LINE
  5
2B6
330
851
100
AcDbEntity
  8
V0-OBRYS
  6
CONTINUOUS
 62
    90
100
AcDbLine
 10
-35.441414
 20
188.7631
 30
0.0
 11
-28.001414
 21
188.7631
 31
0.0
  0
LINE
  5
2B7
330
851
100
AcDbEntity
  8
V0-OBRYS
  6
CONTINUOUS
 62
    90
100
AcDbLine
 10
-35.441414
 20
190.2511
 30
0.0
 11
-28.001414
 21
190.2511
 31
0.0
  0
LINE
  5
2B8
330
851
100
AcDbEntity
  8
V0-OBRYS
  6
CONTINUOUS
 62
    90
100
AcDbLine
 10
-35.441414
 20
182.8111
 30
0.0
 11
-28.001414
 21
182.8111
 31
0.0
  0
LINE
  5
2B9
330
851
100
AcDbEntity
  8
V0-OBRYS
  6
CONTINUOUS
 62
    90
100
AcDbLine
 10
-35.441414
 20
184.2991
 30
0.0
 11
-28.001414
 21
184.2991
 31
0.0
  0
ARC
  5
2BA
330
851
100
AcDbEntity
  8
V0-OBRYS
  6
CONTINUOUS
 62
    90
100
AcDbCircle
 10
-1267.338782
 20
226.7071
 30
0.0
 40
1237.241694
100
AcDbArc
 50
358.587238
 51
358.794017
  0
ARC
  5
2BB
330
851
100
AcDbEntity
  8
V0-OBRYS
  6
CONTINUOUS
 62
    90
100
AcDbCircle
 10
-1267.338782
 20
226.7071
 30
0.0
 40
1237.241694
100
AcDbArc
 50
358.035731
 51
358.242565
  0
ARC
  5
2BC
330
851
100
AcDbEntity
  8
V0-OBRYS
  6
CONTINUOUS
 62
    90
100
AcDbCircle
 10
-1267.338782
 20
226.7071
 30
0.0
 40
1237.241694
100
AcDbArc
 50
358.311504
 51
358.518308
  0
LINE
  5
2BD
330
851
100
AcDbEntity
  8
V0-OBRYS
  6
CONTINUOUS
 62
    90
100
AcDbLine
 10
-28.001414
 20
188.7631
 30
0.0
 11
-28.001414
 21
190.2511
 31
0.0
  0
LINE
  5
2BE
330
851
100
AcDbEntity
  8
V0-OBRYS
  6
CONTINUOUS
 62
    90
100
AcDbLine
 10
-28.001414
 20
182.8111
 30
0.0
 11
-28.001414
 21
184.2991
 31
0.0
  0
LINE
  5
2BF
330
851
100
AcDbEntity
  8
V0-OBRYS
  6
CONTINUOUS
 62
    90
100
AcDbLine
 10
-28.001414
 20
194.7151
 30
0.0
 11
-28.001414
 21
196.2031
 31
0.0
  0
LINE
  5
2C0
330
851
100
AcDbEntity
  8
V0-OBRYS
  6
CONTINUOUS
 62
    90
100
AcDbLine
 10
-35.441414
 20
196.2031
 30
0.0
 11
-35.441414
 21
200.6671
 31
0.0
  0
LINE
  5
2C1
330
851
100
AcDbEntity
  8
V0-OBRYS
  6
CONTINUOUS
 62
    90
100
AcDbLine
 10
-35.441414
 20
184.2991
 30
0.0
 11
-35.441414
 21
188.7631
 31
0.0
  0
LINE
  5
2C2
330
851
100
AcDbEntity
  8
V0-OBRYS
  6
CONTINUOUS
 62
    90
100
AcDbLine
 10
-35.441414
 20
190.2511
 30
0.0
 11
-35.441414
 21
194.7151
 31
0.0
  0
LINE
  5
2C3
330
851
100
AcDbEntity
  8
V0-OBRYS
  6
CONTINUOUS
 62
    90
100
AcDbLine
 10
-28.001414
 20
220.0111
 30
0.0
 11
-28.001414
 21
221.4991
 31
0.0
  0
LINE
  5
2C4
330
851
100
AcDbEntity
  8
V0-OBRYS
  6
CONTINUOUS
 62
    90
100
AcDbLine
 10
-35.441414
 20
220.0111
 30
0.0
 11
-28.001414
 21
220.0111
 31
0.0
  0
LINE
  5
2C5
330
851
100
AcDbEntity
  8
V0-OBRYS
  6
CONTINUOUS
 62
    90
100
AcDbLine
 10
-35.441414
 20
214.0591
 30
0.0
 11
-28.001414
 21
214.0591
 31
0.0
  0
LINE
  5
2C6
330
851
100
AcDbEntity
  8
V0-OBRYS
  6
CONTINUOUS
 62
    90
100
AcDbLine
 10
-35.441414
 20
215.5471
 30
0.0
 11
-28.001414
 21
215.5471
 31
0.0
  0
LINE
  5
2C7
330
851
100
AcDbEntity
  8
V0-OBRYS
  6
CONTINUOUS
 62
    90
100
AcDbLine
 10
-35.441414
 20
206.6191
 30
0.0
 11
-28.001414
 21
206.6191
 31
0.0
  0
LINE
  5
2C8
330
851
100
AcDbEntity
  8
V0-OBRYS
  6
CONTINUOUS
 62
    90
100
AcDbLine
 10
-35.441414
 20
208.1071
 30
0.0
 11
-28.001414
 21
208.1071
 31
0.0
  0
LINE
  5
2C9
330
851
100
AcDbEntity
  8
V0-OBRYS
  6
CONTINUOUS
 62
    90
100
AcDbLine
 10
-35.441414
 20
202.1551
 30
0.0
 11
-28.001414
 21
202.1551
 31
0.0
  0
ARC
  5
2CA
330
851
100
AcDbEntity
  8
V0-OBRYS
  6
CONTINUOUS
 62
    90
100
AcDbCircle
 10
-1267.338782
 20
226.7071
 30
0.0
 40
1237.241694
100
AcDbArc
 50
359.483181
 51
359.689912
  0
LINE
  5
2CB
330
851
100
AcDbEntity
  8
V0-OBRYS
  6
CONTINUOUS
 62
    90
100
AcDbLine
 10
-28.001414
 20
214.0591
 30
0.0
 11
-28.001414
 21
215.5471
 31
0.0
  0
ARC
  5
2CC
330
851
100
AcDbEntity
  8
V0-OBRYS
  6
CONTINUOUS
 62
    90
100
AcDbCircle
 10
-1267.338782
 20
226.7071
 30
0.0
 40
1237.241694
100
AcDbArc
 50
358.86294
 51
359.069698
  0
LINE
  5
2CD
330
851
100
AcDbEntity
  8
V0-OBRYS
  6
CONTINUOUS
 62
    90
100
AcDbLine
 10
-28.001414
 20
206.6191
 30
0.0
 11
-28.001414
 21
208.1071
 31
0.0
  0
ARC
  5
2CE
330
851
100
AcDbEntity
  8
V0-OBRYS
  6
CONTINUOUS
 62
    90
100
AcDbCircle
 10
-1267.338782
 20
226.7071
 30
0.0
 40
1237.241694
100
AcDbArc
 50
359.1386150000001
 51
359.41427
  0
LINE
  5
2CF
330
851
100
AcDbEntity
  8
V0-OBRYS
  6
CONTINUOUS
 62
    90
100
AcDbLine
 10
-35.441414
 20
215.5471
 30
0.0
 11
-35.441414
 21
220.0111
 31
0.0
  0
LINE
  5
2D0
330
851
100
AcDbEntity
  8
V0-OBRYS
  6
CONTINUOUS
 62
    90
100
AcDbLine
 10
-35.441414
 20
202.1551
 30
0.0
 11
-35.441414
 21
206.6191
 31
0.0
  0
LINE
  5
2D1
330
851
100
AcDbEntity
  8
V0-OBRYS
  6
CONTINUOUS
 62
    90
100
AcDbLine
 10
-35.441414
 20
208.1071
 30
0.0
 11
-35.441414
 21
214.0591
 31
0.0
  0
LINE
  5
2D2
330
851
100
AcDbEntity
  8
V0-OBRYS
  6
CONTINUOUS
 62
    90
100
AcDbLine
 10
-35.441414
 20
237.8671
 30
0.0
 11
-28.001414
 21
237.8671
 31
0.0
  0
LINE
  5
2D3
330
851
100
AcDbEntity
  8
V0-OBRYS
  6
CONTINUOUS
 62
    90
100
AcDbLine
 10
-35.441414
 20
233.4031
 30
0.0
 11
-28.001414
 21
233.4031
 31
0.0
  0
LINE
  5
2D4
330
851
100
AcDbEntity
  8
V0-OBRYS
  6
CONTINUOUS
 62
    90
100
AcDbLine
 10
-35.441414
 20
231.9151
 30
0.0
 11
-28.001414
 21
231.9151
 31
0.0
  0
LINE
  5
2D5
330
851
100
AcDbEntity
  8
V0-OBRYS
  6
CONTINUOUS
 62
    90
100
AcDbLine
 10
-35.441414
 20
225.9631
 30
0.0
 11
-28.001414
 21
225.9631
 31
0.0
  0
LINE
  5
2D6
330
851
100
AcDbEntity
  8
V0-OBRYS
  6
CONTINUOUS
 62
    90
100
AcDbLine
 10
-35.441414
 20
227.4511
 30
0.0
 11
-28.001414
 21
227.4511
 31
0.0
  0
LINE
  5
2D7
330
851
100
AcDbEntity
  8
V0-OBRYS
  6
CONTINUOUS
 62
    90
100
AcDbLine
 10
-35.441414
 20
221.4991
 30
0.0
 11
-28.001414
 21
221.4991
 31
0.0
  0
ARC
  5
2D8
330
851
100
AcDbEntity
  8
V0-OBRYS
  6
CONTINUOUS
 62
    90
100
AcDbCircle
 10
-1267.338782
 20
226.7071
 30
0.0
 40
1237.241694
100
AcDbArc
 50
0.310088
 51
0.516819
  0
LINE
  5
2D9
330
851
100
AcDbEntity
  8
V0-OBRYS
  6
CONTINUOUS
 62
    90
100
AcDbLine
 10
-28.001414
 20
227.4511
 30
0.0
 11
-28.001414
 21
225.9631
 31
0.0
  0
LINE
  5
2DA
330
851
100
AcDbEntity
  8
V0-OBRYS
  6
CONTINUOUS
 62
    90
100
AcDbLine
 10
-28.001414
 20
233.4031
 30
0.0
 11
-28.001414
 21
231.9151
 31
0.0
  0
LINE
  5
2DB
330
851
100
AcDbEntity
  8
V0-OBRYS
  6
CONTINUOUS
 62
    90
100
AcDbLine
 10
-35.441414
 20
237.8671
 30
0.0
 11
-35.441414
 21
233.4031
 31
0.0
  0
LINE
  5
2DC
330
851
100
AcDbEntity
  8
V0-OBRYS
  6
CONTINUOUS
 62
    90
100
AcDbLine
 10
-35.441414
 20
281.0191
 30
0.0
 11
-35.441414
 21
276.5551
 31
0.0
  0
ARC
  5
2DD
330
851
100
AcDbEntity
  8
V0-OBRYS
  6
CONTINUOUS
 62
    90
100
AcDbCircle
 10
-1267.338782
 20
226.7071
 30
0.0
 40
1237.241694
100
AcDbArc
 50
2.30905
 51
2.515958
  0
LINE
  5
2DE
330
851
100
AcDbEntity
  8
V0-OBRYS
  6
CONTINUOUS
 62
    90
100
AcDbLine
 10
-28.001414
 20
258.6991
 30
0.0
 11
-28.001414
 21
257.2111
 31
0.0
  0
LINE
  5
2DF
330
851
100
AcDbEntity
  8
V0-OBRYS
  6
CONTINUOUS
 62
    90
100
AcDbLine
 10
-35.441414
 20
257.2111
 30
0.0
 11
-28.001414
 21
257.2111
 31
0.0
  0
LINE
  5
2E0
330
851
100
AcDbEntity
  8
V0-OBRYS
  6
CONTINUOUS
 62
    90
100
AcDbLine
 10
-35.441414
 20
252.7471
 30
0.0
 11
-28.001414
 21
252.7471
 31
0.0
  0
LINE
  5
2E1
330
851
100
AcDbEntity
  8
V0-OBRYS
  6
CONTINUOUS
 62
    90
100
AcDbLine
 10
-35.441414
 20
251.2591
 30
0.0
 11
-28.001414
 21
251.2591
 31
0.0
  0
LINE
  5
2E2
330
851
100
AcDbEntity
  8
V0-OBRYS
  6
CONTINUOUS
 62
    90
100
AcDbLine
 10
-35.441414
 20
245.3071
 30
0.0
 11
-28.001414
 21
245.3071
 31
0.0
  0
LINE
  5
2E3
330
851
100
AcDbEntity
  8
V0-OBRYS
  6
CONTINUOUS
 62
    90
100
AcDbLine
 10
-35.441414
 20
246.7951
 30
0.0
 11
-28.001414
 21
246.7951
 31
0.0
  0
LINE
  5
2E4
330
851
100
AcDbEntity
  8
V0-OBRYS
  6
CONTINUOUS
 62
    90
100
AcDbLine
 10
-35.441414
 20
239.3551
 30
0.0
 11
-28.001414
 21
239.3551
 31
0.0
  0
ARC
  5
2E5
330
851
100
AcDbEntity
  8
V0-OBRYS
  6
CONTINUOUS
 62
    90
100
AcDbCircle
 10
-1267.338782
 20
226.7071
 30
0.0
 40
1237.241694
100
AcDbArc
 50
1.205983
 51
1.412762
  0
LINE
  5
2E6
330
851
100
AcDbEntity
  8
V0-OBRYS
  6
CONTINUOUS
 62
    90
100
AcDbLine
 10
-28.001414
 20
246.7951
 30
0.0
 11
-28.001414
 21
245.3071
 31
0.0
  0
ARC
  5
2E7
330
851
100
AcDbEntity
  8
V0-OBRYS
  6
CONTINUOUS
 62
    90
100
AcDbCircle
 10
-1267.338782
 20
226.7071
 30
0.0
 40
1237.241694
100
AcDbArc
 50
0.930302
 51
1.13706
  0
ARC
  5
2E8
330
851
100
AcDbEntity
  8
V0-OBRYS
  6
CONTINUOUS
 62
    90
100
AcDbCircle
 10
-1267.338782
 20
226.7071
 30
0.0
 40
1237.241694
100
AcDbArc
 50
0.58573
 51
0.861385
  0
LINE
  5
2E9
330
851
100
AcDbEntity
  8
V0-OBRYS
  6
CONTINUOUS
 62
    90
100
AcDbLine
 10
-28.001414
 20
252.7471
 30
0.0
 11
-28.001414
 21
251.2591
 31
0.0
  0
LINE
  5
2EA
330
851
100
AcDbEntity
  8
V0-OBRYS
  6
CONTINUOUS
 62
    90
100
AcDbLine
 10
-35.441414
 20
257.2111
 30
0.0
 11
-35.441414
 21
252.7471
 31
0.0
  0
LINE
  5
2EB
330
851
100
AcDbEntity
  8
V0-OBRYS
  6
CONTINUOUS
 62
    90
100
AcDbLine
 10
-35.441414
 20
251.2591
 30
0.0
 11
-35.441414
 21
246.7951
 31
0.0
  0
LINE
  5
2EC
330
851
100
AcDbEntity
  8
V0-OBRYS
  6
CONTINUOUS
 62
    90
100
AcDbLine
 10
-35.441414
 20
245.3071
 30
0.0
 11
-35.441414
 21
239.3551
 31
0.0
  0
LINE
  5
2ED
330
851
100
AcDbEntity
  8
V0-OBRYS
  6
CONTINUOUS
 62
    90
100
AcDbLine
 10
-35.441414
 20
275.0671
 30
0.0
 11
-28.001414
 21
275.0671
 31
0.0
  0
LINE
  5
2EE
330
851
100
AcDbEntity
  8
V0-OBRYS
  6
CONTINUOUS
 62
    90
100
AcDbLine
 10
-35.441414
 20
276.5551
 30
0.0
 11
-28.001414
 21
276.5551
 31
0.0
  0
LINE
  5
2EF
330
851
100
AcDbEntity
  8
V0-OBRYS
  6
CONTINUOUS
 62
    90
100
AcDbLine
 10
-35.441414
 20
270.6031
 30
0.0
 11
-28.001414
 21
270.6031
 31
0.0
  0
LINE
  5
2F0
330
851
100
AcDbEntity
  8
V0-OBRYS
  6
CONTINUOUS
 62
    90
100
AcDbLine
 10
-35.441414
 20
269.1151
 30
0.0
 11
-28.001414
 21
269.1151
 31
0.0
  0
LINE
  5
2F1
330
851
100
AcDbEntity
  8
V0-OBRYS
  6
CONTINUOUS
 62
    90
100
AcDbLine
 10
-35.441414
 20
263.1631
 30
0.0
 11
-28.001414
 21
263.1631
 31
0.0
  0
LINE
  5
2F2
330
851
100
AcDbEntity
  8
V0-OBRYS
  6
CONTINUOUS
 62
    90
100
AcDbLine
 10
-35.441414
 20
264.6511
 30
0.0
 11
-28.001414
 21
264.6511
 31
0.0
  0
LINE
  5
2F3
330
851
100
AcDbEntity
  8
V0-OBRYS
  6
CONTINUOUS
 62
    90
100
AcDbLine
 10
-35.441414
 20
258.6991
 30
0.0
 11
-28.001414
 21
258.6991
 31
0.0
  0
LINE
  5
2F4
330
851
100
AcDbEntity
  8
V0-OBRYS
  6
CONTINUOUS
 62
    90
100
AcDbLine
 10
-28.001414
 20
276.5551
 30
0.0
 11
-28.001414
 21
275.0671
 31
0.0
  0
ARC
  5
2F5
330
851
100
AcDbEntity
  8
V0-OBRYS
  6
CONTINUOUS
 62
    90
100
AcDbCircle
 10
-1267.338782
 20
226.7071
 30
0.0
 40
1237.241694
100
AcDbArc
 50
2.033219
 51
2.240088
  0
LINE
  5
2F6
330
851
100
AcDbEntity
  8
V0-OBRYS
  6
CONTINUOUS
 62
    90
100
AcDbLine
 10
-28.001414
 20
264.6511
 30
0.0
 11
-28.001414
 21
263.1631
 31
0.0
  0
ARC
  5
2F7
330
851
100
AcDbEntity
  8
V0-OBRYS
  6
CONTINUOUS
 62
    90
100
AcDbCircle
 10
-1267.338782
 20
226.7071
 30
0.0
 40
1237.241694
100
AcDbArc
 50
1.757435
 51
1.964269
  0
ARC
  5
2F8
330
851
100
AcDbEntity
  8
V0-OBRYS
  6
CONTINUOUS
 62
    90
100
AcDbCircle
 10
-1267.338782
 20
226.7071
 30
0.0
 40
1237.241694
100
AcDbArc
 50
1.481692
 51
1.688496
  0
LINE
  5
2F9
330
851
100
AcDbEntity
  8
V0-OBRYS
  6
CONTINUOUS
 62
    90
100
AcDbLine
 10
-28.001414
 20
270.6031
 30
0.0
 11
-28.001414
 21
269.1151
 31
0.0
  0
LINE
  5
2FA
330
851
100
AcDbEntity
  8
V0-OBRYS
  6
CONTINUOUS
 62
    90
100
AcDbLine
 10
-35.441414
 20
275.0671
 30
0.0
 11
-35.441414
 21
270.6031
 31
0.0
  0
LINE
  5
2FB
330
851
100
AcDbEntity
  8
V0-OBRYS
  6
CONTINUOUS
 62
    90
100
AcDbLine
 10
-35.441414
 20
269.1151
 30
0.0
 11
-35.441414
 21
264.6511
 31
0.0
  0
LINE
  5
2FC
330
851
100
AcDbEntity
  8
V0-OBRYS
  6
CONTINUOUS
 62
    90
100
AcDbLine
 10
-35.441414
 20
263.1631
 30
0.0
 11
-35.441414
 21
258.6991
 31
0.0
  0
LINE
  5
2FD
330
851
100
AcDbEntity
  8
V0-OBRYS
  6
CONTINUOUS
 62
    90
100
AcDbLine
 10
-35.441414
 20
310.254358
 30
0.0
 11
-35.441414
 21
294.4111
 31
0.0
  0
LINE
  5
2FE
330
851
100
AcDbEntity
  8
V0-OBRYS
  6
CONTINUOUS
 62
    90
100
AcDbLine
 10
-35.441414
 20
292.9231
 30
0.0
 11
-28.001414
 21
292.9231
 31
0.0
  0
LINE
  5
2FF
330
851
100
AcDbEntity
  8
V0-OBRYS
  6
CONTINUOUS
 62
    90
100
AcDbLine
 10
-35.441414
 20
294.4111
 30
0.0
 11
-28.001414
 21
294.4111
 31
0.0
  0
LINE
  5
300
330
851
100
AcDbEntity
  8
V0-OBRYS
  6
CONTINUOUS
 62
    90
100
AcDbLine
 10
-35.441414
 20
286.9711
 30
0.0
 11
-28.001414
 21
286.9711
 31
0.0
  0
LINE
  5
301
330
851
100
AcDbEntity
  8
V0-OBRYS
  6
CONTINUOUS
 62
    90
100
AcDbLine
 10
-35.441414
 20
288.4591
 30
0.0
 11
-28.001414
 21
288.4591
 31
0.0
  0
LINE
  5
302
330
851
100
AcDbEntity
  8
V0-OBRYS
  6
CONTINUOUS
 62
    90
100
AcDbLine
 10
-35.441414
 20
281.0191
 30
0.0
 11
-28.001414
 21
281.0191
 31
0.0
  0
LINE
  5
303
330
851
100
AcDbEntity
  8
V0-OBRYS
  6
CONTINUOUS
 62
    90
100
AcDbLine
 10
-35.441414
 20
282.5071
 30
0.0
 11
-28.001414
 21
282.5071
 31
0.0
  0
ARC
  5
304
330
851
100
AcDbEntity
  8
V0-OBRYS
  6
CONTINUOUS
 62
    90
100
AcDbCircle
 10
-1267.338782
 20
226.7071
 30
0.0
 40
1237.241694
100
AcDbArc
 50
2.584935000000001
 51
2.791888
  0
LINE
  5
305
330
851
100
AcDbEntity
  8
V0-OBRYS
  6
CONTINUOUS
 62
    90
100
AcDbLine
 10
-28.001414
 20
294.4111
 30
0.0
 11
-28.001414
 21
292.9231
 31
0.0
  0
LINE
  5
306
330
851
100
AcDbEntity
  8
V0-OBRYS
  6
CONTINUOUS
 62
    90
100
AcDbLine
 10
-28.001414
 20
288.4591
 30
0.0
 11
-28.001414
 21
286.9711
 31
0.0
  0
LINE
  5
307
330
851
100
AcDbEntity
  8
V0-OBRYS
  6
CONTINUOUS
 62
    90
100
AcDbLine
 10
-28.001414
 20
282.5071
 30
0.0
 11
-28.001414
 21
281.0191
 31
0.0
  0
LINE
  5
308
330
851
100
AcDbEntity
  8
V0-OBRYS
  6
CONTINUOUS
 62
    90
100
AcDbLine
 10
-35.441414
 20
286.9711
 30
0.0
 11
-35.441414
 21
282.5071
 31
0.0
  0
LINE
  5
309
330
851
100
AcDbEntity
  8
V0-OBRYS
  6
CONTINUOUS
 62
    90
100
AcDbLine
 10
-35.441414
 20
292.9231
 30
0.0
 11
-35.441414
 21
288.4591
 31
0.0
  0
ARC
  5
30A
330
851
100
AcDbEntity
  8
V0-OBRYS
  6
CONTINUOUS
 62
    90
100
AcDbCircle
 10
-1267.338782
 20
226.7071
 30
0.0
 40
1237.241694
100
AcDbArc
 50
2.86088
 51
3.067881
  0
LINE
  5
30B
330
851
100
AcDbEntity
  8
V0-OBRYS
  6
CONTINUOUS
 62
    90
100
AcDbLine
 10
-35.441414
 20
304.8271
 30
0.0
 11
-28.001414
 21
304.8271
 31
0.0
  0
LINE
  5
30C
330
851
100
AcDbEntity
  8
V0-OBRYS
  6
CONTINUOUS
 62
    90
100
AcDbLine
 10
-35.441414
 20
306.3151
 30
0.0
 11
-28.001414
 21
306.3151
 31
0.0
  0
LINE
  5
30D
330
851
100
AcDbEntity
  8
V0-OBRYS
  6
CONTINUOUS
 62
    90
100
AcDbLine
 10
-35.441414
 20
298.8751
 30
0.0
 11
-28.001414
 21
298.8751
 31
0.0
  0
LINE
  5
30E
330
851
100
AcDbEntity
  8
V0-OBRYS
  6
CONTINUOUS
 62
    90
100
AcDbLine
 10
-35.441414
 20
300.3631
 30
0.0
 11
-28.001414
 21
300.3631
 31
0.0
  0
LINE
  5
30F
330
851
100
AcDbEntity
  8
V0-OBRYS
  6
CONTINUOUS
 62
    90
100
AcDbLine
 10
-28.001414
 20
306.3151
 30
0.0
 11
-28.001414
 21
304.8271
 31
0.0
  0
LINE
  5
310
330
851
100
AcDbEntity
  8
V0-OBRYS
  6
CONTINUOUS
 62
    90
100
AcDbLine
 10
-28.001414
 20
300.3631
 30
0.0
 11
-28.001414
 21
298.8751
 31
0.0
  0
LINE
  5
311
330
851
100
AcDbEntity
  8
V0-OBRYS
  6
CONTINUOUS
 62
    90
100
AcDbLine
 10
-32.92116
 20
310.254358
 30
0.0
 11
-35.441414
 21
310.254358
 31
0.0
  0
LINE
  5
312
330
851
100
AcDbEntity
  8
V0-OBRYS
  6
CONTINUOUS
 62
    90
100
AcDbLine
 10
-35.441414
 20
304.8271
 30
0.0
 11
-35.441414
 21
300.3631
 31
0.0
  0
ARC
  5
313
330
851
100
AcDbEntity
  8
V0-OBRYS
  6
CONTINUOUS
 62
    90
100
AcDbCircle
 10
-42.277397
 20
344.581148
 30
0.0
 40
7.44
100
AcDbArc
 50
5.032259
 51
90.0
  0
DIMENSION
  5
314
330
851
100
AcDbEntity
  8
V0-VYPLNE
  6
CONTINUOUS
 62
    41
100
AcDbDimension
  2
*D9
 10
-165.863579
 20
7.830435999999949
 30
0.0
 11
-106.2184
 21
7.830436
 31
0.0
 70
   160
  3
ED10
100
AcDbAlignedDimension
 13
-57.001414
 23
100.393052
 33
0.0
 14
-165.863579
 24
101.393052
 34
0.0
100
AcDbRotatedDimension
1001
ACAD
1000
DSTYLE
1002
{
1070
    40
1040
1.0
1002
}
  0
LINE
  5
315
330
851
100
AcDbEntity
  8
V0-OBRYS
  6
CONTINUOUS
 62
    90
100
AcDbLine
 10
-194.852626
 20
-161.826186
 30
0.0
 11
-194.852626
 21
-35.76813799999999
 31
0.0
  0
LINE
  5
316
330
851
100
AcDbEntity
  8
V0-OBRYS
  6
CONTINUOUS
 62
    90
100
AcDbLine
 10
-196.852626
 20
-161.826186
 30
0.0
 11
-196.852626
 21
-35.76813799999999
 31
0.0
  0
ARC
  5
317
330
851
100
AcDbEntity
  8
V0-OBRYS
  6
CONTINUOUS
 62
    90
100
AcDbCircle
 10
1242.09888
 20
-161.543097
 30
0.0
 40
1463.855847
100
AcDbArc
 50
178.554907
 51
184.626155
  0
LINE
  5
318
330
851
100
AcDbEntity
  8
V0-OBRYS
  6
CONTINUOUS
 62
    90
100
AcDbLine
 10
-216.412626
 20
-124.626186
 30
0.0
 11
-216.412626
 21
-244.890876
 31
0.0
  0
LINE
  5
31A
330
851
100
AcDbEntity
  8
V0-OBRYS
  6
CONTINUOUS
 62
    90
 48
5.0
100
AcDbLine
 10
-165.863579
 20
-286.396234
 30
0.0
 11
-165.863579
 21
-35.76813799999999
 31
0.0
  0
LINE
  5
31B
330
851
100
AcDbEntity
  8
V0-OBRYS
  6
CONTINUOUS
 62
    90
100
AcDbLine
 10
-55.001414
 20
-161.826186
 30
0.0
 11
-55.001414
 21
-35.76813799999999
 31
0.0
  0
LINE
  5
31C
330
851
100
AcDbEntity
  8
V0-OBRYS
  6
CONTINUOUS
 62
    90
100
AcDbLine
 10
-57.001414
 20
-161.826186
 30
0.0
 11
-57.001414
 21
-35.76813799999999
 31
0.0
  0
LINE
  5
31D
330
851
100
AcDbEntity
  8
V0-OBRYS
  6
CONTINUOUS
 62
    90
100
AcDbLine
 10
-57.001414
 20
-160.338186
 30
0.0
 11
-57.001414
 21
-286.396234
 31
0.0
  0
LINE
  5
31E
330
851
100
AcDbEntity
  8
V0-OBRYS
  6
CONTINUOUS
 62
    90
100
AcDbLine
 10
-55.001414
 20
-160.338186
 30
0.0
 11
-55.001414
 21
-286.396234
 31
0.0
  0
LINE
  5
31F
330
851
100
AcDbEntity
  8
V0-OBRYS
  6
CONTINUOUS
 62
    90
100
AcDbLine
 10
-196.852626
 20
-160.338186
 30
0.0
 11
-196.852626
 21
-286.396234
 31
0.0
  0
LINE
  5
320
330
851
100
AcDbEntity
  8
V0-OBRYS
  6
CONTINUOUS
 62
    90
100
AcDbLine
 10
-194.852626
 20
-160.338186
 30
0.0
 11
-194.852626
 21
-286.396234
 31
0.0
  0
ARC
  5
321
330
851
100
AcDbEntity
  8
V0-OBRYS
  6
CONTINUOUS
 62
    90
100
AcDbCircle
 10
-209.576642
 20
-278.956234
 30
0.0
 40
7.44
100
AcDbArc
 50
185.032259
 51
270.0
  0
LINE
  5
322
330
851
100
AcDbEntity
  8
V0-OBRYS
  6
CONTINUOUS
 62
    90
100
AcDbLine
 10
-216.412626
 20
-244.890876
 30
0.0
 11
-218.305191
 21
-244.890876
 31
0.0
  0
ARC
  5
323
330
851
100
AcDbEntity
  8
V0-OBRYS
  6
CONTINUOUS
 62
    90
100
AcDbCircle
 10
1015.484743
 20
-161.082186
 30
0.0
 40
1237.241694
100
AcDbArc
 50
181.481692
 51
181.688496
  0
LINE
  5
324
330
851
100
AcDbEntity
  8
V0-OBRYS
  6
CONTINUOUS
 62
    90
100
AcDbLine
 10
-216.412626
 20
-197.538186
 30
0.0
 11
-216.412626
 21
-193.074186
 31
0.0
  0
LINE
  5
325
330
851
100
AcDbEntity
  8
V0-OBRYS
  6
CONTINUOUS
 62
    90
100
AcDbLine
 10
-216.412626
 20
-203.490186
 30
0.0
 11
-216.412626
 21
-199.026186
 31
0.0
  0
ARC
  5
326
330
851
100
AcDbEntity
  8
V0-OBRYS
  6
CONTINUOUS
 62
    90
100
AcDbCircle
 10
1015.484743
 20
-161.082186
 30
0.0
 40
1237.241694
100
AcDbArc
 50
181.757435
 51
181.964269
  0
LINE
  5
327
330
851
100
AcDbEntity
  8
V0-OBRYS
  6
CONTINUOUS
 62
    90
100
AcDbLine
 10
-223.852626
 20
-199.026186
 30
0.0
 11
-223.852626
 21
-197.538186
 31
0.0
  0
LINE
  5
328
330
851
100
AcDbEntity
  8
V0-OBRYS
  6
CONTINUOUS
 62
    90
100
AcDbLine
 10
-216.412626
 20
-199.026186
 30
0.0
 11
-223.852626
 21
-199.026186
 31
0.0
  0
LINE
  5
329
330
851
100
AcDbEntity
  8
V0-OBRYS
  6
CONTINUOUS
 62
    90
100
AcDbLine
 10
-216.412626
 20
-197.538186
 30
0.0
 11
-223.852626
 21
-197.538186
 31
0.0
  0
ARC
  5
32B
330
851
100
AcDbEntity
  8
V0-OBRYS
  6
CONTINUOUS
 62
    90
100
AcDbCircle
 10
1692.384519
 20
-177.570961
 30
0.0
 40
1914.140133
100
AcDbArc
 50
175.955237
 51
178.370449
  0
LINE
  5
32C
330
851
100
AcDbEntity
  8
V0-OBRYS
  6
CONTINUOUS
 62
    90
100
AcDbLine
 10
-216.412626
 20
-77.53492799999999
 30
0.0
 11
-216.412626
 21
-123.138186
 31
0.0
  0
LINE
  5
32D
330
851
100
AcDbEntity
  8
V0-OBRYS
  6
CONTINUOUS
 62
    90
100
AcDbLine
 10
-223.852626
 20
-123.138186
 30
0.0
 11
-223.852626
 21
-124.626186
 31
0.0
  0
LINE
  5
32E
330
851
100
AcDbEntity
  8
V0-OBRYS
  6
CONTINUOUS
 62
    90
100
AcDbLine
 10
-216.412626
 20
-124.626186
 30
0.0
 11
-223.852626
 21
-124.626186
 31
0.0
  0
LINE
  5
32F
330
851
100
AcDbEntity
  8
V0-OBRYS
  6
CONTINUOUS
 62
    90
100
AcDbLine
 10
-216.412626
 20
-123.138186
 30
0.0
 11
-223.852626
 21
-123.138186
 31
0.0
  0
LINE
  5
330
330
851
100
AcDbEntity
  8
V0-OBRYS
  6
CONTINUOUS
 62
    90
100
AcDbLine
 10
-218.932879
 20
-77.53492799999999
 30
0.0
 11
-216.412626
 21
-77.53492799999999
 31
0.0
  0
ARC
  5
331
330
851
100
AcDbEntity
  8
V0-OBRYS
  6
CONTINUOUS
 62
    90
100
AcDbCircle
 10
-209.576642
 20
-43.208138
 30
0.0
 40
7.44
100
AcDbArc
 50
90.0
 51
174.967741
  0
LINE
  5
332
330
851
100
AcDbEntity
  8
V0-OBRYS
  6
CONTINUOUS
 62
    90
100
AcDbLine
 10
-194.852626
 20
225.9631
 30
0.0
 11
-194.852626
 21
352.021148
 31
0.0
  0
LINE
  5
333
330
851
100
AcDbEntity
  8
V0-OBRYS
  6
CONTINUOUS
 62
    90
100
AcDbLine
 10
-196.852626
 20
225.9631
 30
0.0
 11
-196.852626
 21
352.021148
 31
0.0
  0
ARC
  5
334
330
851
100
AcDbEntity
  8
V0-OBRYS
  6
CONTINUOUS
 62
    90
100
AcDbCircle
 10
1692.384519
 20
210.218325
 30
0.0
 40
1914.140133
100
AcDbArc
 50
175.955237
 51
177.479052
  0
LINE
  5
335
330
851
100
AcDbEntity
  8
V0-OBRYS
  6
CONTINUOUS
 62
    90
100
AcDbLine
 10
-55.001414
 20
225.9631
 30
0.0
 11
-55.001414
 21
352.021148
 31
0.0
  0
LINE
  5
336
330
851
100
AcDbEntity
  8
V0-OBRYS
  6
CONTINUOUS
 62
    90
100
AcDbLine
 10
-57.001414
 20
225.9631
 30
0.0
 11
-57.001414
 21
352.021148
 31
0.0
  0
LINE
  5
337
330
851
100
AcDbEntity
  8
V0-OBRYS
  6
CONTINUOUS
 62
    90
 48
5.0
100
AcDbLine
 10
-165.863579
 20
101.393052
 30
0.0
 11
-165.863579
 21
352.021148
 31
0.0
  0
LINE
  5
338
330
851
100
AcDbEntity
  8
V0-OBRYS
  6
CONTINUOUS
 62
    90
100
AcDbLine
 10
-196.852626
 20
227.4511
 30
0.0
 11
-196.852626
 21
101.393052
 31
0.0
  0
LINE
  5
339
330
851
100
AcDbEntity
  8
V0-OBRYS
  6
CONTINUOUS
 62
    90
100
AcDbLine
 10
-194.852626
 20
227.4511
 30
0.0
 11
-194.852626
 21
101.393052
 31
0.0
  0
ARC
  5
33A
330
851
100
AcDbEntity
  8
V0-OBRYS
  6
CONTINUOUS
 62
    90
100
AcDbCircle
 10
1242.09888
 20
226.246189
 30
0.0
 40
1463.855847
100
AcDbArc
 50
179.778116
 51
184.626155
  0
LINE
  5
33B
330
851
100
AcDbEntity
  8
V0-OBRYS
  6
CONTINUOUS
 62
    90
100
AcDbLine
 10
-216.412626
 20
231.9151
 30
0.0
 11
-216.412626
 21
142.898409
 31
0.0
  0
LINE
  5
33C
330
851
100
AcDbEntity
  8
V0-OBRYS
  6
CONTINUOUS
 62
    90
100
AcDbLine
 10
-216.412626
 20
160.4911
 30
0.0
 11
-216.412626
 21
164.9551
 31
0.0
  0
ARC
  5
33D
330
851
100
AcDbEntity
  8
V0-OBRYS
  6
CONTINUOUS
 62
    90
100
AcDbCircle
 10
1015.484743
 20
226.7071
 30
0.0
 40
1237.241694
100
AcDbArc
 50
182.86088
 51
183.067881
  0
LINE
  5
33E
330
851
100
AcDbEntity
  8
V0-OBRYS
  6
CONTINUOUS
 62
    90
100
AcDbLine
 10
-57.001414
 20
227.4511
 30
0.0
 11
-57.001414
 21
101.393052
 31
0.0
  0
LINE
  5
33F
330
851
100
AcDbEntity
  8
V0-OBRYS
  6
CONTINUOUS
 62
    90
100
AcDbLine
 10
-55.001414
 20
227.4511
 30
0.0
 11
-55.001414
 21
101.393052
 31
0.0
  0
ARC
  5
340
330
851
100
AcDbEntity
  8
V0-OBRYS
  6
CONTINUOUS
 62
    90
100
AcDbCircle
 10
-209.576642
 20
108.833052
 30
0.0
 40
7.44
100
AcDbArc
 50
185.032259
 51
270.0
  0
LINE
  5
341
330
851
100
AcDbEntity
  8
V0-OBRYS
  6
CONTINUOUS
 62
    90
100
AcDbLine
 10
-216.412626
 20
142.898409
 30
0.0
 11
-218.305191
 21
142.898409
 31
0.0
  0
LINE
  5
342
330
851
100
AcDbEntity
  8
V0-OBRYS
  6
CONTINUOUS
 62
    90
100
AcDbLine
 10
-216.412626
 20
148.5871
 30
0.0
 11
-216.412626
 21
153.0511
 31
0.0
  0
LINE
  5
343
330
851
100
AcDbEntity
  8
V0-OBRYS
  6
CONTINUOUS
 62
    90
100
AcDbLine
 10
-223.852626
 20
147.0991
 30
0.0
 11
-223.852626
 21
148.5871
 31
0.0
  0
LINE
  5
344
330
851
100
AcDbEntity
  8
V0-OBRYS
  6
CONTINUOUS
 62
    90
100
AcDbLine
 10
-223.852626
 20
153.0511
 30
0.0
 11
-223.852626
 21
154.5391
 31
0.0
  0
LINE
  5
345
330
851
100
AcDbEntity
  8
V0-OBRYS
  6
CONTINUOUS
 62
    90
100
AcDbLine
 10
-223.852626
 20
159.0031
 30
0.0
 11
-223.852626
 21
160.4911
 31
0.0
  0
LINE
  5
346
330
851
100
AcDbEntity
  8
V0-OBRYS
  6
CONTINUOUS
 62
    90
100
AcDbLine
 10
-216.412626
 20
148.5871
 30
0.0
 11
-223.852626
 21
148.5871
 31
0.0
  0
LINE
  5
347
330
851
100
AcDbEntity
  8
V0-OBRYS
  6
CONTINUOUS
 62
    90
100
AcDbLine
 10
-216.412626
 20
147.0991
 30
0.0
 11
-223.852626
 21
147.0991
 31
0.0
  0
LINE
  5
348
330
851
100
AcDbEntity
  8
V0-OBRYS
  6
CONTINUOUS
 62
    90
100
AcDbLine
 10
-216.412626
 20
154.5391
 30
0.0
 11
-223.852626
 21
154.5391
 31
0.0
  0
LINE
  5
349
330
851
100
AcDbEntity
  8
V0-OBRYS
  6
CONTINUOUS
 62
    90
100
AcDbLine
 10
-216.412626
 20
153.0511
 30
0.0
 11
-223.852626
 21
153.0511
 31
0.0
  0
LINE
  5
34A
330
851
100
AcDbEntity
  8
V0-OBRYS
  6
CONTINUOUS
 62
    90
100
AcDbLine
 10
-216.412626
 20
160.4911
 30
0.0
 11
-223.852626
 21
160.4911
 31
0.0
  0
LINE
  5
34B
330
851
100
AcDbEntity
  8
V0-OBRYS
  6
CONTINUOUS
 62
    90
100
AcDbLine
 10
-216.412626
 20
159.0031
 30
0.0
 11
-223.852626
 21
159.0031
 31
0.0
  0
LINE
  5
34D
330
851
100
AcDbEntity
  8
V0-OBRYS
  6
CONTINUOUS
 62
    90
100
AcDbLine
 10
-223.852626
 20
239.3551
 30
0.0
 11
-223.852626
 21
237.8671
 31
0.0
  0
LINE
  5
34E
330
851
100
AcDbEntity
  8
V0-OBRYS
  6
CONTINUOUS
 62
    90
100
AcDbLine
 10
-223.852626
 20
200.6671
 30
0.0
 11
-223.852626
 21
202.1551
 31
0.0
  0
LINE
  5
34F
330
851
100
AcDbEntity
  8
V0-OBRYS
  6
CONTINUOUS
 62
    90
100
AcDbLine
 10
-216.412626
 20
178.3471
 30
0.0
 11
-216.412626
 21
182.8111
 31
0.0
  0
ARC
  5
350
330
851
100
AcDbEntity
  8
V0-OBRYS
  6
CONTINUOUS
 62
    90
100
AcDbCircle
 10
1015.484743
 20
226.7071
 30
0.0
 40
1237.241694
100
AcDbArc
 50
182.033219
 51
182.240088
  0
LINE
  5
351
330
851
100
AcDbEntity
  8
V0-OBRYS
  6
CONTINUOUS
 62
    90
100
AcDbLine
 10
-216.412626
 20
172.3951
 30
0.0
 11
-216.412626
 21
176.8591
 31
0.0
  0
LINE
  5
352
330
851
100
AcDbEntity
  8
V0-OBRYS
  6
CONTINUOUS
 62
    90
100
AcDbLine
 10
-216.412626
 20
166.4431
 30
0.0
 11
-216.412626
 21
170.9071
 31
0.0
  0
ARC
  5
353
330
851
100
AcDbEntity
  8
V0-OBRYS
  6
CONTINUOUS
 62
    90
100
AcDbCircle
 10
1015.484743
 20
226.7071
 30
0.0
 40
1237.241694
100
AcDbArc
 50
182.30905
 51
182.515958
  0
LINE
  5
354
330
851
100
AcDbEntity
  8
V0-OBRYS
  6
CONTINUOUS
 62
    90
100
AcDbLine
 10
-223.852626
 20
164.9551
 30
0.0
 11
-223.852626
 21
166.4431
 31
0.0
  0
LINE
  5
355
330
851
100
AcDbEntity
  8
V0-OBRYS
  6
CONTINUOUS
 62
    90
100
AcDbLine
 10
-223.852626
 20
170.9071
 30
0.0
 11
-223.852626
 21
172.3951
 31
0.0
  0
LINE
  5
356
330
851
100
AcDbEntity
  8
V0-OBRYS
  6
CONTINUOUS
 62
    90
100
AcDbLine
 10
-223.852626
 20
176.8591
 30
0.0
 11
-223.852626
 21
178.3471
 31
0.0
  0
LINE
  5
357
330
851
100
AcDbEntity
  8
V0-OBRYS
  6
CONTINUOUS
 62
    90
100
AcDbLine
 10
-216.412626
 20
166.4431
 30
0.0
 11
-223.852626
 21
166.4431
 31
0.0
  0
LINE
  5
358
330
851
100
AcDbEntity
  8
V0-OBRYS
  6
CONTINUOUS
 62
    90
100
AcDbLine
 10
-216.412626
 20
164.9551
 30
0.0
 11
-223.852626
 21
164.9551
 31
0.0
  0
LINE
  5
359
330
851
100
AcDbEntity
  8
V0-OBRYS
  6
CONTINUOUS
 62
    90
100
AcDbLine
 10
-216.412626
 20
172.3951
 30
0.0
 11
-223.852626
 21
172.3951
 31
0.0
  0
LINE
  5
35A
330
851
100
AcDbEntity
  8
V0-OBRYS
  6
CONTINUOUS
 62
    90
100
AcDbLine
 10
-216.412626
 20
170.9071
 30
0.0
 11
-223.852626
 21
170.9071
 31
0.0
  0
ARC
  5
35B
330
851
100
AcDbEntity
  8
V0-OBRYS
  6
CONTINUOUS
 62
    90
100
AcDbCircle
 10
1015.484743
 20
226.7071
 30
0.0
 40
1237.241694
100
AcDbArc
 50
182.584935
 51
182.791888
  0
LINE
  5
35C
330
851
100
AcDbEntity
  8
V0-OBRYS
  6
CONTINUOUS
 62
    90
100
AcDbLine
 10
-216.412626
 20
178.3471
 30
0.0
 11
-223.852626
 21
178.3471
 31
0.0
  0
LINE
  5
35D
330
851
100
AcDbEntity
  8
V0-OBRYS
  6
CONTINUOUS
 62
    90
100
AcDbLine
 10
-216.412626
 20
176.8591
 30
0.0
 11
-223.852626
 21
176.8591
 31
0.0
  0
LINE
  5
35E
330
851
100
AcDbEntity
  8
V0-OBRYS
  6
CONTINUOUS
 62
    90
100
AcDbLine
 10
-216.412626
 20
190.2511
 30
0.0
 11
-216.412626
 21
194.7151
 31
0.0
  0
LINE
  5
35F
330
851
100
AcDbEntity
  8
V0-OBRYS
  6
CONTINUOUS
 62
    90
100
AcDbLine
 10
-216.412626
 20
184.2991
 30
0.0
 11
-216.412626
 21
188.7631
 31
0.0
  0
LINE
  5
360
330
851
100
AcDbEntity
  8
V0-OBRYS
  6
CONTINUOUS
 62
    90
100
AcDbLine
 10
-216.412626
 20
196.2031
 30
0.0
 11
-216.412626
 21
200.6671
 31
0.0
  0
LINE
  5
361
330
851
100
AcDbEntity
  8
V0-OBRYS
  6
CONTINUOUS
 62
    90
100
AcDbLine
 10
-223.852626
 20
194.7151
 30
0.0
 11
-223.852626
 21
196.2031
 31
0.0
  0
LINE
  5
362
330
851
100
AcDbEntity
  8
V0-OBRYS
  6
CONTINUOUS
 62
    90
100
AcDbLine
 10
-223.852626
 20
182.8111
 30
0.0
 11
-223.852626
 21
184.2991
 31
0.0
  0
LINE
  5
363
330
851
100
AcDbEntity
  8
V0-OBRYS
  6
CONTINUOUS
 62
    90
100
AcDbLine
 10
-223.852626
 20
188.7631
 30
0.0
 11
-223.852626
 21
190.2511
 31
0.0
  0
ARC
  5
364
330
851
100
AcDbEntity
  8
V0-OBRYS
  6
CONTINUOUS
 62
    90
100
AcDbCircle
 10
1015.484743
 20
226.7071
 30
0.0
 40
1237.241694
100
AcDbArc
 50
181.481692
 51
181.688496
  0
ARC
  5
365
330
851
100
AcDbEntity
  8
V0-OBRYS
  6
CONTINUOUS
 62
    90
100
AcDbCircle
 10
1015.484743
 20
226.7071
 30
0.0
 40
1237.241694
100
AcDbArc
 50
181.757435
 51
181.964269
  0
ARC
  5
366
330
851
100
AcDbEntity
  8
V0-OBRYS
  6
CONTINUOUS
 62
    90
100
AcDbCircle
 10
1015.484743
 20
226.7071
 30
0.0
 40
1237.241694
100
AcDbArc
 50
181.205983
 51
181.412762
  0
LINE
  5
367
330
851
100
AcDbEntity
  8
V0-OBRYS
  6
CONTINUOUS
 62
    90
100
AcDbLine
 10
-216.412626
 20
184.2991
 30
0.0
 11
-223.852626
 21
184.2991
 31
0.0
  0
LINE
  5
368
330
851
100
AcDbEntity
  8
V0-OBRYS
  6
CONTINUOUS
 62
    90
100
AcDbLine
 10
-216.412626
 20
182.8111
 30
0.0
 11
-223.852626
 21
182.8111
 31
0.0
  0
LINE
  5
369
330
851
100
AcDbEntity
  8
V0-OBRYS
  6
CONTINUOUS
 62
    90
100
AcDbLine
 10
-216.412626
 20
190.2511
 30
0.0
 11
-223.852626
 21
190.2511
 31
0.0
  0
LINE
  5
36A
330
851
100
AcDbEntity
  8
V0-OBRYS
  6
CONTINUOUS
 62
    90
100
AcDbLine
 10
-216.412626
 20
188.7631
 30
0.0
 11
-223.852626
 21
188.7631
 31
0.0
  0
LINE
  5
36B
330
851
100
AcDbEntity
  8
V0-OBRYS
  6
CONTINUOUS
 62
    90
100
AcDbLine
 10
-216.412626
 20
194.7151
 30
0.0
 11
-223.852626
 21
194.7151
 31
0.0
  0
LINE
  5
36C
330
851
100
AcDbEntity
  8
V0-OBRYS
  6
CONTINUOUS
 62
    90
100
AcDbLine
 10
-216.412626
 20
196.2031
 30
0.0
 11
-223.852626
 21
196.2031
 31
0.0
  0
LINE
  5
36D
330
851
100
AcDbEntity
  8
V0-OBRYS
  6
CONTINUOUS
 62
    90
100
AcDbLine
 10
-216.412626
 20
200.6671
 30
0.0
 11
-223.852626
 21
200.6671
 31
0.0
  0
LINE
  5
36F
330
851
100
AcDbEntity
  8
V0-OBRYS
  6
CONTINUOUS
 62
    90
100
AcDbLine
 10
-223.852626
 20
220.0111
 30
0.0
 11
-223.852626
 21
221.4991
 31
0.0
  0
LINE
  5
370
330
851
100
AcDbEntity
  8
V0-OBRYS
  6
CONTINUOUS
 62
    90
100
AcDbLine
 10
-216.412626
 20
208.1071
 30
0.0
 11
-216.412626
 21
214.0591
 31
0.0
  0
LINE
  5
371
330
851
100
AcDbEntity
  8
V0-OBRYS
  6
CONTINUOUS
 62
    90
100
AcDbLine
 10
-216.412626
 20
202.1551
 30
0.0
 11
-216.412626
 21
206.6191
 31
0.0
  0
LINE
  5
372
330
851
100
AcDbEntity
  8
V0-OBRYS
  6
CONTINUOUS
 62
    90
100
AcDbLine
 10
-216.412626
 20
215.5471
 30
0.0
 11
-216.412626
 21
220.0111
 31
0.0
  0
ARC
  5
373
330
851
100
AcDbEntity
  8
V0-OBRYS
  6
CONTINUOUS
 62
    90
100
AcDbCircle
 10
1015.484743
 20
226.7071
 30
0.0
 40
1237.241694
100
AcDbArc
 50
180.58573
 51
180.861385
  0
LINE
  5
374
330
851
100
AcDbEntity
  8
V0-OBRYS
  6
CONTINUOUS
 62
    90
100
AcDbLine
 10
-223.852626
 20
206.6191
 30
0.0
 11
-223.852626
 21
208.1071
 31
0.0
  0
ARC
  5
375
330
851
100
AcDbEntity
  8
V0-OBRYS
  6
CONTINUOUS
 62
    90
100
AcDbCircle
 10
1015.484743
 20
226.7071
 30
0.0
 40
1237.241694
100
AcDbArc
 50
180.930302
 51
181.13706
  0
LINE
  5
376
330
851
100
AcDbEntity
  8
V0-OBRYS
  6
CONTINUOUS
 62
    90
100
AcDbLine
 10
-223.852626
 20
214.0591
 30
0.0
 11
-223.852626
 21
215.5471
 31
0.0
  0
ARC
  5
377
330
851
100
AcDbEntity
  8
V0-OBRYS
  6
CONTINUOUS
 62
    90
100
AcDbCircle
 10
1015.484743
 20
226.7071
 30
0.0
 40
1237.241694
100
AcDbArc
 50
180.310088
 51
180.516819
  0
LINE
  5
378
330
851
100
AcDbEntity
  8
V0-OBRYS
  6
CONTINUOUS
 62
    90
100
AcDbLine
 10
-216.412626
 20
202.1551
 30
0.0
 11
-223.852626
 21
202.1551
 31
0.0
  0
LINE
  5
379
330
851
100
AcDbEntity
  8
V0-OBRYS
  6
CONTINUOUS
 62
    90
100
AcDbLine
 10
-216.412626
 20
208.1071
 30
0.0
 11
-223.852626
 21
208.1071
 31
0.0
  0
LINE
  5
37A
330
851
100
AcDbEntity
  8
V0-OBRYS
  6
CONTINUOUS
 62
    90
100
AcDbLine
 10
-216.412626
 20
206.6191
 30
0.0
 11
-223.852626
 21
206.6191
 31
0.0
  0
LINE
  5
37B
330
851
100
AcDbEntity
  8
V0-OBRYS
  6
CONTINUOUS
 62
    90
100
AcDbLine
 10
-216.412626
 20
215.5471
 30
0.0
 11
-223.852626
 21
215.5471
 31
0.0
  0
LINE
  5
37C
330
851
100
AcDbEntity
  8
V0-OBRYS
  6
CONTINUOUS
 62
    90
100
AcDbLine
 10
-216.412626
 20
214.0591
 30
0.0
 11
-223.852626
 21
214.0591
 31
0.0
  0
LINE
  5
37D
330
851
100
AcDbEntity
  8
V0-OBRYS
  6
CONTINUOUS
 62
    90
100
AcDbLine
 10
-216.412626
 20
220.0111
 30
0.0
 11
-223.852626
 21
220.0111
 31
0.0
  0
LINE
  5
37E
330
851
100
AcDbEntity
  8
V0-OBRYS
  6
CONTINUOUS
 62
    90
100
AcDbLine
 10
-216.412626
 20
237.8671
 30
0.0
 11
-216.412626
 21
233.4031
 31
0.0
  0
LINE
  5
37F
330
851
100
AcDbEntity
  8
V0-OBRYS
  6
CONTINUOUS
 62
    90
100
AcDbLine
 10
-223.852626
 20
233.4031
 30
0.0
 11
-223.852626
 21
231.9151
 31
0.0
  0
LINE
  5
380
330
851
100
AcDbEntity
  8
V0-OBRYS
  6
CONTINUOUS
 62
    90
100
AcDbLine
 10
-223.852626
 20
227.4511
 30
0.0
 11
-223.852626
 21
225.9631
 31
0.0
  0
ARC
  5
381
330
851
100
AcDbEntity
  8
V0-OBRYS
  6
CONTINUOUS
 62
    90
100
AcDbCircle
 10
1015.484743
 20
226.7071
 30
0.0
 40
1237.241694
100
AcDbArc
 50
179.483181
 51
179.689912
  0
LINE
  5
382
330
851
100
AcDbEntity
  8
V0-OBRYS
  6
CONTINUOUS
 62
    90
100
AcDbLine
 10
-216.412626
 20
221.4991
 30
0.0
 11
-223.852626
 21
221.4991
 31
0.0
  0
LINE
  5
383
330
851
100
AcDbEntity
  8
V0-OBRYS
  6
CONTINUOUS
 62
    90
100
AcDbLine
 10
-216.412626
 20
227.4511
 30
0.0
 11
-223.852626
 21
227.4511
 31
0.0
  0
LINE
  5
384
330
851
100
AcDbEntity
  8
V0-OBRYS
  6
CONTINUOUS
 62
    90
100
AcDbLine
 10
-216.412626
 20
225.9631
 30
0.0
 11
-223.852626
 21
225.9631
 31
0.0
  0
LINE
  5
385
330
851
100
AcDbEntity
  8
V0-OBRYS
  6
CONTINUOUS
 62
    90
100
AcDbLine
 10
-216.412626
 20
231.9151
 30
0.0
 11
-223.852626
 21
231.9151
 31
0.0
  0
LINE
  5
386
330
851
100
AcDbEntity
  8
V0-OBRYS
  6
CONTINUOUS
 62
    90
100
AcDbLine
 10
-216.412626
 20
233.4031
 30
0.0
 11
-223.852626
 21
233.4031
 31
0.0
  0
LINE
  5
387
330
851
100
AcDbEntity
  8
V0-OBRYS
  6
CONTINUOUS
 62
    90
100
AcDbLine
 10
-216.412626
 20
237.8671
 30
0.0
 11
-223.852626
 21
237.8671
 31
0.0
  0
ARC
  5
388
330
851
100
AcDbEntity
  8
V0-OBRYS
  6
CONTINUOUS
 62
    90
100
AcDbCircle
 10
1015.484743
 20
226.7071
 30
0.0
 40
1237.241694
100
AcDbArc
 50
177.484042
 51
177.69095
  0
LINE
  5
389
330
851
100
AcDbEntity
  8
V0-OBRYS
  6
CONTINUOUS
 62
    90
100
AcDbLine
 10
-216.412626
 20
281.0191
 30
0.0
 11
-216.412626
 21
276.5551
 31
0.0
  0
LINE
  5
38A
330
851
100
AcDbEntity
  8
V0-OBRYS
  6
CONTINUOUS
 62
    90
100
AcDbLine
 10
-223.852626
 20
258.6991
 30
0.0
 11
-223.852626
 21
257.2111
 31
0.0
  0
LINE
  5
38B
330
851
100
AcDbEntity
  8
V0-OBRYS
  6
CONTINUOUS
 62
    90
100
AcDbLine
 10
-216.412626
 20
245.3071
 30
0.0
 11
-216.412626
 21
239.3551
 31
0.0
  0
LINE
  5
38C
330
851
100
AcDbEntity
  8
V0-OBRYS
  6
CONTINUOUS
 62
    90
100
AcDbLine
 10
-216.412626
 20
251.2591
 30
0.0
 11
-216.412626
 21
246.7951
 31
0.0
  0
LINE
  5
38D
330
851
100
AcDbEntity
  8
V0-OBRYS
  6
CONTINUOUS
 62
    90
100
AcDbLine
 10
-216.412626
 20
257.2111
 30
0.0
 11
-216.412626
 21
252.7471
 31
0.0
  0
LINE
  5
38E
330
851
100
AcDbEntity
  8
V0-OBRYS
  6
CONTINUOUS
 62
    90
100
AcDbLine
 10
-223.852626
 20
252.7471
 30
0.0
 11
-223.852626
 21
251.2591
 31
0.0
  0
ARC
  5
38F
330
851
100
AcDbEntity
  8
V0-OBRYS
  6
CONTINUOUS
 62
    90
100
AcDbCircle
 10
1015.484743
 20
226.7071
 30
0.0
 40
1237.241694
100
AcDbArc
 50
179.138615
 51
179.41427
  0
ARC
  5
390
330
851
100
AcDbEntity
  8
V0-OBRYS
  6
CONTINUOUS
 62
    90
100
AcDbCircle
 10
1015.484743
 20
226.7071
 30
0.0
 40
1237.241694
100
AcDbArc
 50
178.86294
 51
179.069698
  0
LINE
  5
391
330
851
100
AcDbEntity
  8
V0-OBRYS
  6
CONTINUOUS
 62
    90
100
AcDbLine
 10
-223.852626
 20
246.7951
 30
0.0
 11
-223.852626
 21
245.3071
 31
0.0
  0
ARC
  5
392
330
851
100
AcDbEntity
  8
V0-OBRYS
  6
CONTINUOUS
 62
    90
100
AcDbCircle
 10
1015.484743
 20
226.7071
 30
0.0
 40
1237.241694
100
AcDbArc
 50
178.587238
 51
178.794017
  0
LINE
  5
393
330
851
100
AcDbEntity
  8
V0-OBRYS
  6
CONTINUOUS
 62
    90
100
AcDbLine
 10
-216.412626
 20
239.3551
 30
0.0
 11
-223.852626
 21
239.3551
 31
0.0
  0
LINE
  5
394
330
851
100
AcDbEntity
  8
V0-OBRYS
  6
CONTINUOUS
 62
    90
100
AcDbLine
 10
-216.412626
 20
246.7951
 30
0.0
 11
-223.852626
 21
246.7951
 31
0.0
  0
LINE
  5
395
330
851
100
AcDbEntity
  8
V0-OBRYS
  6
CONTINUOUS
 62
    90
100
AcDbLine
 10
-216.412626
 20
245.3071
 30
0.0
 11
-223.852626
 21
245.3071
 31
0.0
  0
LINE
  5
396
330
851
100
AcDbEntity
  8
V0-OBRYS
  6
CONTINUOUS
 62
    90
100
AcDbLine
 10
-216.412626
 20
251.2591
 30
0.0
 11
-223.852626
 21
251.2591
 31
0.0
  0
LINE
  5
397
330
851
100
AcDbEntity
  8
V0-OBRYS
  6
CONTINUOUS
 62
    90
100
AcDbLine
 10
-216.412626
 20
252.7471
 30
0.0
 11
-223.852626
 21
252.7471
 31
0.0
  0
LINE
  5
398
330
851
100
AcDbEntity
  8
V0-OBRYS
  6
CONTINUOUS
 62
    90
100
AcDbLine
 10
-216.412626
 20
257.2111
 30
0.0
 11
-223.852626
 21
257.2111
 31
0.0
  0
LINE
  5
399
330
851
100
AcDbEntity
  8
V0-OBRYS
  6
CONTINUOUS
 62
    90
100
AcDbLine
 10
-216.412626
 20
263.1631
 30
0.0
 11
-216.412626
 21
258.6991
 31
0.0
  0
LINE
  5
39A
330
851
100
AcDbEntity
  8
V0-OBRYS
  6
CONTINUOUS
 62
    90
100
AcDbLine
 10
-216.412626
 20
269.1151
 30
0.0
 11
-216.412626
 21
264.6511
 31
0.0
  0
LINE
  5
39B
330
851
100
AcDbEntity
  8
V0-OBRYS
  6
CONTINUOUS
 62
    90
100
AcDbLine
 10
-216.412626
 20
275.0671
 30
0.0
 11
-216.412626
 21
270.6031
 31
0.0
  0
LINE
  5
39C
330
851
100
AcDbEntity
  8
V0-OBRYS
  6
CONTINUOUS
 62
    90
100
AcDbLine
 10
-223.852626
 20
270.6031
 30
0.0
 11
-223.852626
 21
269.1151
 31
0.0
  0
ARC
  5
39D
330
851
100
AcDbEntity
  8
V0-OBRYS
  6
CONTINUOUS
 62
    90
100
AcDbCircle
 10
1015.484743
 20
226.7071
 30
0.0
 40
1237.241694
100
AcDbArc
 50
178.311504
 51
178.518308
  0
ARC
  5
39E
330
851
100
AcDbEntity
  8
V0-OBRYS
  6
CONTINUOUS
 62
    90
100
AcDbCircle
 10
1015.484743
 20
226.7071
 30
0.0
 40
1237.241694
100
AcDbArc
 50
178.035731
 51
178.242565
  0
LINE
  5
39F
330
851
100
AcDbEntity
  8
V0-OBRYS
  6
CONTINUOUS
 62
    90
100
AcDbLine
 10
-223.852626
 20
264.6511
 30
0.0
 11
-223.852626
 21
263.1631
 31
0.0
  0
ARC
  5
3A0
330
851
100
AcDbEntity
  8
V0-OBRYS
  6
CONTINUOUS
 62
    90
100
AcDbCircle
 10
1015.484743
 20
226.7071
 30
0.0
 40
1237.241694
100
AcDbArc
 50
177.759912
 51
177.966781
  0
LINE
  5
3A1
330
851
100
AcDbEntity
  8
V0-OBRYS
  6
CONTINUOUS
 62
    90
100
AcDbLine
 10
-223.852626
 20
276.5551
 30
0.0
 11
-223.852626
 21
275.0671
 31
0.0
  0
LINE
  5
3A2
330
851
100
AcDbEntity
  8
V0-OBRYS
  6
CONTINUOUS
 62
    90
100
AcDbLine
 10
-216.412626
 20
258.6991
 30
0.0
 11
-223.852626
 21
258.6991
 31
0.0
  0
LINE
  5
3A3
330
851
100
AcDbEntity
  8
V0-OBRYS
  6
CONTINUOUS
 62
    90
100
AcDbLine
 10
-216.412626
 20
264.6511
 30
0.0
 11
-223.852626
 21
264.6511
 31
0.0
  0
LINE
  5
3A4
330
851
100
AcDbEntity
  8
V0-OBRYS
  6
CONTINUOUS
 62
    90
100
AcDbLine
 10
-216.412626
 20
263.1631
 30
0.0
 11
-223.852626
 21
263.1631
 31
0.0
  0
LINE
  5
3A5
330
851
100
AcDbEntity
  8
V0-OBRYS
  6
CONTINUOUS
 62
    90
100
AcDbLine
 10
-216.412626
 20
269.1151
 30
0.0
 11
-223.852626
 21
269.1151
 31
0.0
  0
LINE
  5
3A6
330
851
100
AcDbEntity
  8
V0-OBRYS
  6
CONTINUOUS
 62
    90
100
AcDbLine
 10
-216.412626
 20
270.6031
 30
0.0
 11
-223.852626
 21
270.6031
 31
0.0
  0
LINE
  5
3A7
330
851
100
AcDbEntity
  8
V0-OBRYS
  6
CONTINUOUS
 62
    90
100
AcDbLine
 10
-216.412626
 20
276.5551
 30
0.0
 11
-223.852626
 21
276.5551
 31
0.0
  0
LINE
  5
3A8
330
851
100
AcDbEntity
  8
V0-OBRYS
  6
CONTINUOUS
 62
    90
100
AcDbLine
 10
-216.412626
 20
275.0671
 30
0.0
 11
-223.852626
 21
275.0671
 31
0.0
  0
LINE
  5
3A9
330
851
100
AcDbEntity
  8
V0-OBRYS
  6
CONTINUOUS
 62
    90
100
AcDbLine
 10
-216.412626
 20
310.254358
 30
0.0
 11
-216.412626
 21
294.4111
 31
0.0
  0
ARC
  5
3AA
330
851
100
AcDbEntity
  8
V0-OBRYS
  6
CONTINUOUS
 62
    90
100
AcDbCircle
 10
1015.484743
 20
226.7071
 30
0.0
 40
1237.241694
100
AcDbArc
 50
176.932119
 51
177.13912
  0
LINE
  5
3AB
330
851
100
AcDbEntity
  8
V0-OBRYS
  6
CONTINUOUS
 62
    90
100
AcDbLine
 10
-216.412626
 20
292.9231
 30
0.0
 11
-216.412626
 21
288.4591
 31
0.0
  0
LINE
  5
3AC
330
851
100
AcDbEntity
  8
V0-OBRYS
  6
CONTINUOUS
 62
    90
100
AcDbLine
 10
-216.412626
 20
286.9711
 30
0.0
 11
-216.412626
 21
282.5071
 31
0.0
  0
LINE
  5
3AD
330
851
100
AcDbEntity
  8
V0-OBRYS
  6
CONTINUOUS
 62
    90
100
AcDbLine
 10
-223.852626
 20
282.5071
 30
0.0
 11
-223.852626
 21
281.0191
 31
0.0
  0
LINE
  5
3AE
330
851
100
AcDbEntity
  8
V0-OBRYS
  6
CONTINUOUS
 62
    90
100
AcDbLine
 10
-223.852626
 20
288.4591
 30
0.0
 11
-223.852626
 21
286.9711
 31
0.0
  0
LINE
  5
3AF
330
851
100
AcDbEntity
  8
V0-OBRYS
  6
CONTINUOUS
 62
    90
100
AcDbLine
 10
-223.852626
 20
294.4111
 30
0.0
 11
-223.852626
 21
292.9231
 31
0.0
  0
ARC
  5
3B0
330
851
100
AcDbEntity
  8
V0-OBRYS
  6
CONTINUOUS
 62
    90
100
AcDbCircle
 10
1015.484743
 20
226.7071
 30
0.0
 40
1237.241694
100
AcDbArc
 50
177.208112
 51
177.415065
  0
LINE
  5
3B1
330
851
100
AcDbEntity
  8
V0-OBRYS
  6
CONTINUOUS
 62
    90
100
AcDbLine
 10
-216.412626
 20
282.5071
 30
0.0
 11
-223.852626
 21
282.5071
 31
0.0
  0
LINE
  5
3B2
330
851
100
AcDbEntity
  8
V0-OBRYS
  6
CONTINUOUS
 62
    90
100
AcDbLine
 10
-216.412626
 20
281.0191
 30
0.0
 11
-223.852626
 21
281.0191
 31
0.0
  0
LINE
  5
3B3
330
851
100
AcDbEntity
  8
V0-OBRYS
  6
CONTINUOUS
 62
    90
100
AcDbLine
 10
-216.412626
 20
288.4591
 30
0.0
 11
-223.852626
 21
288.4591
 31
0.0
  0
LINE
  5
3B4
330
851
100
AcDbEntity
  8
V0-OBRYS
  6
CONTINUOUS
 62
    90
100
AcDbLine
 10
-216.412626
 20
286.9711
 30
0.0
 11
-223.852626
 21
286.9711
 31
0.0
  0
LINE
  5
3B5
330
851
100
AcDbEntity
  8
V0-OBRYS
  6
CONTINUOUS
 62
    90
100
AcDbLine
 10
-216.412626
 20
294.4111
 30
0.0
 11
-223.852626
 21
294.4111
 31
0.0
  0
LINE
  5
3B6
330
851
100
AcDbEntity
  8
V0-OBRYS
  6
CONTINUOUS
 62
    90
100
AcDbLine
 10
-216.412626
 20
292.9231
 30
0.0
 11
-223.852626
 21
292.9231
 31
0.0
  0
LINE
  5
3B7
330
851
100
AcDbEntity
  8
V0-OBRYS
  6
CONTINUOUS
 62
    90
100
AcDbLine
 10
-216.412626
 20
304.8271
 30
0.0
 11
-216.412626
 21
300.3631
 31
0.0
  0
LINE
  5
3B8
330
851
100
AcDbEntity
  8
V0-OBRYS
  6
CONTINUOUS
 62
    90
100
AcDbLine
 10
-218.932879
 20
310.254358
 30
0.0
 11
-216.412626
 21
310.254358
 31
0.0
  0
LINE
  5
3B9
330
851
100
AcDbEntity
  8
V0-OBRYS
  6
CONTINUOUS
 62
    90
100
AcDbLine
 10
-223.852626
 20
300.3631
 30
0.0
 11
-223.852626
 21
298.8751
 31
0.0
  0
LINE
  5
3BA
330
851
100
AcDbEntity
  8
V0-OBRYS
  6
CONTINUOUS
 62
    90
100
AcDbLine
 10
-223.852626
 20
306.3151
 30
0.0
 11
-223.852626
 21
304.8271
 31
0.0
  0
LINE
  5
3BB
330
851
100
AcDbEntity
  8
V0-OBRYS
  6
CONTINUOUS
 62
    90
100
AcDbLine
 10
-216.412626
 20
300.3631
 30
0.0
 11
-223.852626
 21
300.3631
 31
0.0
  0
LINE
  5
3BC
330
851
100
AcDbEntity
  8
V0-OBRYS
  6
CONTINUOUS
 62
    90
100
AcDbLine
 10
-216.412626
 20
298.8751
 30
0.0
 11
-223.852626
 21
298.8751
 31
0.0
  0
LINE
  5
3BD
330
851
100
AcDbEntity
  8
V0-OBRYS
  6
CONTINUOUS
 62
    90
100
AcDbLine
 10
-216.412626
 20
306.3151
 30
0.0
 11
-223.852626
 21
306.3151
 31
0.0
  0
LINE
  5
3BE
330
851
100
AcDbEntity
  8
V0-OBRYS
  6
CONTINUOUS
 62
    90
100
AcDbLine
 10
-216.412626
 20
304.8271
 30
0.0
 11
-223.852626
 21
304.8271
 31
0.0
  0
ARC
  5
3BF
330
851
100
AcDbEntity
  8
V0-OBRYS
  6
CONTINUOUS
 62
    90
100
AcDbCircle
 10
-209.576642
 20
344.581148
 30
0.0
 40
7.44
100
AcDbArc
 50
90.0
 51
174.967741
  0
LINE
  5
40F
330
851
100
AcDbEntity
  8
V0-OBRYS
  6
CONTINUOUS
 62
    90
100
AcDbLine
 10
-209.576642
 20
352.021148
 30
0.0
 11
-194.852626
 21
352.021148
 31
0.0
  0
LINE
  5
410
330
851
100
AcDbEntity
  8
V0-OBRYS
  6
CONTINUOUS
 62
    90
100
AcDbLine
 10
-209.576642
 20
101.393052
 30
0.0
 11
-196.852626
 21
101.393052
 31
0.0
  0
LINE
  5
411
330
851
100
AcDbEntity
  8
V0-OBRYS
  6
CONTINUOUS
 62
    90
100
AcDbLine
 10
-209.576642
 20
-35.768138
 30
0.0
 11
-196.852626
 21
-35.768138
 31
0.0
  0
LINE
  5
412
330
851
100
AcDbEntity
  8
V0-OBRYS
  6
CONTINUOUS
 62
    90
100
AcDbLine
 10
-209.576642
 20
-286.396234
 30
0.0
 11
-196.852626
 21
-286.396234
 31
0.0
  0
POINT
  5
417
330
851
100
AcDbEntity
  8
V0-OBRYS
  6
CONTINUOUS
 62
    90
100
AcDbPoint
 10
-165.863579
 20
226.7071
 30
0.0
  0
POINT
  5
418
330
851
100
AcDbEntity
  8
V0-OBRYS
  6
CONTINUOUS
 62
    90
100
AcDbPoint
 10
-165.863579
 20
-161.082186
 30
0.0
  0
TEXT
  5
827
330
851
100
AcDbEntity
  8
V0-NAZVY
100
AcDbText
 10
44.73594357142857
 20
-93.371976
 30
0.0
 40
36.03564
  1
HV 150
  7
ED10
100
AcDbText
  0
TEXT
  5
828
330
851
100
AcDbEntity
  8
V0-ZBYTEK
 62
    51
100
AcDbText
 10
43.91994342857142
 20
-134.4963373333333
 30
0.0
 40
20.179958
  1
MALY AXIALNI
  7
ED10
100
AcDbText
  0
TEXT
  5
829
330
851
100
AcDbEntity
  8
V0-ZBYTEK
 62
    51
100
AcDbText
 10
62.17800066666663
 20
-168.1296006666667
 30
0.0
 40
20.179958
  1
VENTILATOR
  7
ED10
100
AcDbText
  0
VIEWPORT
  5
8CF
330
84D
100
AcDbEntity
 67
     1
  8
0
 60
     1
100
AcDbViewport
 10
0.0
 20
0.0
 30
0.0
 40
10.0
 41
10.0
 68
     0
 69
     1
1001
VD_INVISIBLE_NOT_FOR_READ
1000
VD_INVISIBLE_NOT_FOR_READ
1001
ACAD
1000
MVIEW
1002
{
1070
    16
1010
0.0
1020
0.0
1030
0.0
1010
0.0
1020
0.0
1030
1.0
1040
6.2831853071796
1040
10.0
1040
0.0
1040
0.0
1040
0.0
1040
0.0
1040
0.0
1070
     0
1070
   100
1070
     0
1070
     1
1070
     0
1070
     0
1070
     0
1070
     0
1040
0.0
1040
0.0
1040
0.0
1040
1.0
1040
1.0
1040
0.0
1040
0.0
1070
     0
1002
{
1002
}
1002
}
  0
VIEWPORT
  5
8D0
330
84D
100
AcDbEntity
 67
     1
  8
0
 60
     1
100
AcDbViewport
 10
0.0
 20
0.0
 30
0.0
 40
10.0
 41
10.0
 68
     0
 69
     2
1001
VD_INVISIBLE_NOT_FOR_READ
1000
VD_INVISIBLE_NOT_FOR_READ
1001
ACAD
1000
MVIEW
1002
{
1070
    16
1010
0.0
1020
0.0
1030
0.0
1010
0.0
1020
0.0
1030
1.0
1040
6.2831853071796
1040
10.0
1040
0.0
1040
0.0
1040
0.0
1040
0.0
1040
0.0
1070
     0
1070
   100
1070
     0
1070
     1
1070
     0
1070
     0
1070
     0
1070
     0
1040
0.0
1040
0.0
1040
0.0
1040
1.0
1040
1.0
1040
0.0
1040
0.0
1070
     0
1002
{
1002
}
1002
}
  0
ENDSEC
  0
SECTION
  2
OBJECTS
  0
DICTIONARY
  5
83E
330
0
100
AcDbDictionary
  3
ACAD_GROUP
350
83F
  3
ACAD_LAYOUT
350
84C
  3
ACAD_MLINESTYLE
350
849
  3
ACAD_PLOTSETTINGS
350
84B
  3
ACDBHEADERROUNDTRIPXREC
350
8D1
  3
VECTORDRAW_OBJECTS
350
861
  0
DICTIONARY
  5
8F1
330
85B
100
AcDbDictionary
280
     1
  3
ACAD_XREC_ROUNDTRIP
360
8F2
  0
DICTIONARY
  5
83F
102
{ACAD_REACTORS
330
83E
102
}
330
83E
100
AcDbDictionary
  0
DICTIONARY
  5
84C
102
{ACAD_REACTORS
330
83E
102
}
330
83E
100
AcDbDictionary
  0
DICTIONARY
  5
849
102
{ACAD_REACTORS
330
83E
102
}
330
83E
100
AcDbDictionary
  3
STANDARD
350
84A
  0
DICTIONARY
  5
84B
102
{ACAD_REACTORS
330
83E
102
}
330
83E
100
AcDbDictionary
  0
DICTIONARY
  5
8D1
102
{ACAD_REACTORS
330
83E
102
}
330
83E
100
AcDbDictionary
  3
CEPSNTYPE
350
8DA
  3
DIMSTYLEDATA
350
8F0
  3
FINGERPRINTGUID
350
8DB
  3
HYPERLINKBASE
350
8D4
  3
INSUNITS
350
8D9
  3
LAYOUTDICT
350
8D6
  3
LWETCUNION
350
8D8
  3
PLOTSETDICT
350
8D7
  3
PSVPSCALE
350
8DD
  3
PUCSBASE
350
8E0
  3
PUCSORGBACK
350
8E6
  3
PUCSORGBOTTOM
350
8E2
  3
PUCSORGFRONT
350
8E5
  3
PUCSORGLEFT
350
8E3
  3
PUCSORGRIGHT
350
8E4
  3
PUCSORGTOP
350
8E1
  3
PUCSORTHOREF
350
8DE
  3
PUCSORTHOVIEW
350
8DF
  3
STYLESHEET
350
8D5
  3
TSTACKALIGN
350
8D2
  3
TSTACKSIZE
350
8D3
  3
UCSBASE
350
8E9
  3
UCSORGBACK
350
8EF
  3
UCSORGBOTTOM
350
8EB
  3
UCSORGFRONT
350
8EE
  3
UCSORGLEFT
350
8EC
  3
UCSORGRIGHT
350
8ED
  3
UCSORGTOP
350
8EA
  3
UCSORTHOREF
350
8E7
  3
UCSORTHOVIEW
350
8E8
  3
VERSIONGUID
350
8DC
  0
DICTIONARY
  5
861
102
{ACAD_REACTORS
330
83E
102
}
330
83E
100
AcDbDictionary
  3
SERIALNO
350
862
  0
XRECORD
  5
8F2
102
{ACAD_REACTORS
330
8F1
102
}
330
8F1
100
AcDbXrecord
102
UCS
 74
     0
 71
     1
 10
0.0
 20
0.0
 30
0.0
 10
1.0
 20
0.0
 30
0.0
 10
0.0
 20
1.0
 30
0.0
146
0.0
 79
     0
102
VIEW
281
     0
  0
MLINESTYLE
  5
84A
102
{ACAD_REACTORS
330
849
102
}
330
849
100
AcDbMlineStyle
  2
Standard
 70
     0
  3

 62
   256
 51
90.0
 52
90.0
 71
     2
 49
0.5
 62
   256
  6
BYLAYER
 49
-0.5
 62
   256
  6
BYLAYER
  0
XRECORD
  5
8DA
102
{ACAD_REACTORS
330
8D1
102
}
330
8D1
100
AcDbXrecord
 90
        0
  0
XRECORD
  5
8F0
102
{ACAD_REACTORS
330
8D1
102
}
330
8D1
100
AcDbXrecord
1000
DSTYLE
1002
{
1070
    41
 40
15.0
1070
   342
340
20
1070
   271
 70
     0
1070
    44
 40
1.25
1070
    42
 40
1.0
1070
   147
 40
1.5
1070
    77
 70
     1
1070
    73
 70
     0
1070
   174
 70
     1
1070
   172
 70
     1
1070
    74
 70
     0
1070
   340
340
1C
1070
   140
 40
10.0
1070
   288
 70
     1
1002
}
  0
XRECORD
  5
8DB
102
{ACAD_REACTORS
330
8D1
102
}
330
8D1
100
AcDbXrecord
  1
{FAEB1C30-E019-11D5-929B-00C0DF256EC4}
  0
XRECORD
  5
8D4
102
{ACAD_REACTORS
330
8D1
102
}
330
8D1
100
AcDbXrecord
  1

  0
XRECORD
  5
8D9
102
{ACAD_REACTORS
330
8D1
102
}
330
8D1
100
AcDbXrecord
 90
        1
  0
XRECORD
  5
8D6
102
{ACAD_REACTORS
330
8D1
102
}
330
8D1
100
AcDbXrecord
340
84C
  0
XRECORD
  5
8D8
102
{ACAD_REACTORS
330
8D1
102
}
330
8D1
100
AcDbXrecord
 90
     2560
  0
XRECORD
  5
8D7
102
{ACAD_REACTORS
330
8D1
102
}
330
8D1
100
AcDbXrecord
340
84B
  0
XRECORD
  5
8DD
102
{ACAD_REACTORS
330
8D1
102
}
330
8D1
100
AcDbXrecord
 40
0.0
  0
XRECORD
  5
8E0
102
{ACAD_REACTORS
330
8D1
102
}
330
8D1
100
AcDbXrecord
340
0
  0
XRECORD
  5
8E6
102
{ACAD_REACTORS
330
8D1
102
}
330
8D1
100
AcDbXrecord
 10
0.0
 20
0.0
 30
0.0
  0
XRECORD
  5
8E2
102
{ACAD_REACTORS
330
8D1
102
}
330
8D1
100
AcDbXrecord
 10
0.0
 20
0.0
 30
0.0
  0
XRECORD
  5
8E5
102
{ACAD_REACTORS
330
8D1
102
}
330
8D1
100
AcDbXrecord
 10
0.0
 20
0.0
 30
0.0
  0
XRECORD
  5
8E3
102
{ACAD_REACTORS
330
8D1
102
}
330
8D1
100
AcDbXrecord
 10
0.0
 20
0.0
 30
0.0
  0
XRECORD
  5
8E4
102
{ACAD_REACTORS
330
8D1
102
}
330
8D1
100
AcDbXrecord
 10
0.0
 20
0.0
 30
0.0
  0
XRECORD
  5
8E1
102
{ACAD_REACTORS
330
8D1
102
}
330
8D1
100
AcDbXrecord
 10
0.0
 20
0.0
 30
0.0
  0
XRECORD
  5
8DE
102
{ACAD_REACTORS
330
8D1
102
}
330
8D1
100
AcDbXrecord
340
0
  0
XRECORD
  5
8DF
102
{ACAD_REACTORS
330
8D1
102
}
330
8D1
100
AcDbXrecord
 70
     0
  0
XRECORD
  5
8D5
102
{ACAD_REACTORS
330
8D1
102
}
330
8D1
100
AcDbXrecord
  1

  0
XRECORD
  5
8D2
102
{ACAD_REACTORS
330
8D1
102
}
330
8D1
100
AcDbXrecord
 90
        1
  0
XRECORD
  5
8D3
102
{ACAD_REACTORS
330
8D1
102
}
330
8D1
100
AcDbXrecord
 90
       70
  0
XRECORD
  5
8E9
102
{ACAD_REACTORS
330
8D1
102
}
330
8D1
100
AcDbXrecord
340
0
  0
XRECORD
  5
8EF
102
{ACAD_REACTORS
330
8D1
102
}
330
8D1
100
AcDbXrecord
 10
0.0
 20
0.0
 30
0.0
  0
XRECORD
  5
8EB
102
{ACAD_REACTORS
330
8D1
102
}
330
8D1
100
AcDbXrecord
 10
0.0
 20
0.0
 30
0.0
  0
XRECORD
  5
8EE
102
{ACAD_REACTORS
330
8D1
102
}
330
8D1
100
AcDbXrecord
 10
0.0
 20
0.0
 30
0.0
  0
XRECORD
  5
8EC
102
{ACAD_REACTORS
330
8D1
102
}
330
8D1
100
AcDbXrecord
 10
0.0
 20
0.0
 30
0.0
  0
XRECORD
  5
8ED
102
{ACAD_REACTORS
330
8D1
102
}
330
8D1
100
AcDbXrecord
 10
0.0
 20
0.0
 30
0.0
  0
XRECORD
  5
8EA
102
{ACAD_REACTORS
330
8D1
102
}
330
8D1
100
AcDbXrecord
 10
0.0
 20
0.0
 30
0.0
  0
XRECORD
  5
8E7
102
{ACAD_REACTORS
330
8D1
102
}
330
8D1
100
AcDbXrecord
340
0
  0
XRECORD
  5
8E8
102
{ACAD_REACTORS
330
8D1
102
}
330
8D1
100
AcDbXrecord
 70
     0
  0
XRECORD
  5
8DC
102
{ACAD_REACTORS
330
8D1
102
}
330
8D1
100
AcDbXrecord
  1
{FAEB1C32-E019-11D5-929B-00C0DF256EC4}
  0
XRECORD
  5
862
102
{ACAD_REACTORS
330
861
102
}
330
861
100
AcDbXrecord
1000
rInJVR9YY4Q8hfPWdUq5j5319
1070
     4
1070
     6
  0
ENDSEC
  0
EOF
