  0
SECTION
  2
HEADER
  9
$ACADVER
  1
AC1014
  9
$ACADMAINTVER
 70
     0
  9
$DWGCODEPAGE
  3
ANSI_1250
  9
$INSBASE
 10
0.0
 20
0.0
 30
0.0
  9
$EXTMIN
 10
-123.152572
 20
-757.805945
 30
0.0
  9
$EXTMAX
 10
1198.014952
 20
324.09149
 30
0.0
  9
$LIMMIN
 10
0.0
 20
0.0
  9
$LIMMAX
 10
420.0
 20
297.0
  9
$ORTHOMODE
 70
     0
  9
$REGENMODE
 70
     1
  9
$FILLMODE
 70
     1
  9
$QTEXTMODE
 70
     0
  9
$MIRRTEXT
 70
     1
  9
$DRAGMODE
 70
     2
  9
$LTSCALE
 40
1.0
  9
$OSMODE
 70
    15
  9
$ATTMODE
 70
     1
  9
$TEXTSIZE
 40
2.5
  9
$TRACEWID
 40
1.0
  9
$TEXTSTYLE
  7
ED20
  9
$CLAYER
  8
V0-OBRYS
  9
$CELTYPE
  6
BYLAYER
  9
$CECOLOR
 62
   256
  9
$CELTSCALE
 40
1.0
  9
$DELOBJ
 70
     1
  9
$DISPSILH
 70
     0
  9
$DIMSCALE
 40
1.0
  9
$DIMASZ
 40
15.0
  9
$DIMEXO
 40
1.0
  9
$DIMDLI
 40
3.75
  9
$DIMRND
 40
0.0
  9
$DIMDLE
 40
0.0
  9
$DIMEXE
 40
1.25
  9
$DIMTP
 40
0.0
  9
$DIMTM
 40
0.0
  9
$DIMTXT
 40
20.0
  9
$DIMCEN
 40
3.0
  9
$DIMTSZ
 40
0.0
  9
$DIMTOL
 70
     0
  9
$DIMLIM
 70
     0
  9
$DIMTIH
 70
     0
  9
$DIMTOH
 70
     0
  9
$DIMSE1
 70
     0
  9
$DIMSE2
 70
     0
  9
$DIMTAD
 70
     1
  9
$DIMZIN
 70
     8
  9
$DIMBLK
  1

  9
$DIMASO
 70
     1
  9
$DIMSHO
 70
     1
  9
$DIMPOST
  1

  9
$DIMAPOST
  1

  9
$DIMALT
 70
     0
  9
$DIMALTD
 70
     4
  9
$DIMALTF
 40
0.0394
  9
$DIMLFAC
 40
1.0
  9
$DIMTOFL
 70
     1
  9
$DIMTVP
 40
0.0
  9
$DIMTIX
 70
     0
  9
$DIMSOXD
 70
     0
  9
$DIMSAH
 70
     1
  9
$DIMBLK1
  1
_OPEN
  9
$DIMBLK2
  1
_OPEN
  9
$DIMSTYLE
  2
ED20
  9
$DIMCLRD
 70
     0
  9
$DIMCLRE
 70
     0
  9
$DIMCLRT
 70
     0
  9
$DIMTFAC
 40
1.0
  9
$DIMGAP
 40
2.0
  9
$DIMJUST
 70
     0
  9
$DIMSD1
 70
     0
  9
$DIMSD2
 70
     0
  9
$DIMTOLJ
 70
     1
  9
$DIMTZIN
 70
     8
  9
$DIMALTZ
 70
     0
  9
$DIMALTTZ
 70
     0
  9
$DIMFIT
 70
     3
  9
$DIMUPT
 70
     0
  9
$DIMUNIT
 70
     2
  9
$DIMDEC
 70
     0
  9
$DIMTDEC
 70
     1
  9
$DIMALTU
 70
     8
  9
$DIMALTTD
 70
     4
  9
$DIMTXSTY
  7
ED20
  9
$DIMAUNIT
 70
     0
  9
$LUNITS
 70
     2
  9
$LUPREC
 70
     4
  9
$SKETCHINC
 40
1.0
  9
$FILLETRAD
 40
40.0
  9
$AUNITS
 70
     0
  9
$AUPREC
 70
     0
  9
$MENU
  1
.
  9
$ELEVATION
 40
0.0
  9
$PELEVATION
 40
0.0
  9
$THICKNESS
 40
0.0
  9
$LIMCHECK
 70
     0
  9
$BLIPMODE
 70
     0
  9
$CHAMFERA
 40
10.0
  9
$CHAMFERB
 40
10.0
  9
$CHAMFERC
 40
20.0
  9
$CHAMFERD
 40
0.0
  9
$SKPOLY
 70
     1
  9
$TDCREATE
 40
2451196.643769328
  9
$TDUPDATE
 40
2452915.856416782
  9
$TDINDWG
 40
0.1973643519
  9
$TDUSRTIMER
 40
0.1973643519
  9
$USRTIMER
 70
     1
  9
$ANGBASE
 50
0.0
  9
$ANGDIR
 70
     0
  9
$PDMODE
 70
     3
  9
$PDSIZE
 40
10.0
  9
$PLINEWID
 40
0.0
  9
$COORDS
 70
     1
  9
$SPLFRAME
 70
     0
  9
$SPLINETYPE
 70
     6
  9
$SPLINESEGS
 70
     8
  9
$ATTDIA
 70
     0
  9
$ATTREQ
 70
     1
  9
$HANDLING
 70
     1
  9
$HANDSEED
  5
91B
  9
$SURFTAB1
 70
     6
  9
$SURFTAB2
 70
     6
  9
$SURFTYPE
 70
     6
  9
$SURFU
 70
     6
  9
$SURFV
 70
     6
  9
$UCSNAME
  2

  9
$UCSORG
 10
400.0
 20
0.0
 30
0.0
  9
$UCSXDIR
 10
1.0
 20
0.0
 30
0.0
  9
$UCSYDIR
 10
0.0
 20
1.0
 30
0.0
  9
$PUCSNAME
  2

  9
$PUCSORG
 10
0.0
 20
0.0
 30
0.0
  9
$PUCSXDIR
 10
1.0
 20
0.0
 30
0.0
  9
$PUCSYDIR
 10
0.0
 20
1.0
 30
0.0
  9
$USERI1
 70
     0
  9
$USERI2
 70
     0
  9
$USERI3
 70
     0
  9
$USERI4
 70
     0
  9
$USERI5
 70
     0
  9
$USERR1
 40
0.0
  9
$USERR2
 40
0.0
  9
$USERR3
 40
0.0
  9
$USERR4
 40
0.0
  9
$USERR5
 40
0.0
  9
$WORLDVIEW
 70
     1
  9
$SHADEDGE
 70
     3
  9
$SHADEDIF
 70
    70
  9
$TILEMODE
 70
     1
  9
$MAXACTVP
 70
    48
  9
$PINSBASE
 10
0.0
 20
0.0
 30
0.0
  9
$PLIMCHECK
 70
     0
  9
$PEXTMIN
 10
1.000000E+20
 20
1.000000E+20
 30
1.000000E+20
  9
$PEXTMAX
 10
-1.000000E+20
 20
-1.000000E+20
 30
-1.000000E+20
  9
$PLIMMIN
 10
0.0
 20
0.0
  9
$PLIMMAX
 10
420.0
 20
297.0
  9
$UNITMODE
 70
     0
  9
$VISRETAIN
 70
     1
  9
$PLINEGEN
 70
     0
  9
$PSLTSCALE
 70
     0
  9
$TREEDEPTH
 70
  3020
  9
$PICKSTYLE
 70
     1
  9
$CMLSTYLE
  2
STANDARD
  9
$CMLJUST
 70
     0
  9
$CMLSCALE
 40
1.0
  9
$PROXYGRAPHICS
 70
     1
  9
$MEASUREMENT
 70
     1
  0
ENDSEC
  0
SECTION
  2
CLASSES
  0
CLASS
  1
DICTIONARYVAR
  2
AcDbDictionaryVar
  3
"AutoCAD"
 90
        0
280
     0
281
     0
  0
CLASS
  1
LWPOLYLINE
  2
AcDbPolyline
  3
"AutoCAD"
 90
        0
280
     0
281
     1
  0
CLASS
  1
HATCH
  2
AcDbHatch
  3
"ACAD_SEDONA"
 90
        0
280
     0
281
     1
  0
ENDSEC
  0
SECTION
  2
TABLES
  0
TABLE
  2
VPORT
  5
8
100
AcDbSymbolTable
 70
     3
  0
VPORT
  5
91A
100
AcDbSymbolTableRecord
100
AcDbViewportTableRecord
  2
*ACTIVE
 70
     0
 10
0.0
 20
0.0
 11
1.0
 21
1.0
 12
608.225394
 22
-190.875312
 13
0.0
 23
0.0
 14
10.0
 24
10.0
 15
10.0
 25
10.0
 16
0.0
 26
0.0
 36
1.0
 17
0.0
 27
0.0
 37
0.0
 40
1086.546328
 41
1.730469
 42
50.0
 43
0.0
 44
0.0
 50
0.0
 51
0.0
 71
     0
 72
   100
 73
     1
 74
     1
 75
     0
 76
     0
 77
     0
 78
     0
  0
ENDTAB
  0
TABLE
  2
LTYPE
  5
5
100
AcDbSymbolTable
 70
     3
  0
LTYPE
  5
14
100
AcDbSymbolTableRecord
100
AcDbLinetypeTableRecord
  2
BYBLOCK
 70
     0
  3

 72
    65
 73
     0
 40
0.0
  0
LTYPE
  5
15
100
AcDbSymbolTableRecord
100
AcDbLinetypeTableRecord
  2
BYLAYER
 70
     0
  3

 72
    65
 73
     0
 40
0.0
  0
LTYPE
  5
16
100
AcDbSymbolTableRecord
100
AcDbLinetypeTableRecord
  2
CONTINUOUS
 70
     0
  3
Solid line
 72
    65
 73
     0
 40
0.0
  0
LTYPE
  5
7F
100
AcDbSymbolTableRecord
100
AcDbLinetypeTableRecord
  2
DASHDOT
 70
     0
  3
Dash dot __ . __ . __ . __ . __ . __ . __ . __
 72
    65
 73
     4
 40
25.4
 49
12.7
 74
     0
 49
-6.35
 74
     0
 49
0.0
 74
     0
 49
-6.35
 74
     0
  0
LTYPE
  5
80
100
AcDbSymbolTableRecord
100
AcDbLinetypeTableRecord
  2
DASHED
 70
     0
  3
Dashed __ __ __ __ __ __ __ __ __ __ __ __ __ _
 72
    65
 73
     2
 40
19.05
 49
12.7
 74
     0
 49
-6.35
 74
     0
  0
ENDTAB
  0
TABLE
  2
LAYER
  5
2
100
AcDbSymbolTable
 70
     6
  0
LAYER
  5
F
100
AcDbSymbolTableRecord
100
AcDbLayerTableRecord
  2
0
 70
     0
 62
     7
  6
CONTINUOUS
  0
LAYER
  5
9E
100
AcDbSymbolTableRecord
100
AcDbLayerTableRecord
  2
DEFPOINTS
 70
     0
 62
     7
  6
CONTINUOUS
  0
LAYER
  5
377
100
AcDbSymbolTableRecord
100
AcDbLayerTableRecord
  2
V0-OBRYS
 70
     0
 62
    90
  6
CONTINUOUS
  0
LAYER
  5
378
100
AcDbSymbolTableRecord
100
AcDbLayerTableRecord
  2
V0-VYPLNE
 70
     0
 62
    52
  6
CONTINUOUS
  0
LAYER
  5
37A
100
AcDbSymbolTableRecord
100
AcDbLayerTableRecord
  2
V0-NAZVY
 70
     0
 62
   210
  6
CONTINUOUS
  0
LAYER
  5
559
100
AcDbSymbolTableRecord
100
AcDbLayerTableRecord
  2
V0-ZBYTEK
 70
     0
 62
    51
  6
CONTINUOUS
  0
ENDTAB
  0
TABLE
  2
STYLE
  5
3
100
AcDbSymbolTable
 70
     3
  0
STYLE
  5
10
100
AcDbSymbolTableRecord
100
AcDbTextStyleTableRecord
  2
STANDARD
 70
     0
 40
0.0
 41
1.0
 50
0.0
 71
     0
 42
2.5
  3
ISOCP
  4

  0
STYLE
  5
331
100
AcDbSymbolTableRecord
100
AcDbTextStyleTableRecord
  2
ED20
 70
     0
 40
20.0
 41
1.0
 50
0.0
 71
     0
 42
2.5
  3
ISOCP.shx
  4

  0
STYLE
  5
5A7
100
AcDbSymbolTableRecord
100
AcDbTextStyleTableRecord
  2
ED10
 70
     0
 40
10.0
 41
1.0
 50
0.0
 71
     0
 42
10.0
  3
ISOCP.shx
  4

  0
ENDTAB
  0
TABLE
  2
VIEW
  5
6
100
AcDbSymbolTable
 70
     0
  0
ENDTAB
  0
TABLE
  2
UCS
  5
7
100
AcDbSymbolTable
 70
     0
  0
ENDTAB
  0
TABLE
  2
APPID
  5
9
100
AcDbSymbolTable
 70
     1
  0
APPID
  5
11
100
AcDbSymbolTableRecord
100
AcDbRegAppTableRecord
  2
ACAD
 70
     0
  0
ENDTAB
  0
TABLE
  2
DIMSTYLE
  5
A
100
AcDbSymbolTable
 70
     3
  0
DIMSTYLE
105
1D
100
AcDbSymbolTableRecord
100
AcDbDimStyleTableRecord
  2
STANDARD
 70
     0
  3

  4

  5

  6
_OPEN
  7
_OPEN
 40
0.0
 41
15.0
 42
0.625
 43
3.75
 44
1.25
 45
0.0
 46
0.0
 47
0.0
 48
0.0
140
15.0
141
2.5
142
0.0
143
0.0394
144
1.0
145
0.0
146
1.0
147
3.0
 71
     0
 72
     0
 73
     0
 74
     0
 75
     0
 76
     0
 77
     1
 78
     8
170
     0
171
     4
172
     1
173
     1
174
     0
175
     0
176
     0
177
     0
178
     0
270
     2
271
     0
272
     1
273
     8
274
     4
340
331
275
     0
280
     0
281
     0
282
     0
283
     1
284
     8
285
     0
286
     0
287
     3
288
     0
  0
DIMSTYLE
105
397
102
{ACAD_REACTORS
330
67D
330
6D6
330
6C9
330
6BC
330
7C0
330
6A2
330
695
102
}
100
AcDbSymbolTableRecord
100
AcDbDimStyleTableRecord
  2
ED20
 70
     0
  3

  4

  5

  6
_OPEN
  7
_OPEN
 40
1.0
 41
15.0
 42
1.0
 43
3.75
 44
1.25
 45
0.0
 46
0.0
 47
0.0
 48
0.0
140
20.0
141
3.0
142
0.0
143
0.0394
144
1.0
145
0.0
146
1.0
147
2.0
 71
     0
 72
     0
 73
     0
 74
     0
 75
     0
 76
     0
 77
     1
 78
     8
170
     0
171
     4
172
     1
173
     1
174
     0
175
     0
176
     0
177
     0
178
     0
270
     2
271
     0
272
     1
273
     8
274
     4
340
331
275
     0
280
     0
281
     0
282
     0
283
     1
284
     8
285
     0
286
     0
287
     3
288
     0
  0
DIMSTYLE
105
5A8
100
AcDbSymbolTableRecord
100
AcDbDimStyleTableRecord
  2
ED10
 70
     0
  3

  4

  5

  6
_OPEN
  7
_OPEN
 40
1.0
 41
10.0
 42
1.0
 43
3.75
 44
1.25
 45
0.0
 46
0.0
 47
0.0
 48
0.0
140
10.0
141
2.0
142
0.0
143
0.0394
144
1.0
145
0.0
146
1.0
147
1.5
 71
     0
 72
     0
 73
     0
 74
     0
 75
     0
 76
     0
 77
     1
 78
     8
170
     0
171
     4
172
     1
173
     1
174
     0
175
     0
176
     0
177
     0
178
     0
270
     2
271
     0
272
     1
273
     8
274
     4
340
5A7
275
     0
280
     0
281
     0
282
     0
283
     1
284
     8
285
     0
286
     0
287
     3
288
     0
  0
ENDTAB
  0
TABLE
  2
BLOCK_RECORD
  5
1
100
AcDbSymbolTable
 70
    11
  0
BLOCK_RECORD
  5
1A
100
AcDbSymbolTableRecord
100
AcDbBlockTableRecord
  2
*MODEL_SPACE
  0
BLOCK_RECORD
  5
17
100
AcDbSymbolTableRecord
100
AcDbBlockTableRecord
  2
*PAPER_SPACE
  0
BLOCK_RECORD
  5
90
100
AcDbSymbolTableRecord
100
AcDbBlockTableRecord
  2
_OPEN
  0
BLOCK_RECORD
  5
7A3
100
AcDbSymbolTableRecord
100
AcDbBlockTableRecord
  2
A
  0
BLOCK_RECORD
  5
7EC
100
AcDbSymbolTableRecord
100
AcDbBlockTableRecord
  2
*D2
  0
BLOCK_RECORD
  5
824
100
AcDbSymbolTableRecord
100
AcDbBlockTableRecord
  2
*D3
  0
BLOCK_RECORD
  5
830
100
AcDbSymbolTableRecord
100
AcDbBlockTableRecord
  2
*D4
  0
BLOCK_RECORD
  5
83C
100
AcDbSymbolTableRecord
100
AcDbBlockTableRecord
  2
*D5
  0
BLOCK_RECORD
  5
848
100
AcDbSymbolTableRecord
100
AcDbBlockTableRecord
  2
*D6
  0
BLOCK_RECORD
  5
854
100
AcDbSymbolTableRecord
100
AcDbBlockTableRecord
  2
*D7
  0
BLOCK_RECORD
  5
860
100
AcDbSymbolTableRecord
100
AcDbBlockTableRecord
  2
*D8
  0
BLOCK_RECORD
  5
88A
100
AcDbSymbolTableRecord
100
AcDbBlockTableRecord
  2
AROTOR
  0
BLOCK_RECORD
  5
8AB
100
AcDbSymbolTableRecord
100
AcDbBlockTableRecord
  2
AZNAK
  0
ENDTAB
  0
ENDSEC
  0
SECTION
  2
BLOCKS
  0
BLOCK
  5
1B
100
AcDbEntity
  8
0
100
AcDbBlockBegin
  2
*MODEL_SPACE
 70
     0
 10
0.0
 20
0.0
 30
0.0
  3
*MODEL_SPACE
  1

  0
ENDBLK
  5
1C
100
AcDbEntity
  8
0
100
AcDbBlockEnd
  0
BLOCK
  5
18
100
AcDbEntity
 67
     1
  8
0
100
AcDbBlockBegin
  2
*PAPER_SPACE
 70
     0
 10
0.0
 20
0.0
 30
0.0
  3
*PAPER_SPACE
  1

  0
ENDBLK
  5
19
100
AcDbEntity
 67
     1
  8
0
100
AcDbBlockEnd
  0
BLOCK
  5
91
100
AcDbEntity
  8
0
100
AcDbBlockBegin
  2
_OPEN
 70
     0
 10
0.0
 20
0.0
 30
0.0
  3
_OPEN
  1

  0
LINE
  5
92
100
AcDbEntity
  8
0
  6
BYBLOCK
 62
     0
100
AcDbLine
 10
-1.0
 20
0.166667
 30
0.0
 11
0.0
 21
0.0
 31
0.0
  0
LINE
  5
93
100
AcDbEntity
  8
0
  6
BYBLOCK
 62
     0
100
AcDbLine
 10
0.0
 20
0.0
 30
0.0
 11
-1.0
 21
-0.166667
 31
0.0
  0
LINE
  5
94
100
AcDbEntity
  8
0
  6
BYBLOCK
 62
     0
100
AcDbLine
 10
0.0
 20
0.0
 30
0.0
 11
-1.0
 21
0.0
 31
0.0
  0
ENDBLK
  5
95
100
AcDbEntity
  8
0
100
AcDbBlockEnd
  0
BLOCK
  5
7A6
100
AcDbEntity
  8
0
100
AcDbBlockBegin
  2
A
 70
     0
 10
0.0
 20
0.0
 30
0.0
  3
A
  1

  0
LINE
  5
7A7
100
AcDbEntity
  8
V0-OBRYS
100
AcDbLine
 10
0.0
 20
13.704692
 30
0.0
 11
71.688526
 21
13.704692
 31
0.0
  0
ARC
  5
7A8
100
AcDbEntity
  8
V0-OBRYS
100
AcDbCircle
 10
81.917211
 20
159.894697
 30
0.0
 40
40.0
100
AcDbArc
 50
90.0
 51
180.0
  0
LINE
  5
7A9
100
AcDbEntity
  8
V0-OBRYS
100
AcDbLine
 10
71.688526
 20
145.518723
 30
0.0
 11
0.0
 21
145.518723
 31
0.0
  0
LINE
  5
7AA
100
AcDbEntity
  8
V0-OBRYS
100
AcDbLine
 10
12.145898
 20
159.154395
 30
0.0
 11
12.145898
 21
145.518723
 31
0.0
  0
LINE
  5
7AB
100
AcDbEntity
  8
V0-VYPLNE
  6
CONTINUOUS
 62
    52
100
AcDbLine
 10
5.94354
 20
145.518723
 30
0.0
 11
5.94354
 21
13.704692
 31
0.0
  0
LINE
  5
7AC
100
AcDbEntity
  8
V0-VYPLNE
  6
CONTINUOUS
 62
    52
100
AcDbLine
 10
22.069667
 20
145.518723
 30
0.0
 11
22.069667
 21
13.704692
 31
0.0
  0
LINE
  5
7AD
100
AcDbEntity
  8
V0-VYPLNE
  6
CONTINUOUS
 62
    52
100
AcDbLine
 10
38.195798
 20
145.518723
 30
0.0
 11
38.195798
 21
13.704692
 31
0.0
  0
LINE
  5
7AE
100
AcDbEntity
  8
V0-OBRYS
100
AcDbLine
 10
0.0
 20
159.154395
 30
0.0
 11
41.917211
 21
159.154395
 31
0.0
  0
LINE
  5
7AF
100
AcDbEntity
  8
V0-OBRYS
100
AcDbLine
 10
41.917211
 20
159.154395
 30
0.0
 11
41.917211
 21
159.894697
 31
0.0
  0
LINE
  5
7B0
100
AcDbEntity
  8
V0-OBRYS
100
AcDbLine
 10
71.688526
 20
13.704692
 30
0.0
 11
71.688526
 21
145.518723
 31
0.0
  0
LINE
  5
7B1
100
AcDbEntity
  8
V0-VYPLNE
  6
CONTINUOUS
 62
    52
100
AcDbLine
 10
54.321926
 20
145.518723
 30
0.0
 11
54.321926
 21
13.704692
 31
0.0
  0
ENDBLK
  5
7B2
100
AcDbEntity
  8
0
100
AcDbBlockEnd
  0
BLOCK
  5
7ED
100
AcDbEntity
  8
0
100
AcDbBlockBegin
  2
*D2
 70
     1
 10
0.0
 20
0.0
 30
0.0
  3
*D2
  1

  0
LINE
  5
7EE
100
AcDbEntity
  8
0
  6
BYBLOCK
 62
     0
100
AcDbLine
 10
-105.0
 20
266.0
 30
0.0
 11
-105.0
 21
294.788274
 31
0.0
  0
LINE
  5
7EF
100
AcDbEntity
  8
0
  6
BYBLOCK
 62
     0
100
AcDbLine
 10
430.0
 20
267.0
 30
0.0
 11
430.0
 21
294.788274
 31
0.0
  0
LINE
  5
7F0
100
AcDbEntity
  8
0
  6
BYBLOCK
 62
     0
100
AcDbLine
 10
-90.0
 20
293.538274
 30
0.0
 11
415.0
 21
293.538274
 31
0.0
  0
INSERT
  5
7F1
100
AcDbEntity
  8
0
  6
BYBLOCK
 62
     0
100
AcDbBlockReference
  2
_OPEN
 10
-105.0
 20
293.538274
 30
0.0
 41
15.0
 42
15.0
 43
15.0
 50
180.0
  0
INSERT
  5
7F2
100
AcDbEntity
  8
0
  6
BYBLOCK
 62
     0
100
AcDbBlockReference
  2
_OPEN
 10
430.0
 20
293.538274
 30
0.0
 41
15.0
 42
15.0
 43
15.0
  0
MTEXT
  5
7F3
100
AcDbEntity
  8
0
  6
BYBLOCK
 62
     0
100
AcDbMText
 10
147.5
 20
305.538274
 30
0.0
 40
20.0
 41
0.0
 71
     5
 72
     1
  1
\A1;535
  7
ED20
  0
POINT
  5
7F4
100
AcDbEntity
  8
DEFPOINTS
  6
BYBLOCK
 62
     0
100
AcDbPoint
 10
-105.0
 20
265.0
 30
0.0
  0
POINT
  5
7F5
100
AcDbEntity
  8
DEFPOINTS
  6
BYBLOCK
 62
     0
100
AcDbPoint
 10
430.0
 20
266.0
 30
0.0
  0
POINT
  5
7F6
100
AcDbEntity
  8
DEFPOINTS
  6
BYBLOCK
 62
     0
100
AcDbPoint
 10
430.0
 20
293.538274
 30
0.0
  0
ENDBLK
  5
7F7
100
AcDbEntity
  8
0
100
AcDbBlockEnd
  0
BLOCK
  5
825
100
AcDbEntity
  8
0
100
AcDbBlockBegin
  2
*D3
 70
     1
 10
0.0
 20
0.0
 30
0.0
  3
*D3
  1

  0
LINE
  5
826
100
AcDbEntity
  8
0
  6
BYBLOCK
 62
     0
100
AcDbLine
 10
553.916884
 20
-6.0
 30
0.0
 11
553.916884
 21
-118.974891
 31
0.0
  0
LINE
  5
827
100
AcDbEntity
  8
0
  6
BYBLOCK
 62
     0
100
AcDbLine
 10
1093.916884
 20
-6.0
 30
0.0
 11
1093.916884
 21
-118.974891
 31
0.0
  0
LINE
  5
828
100
AcDbEntity
  8
0
  6
BYBLOCK
 62
     0
100
AcDbLine
 10
568.916884
 20
-117.724891
 30
0.0
 11
1078.916884
 21
-117.724891
 31
0.0
  0
INSERT
  5
829
100
AcDbEntity
  8
0
  6
BYBLOCK
 62
     0
100
AcDbBlockReference
  2
_OPEN
 10
553.916884
 20
-117.724891
 30
0.0
 41
15.0
 42
15.0
 43
15.0
 50
180.0
  0
INSERT
  5
82A
100
AcDbEntity
  8
0
  6
BYBLOCK
 62
     0
100
AcDbBlockReference
  2
_OPEN
 10
1093.916884
 20
-117.724891
 30
0.0
 41
15.0
 42
15.0
 43
15.0
  0
MTEXT
  5
82B
100
AcDbEntity
  8
0
  6
BYBLOCK
 62
     0
100
AcDbMText
 10
823.916884
 20
-105.724891
 30
0.0
 40
20.0
 41
0.0
 71
     5
 72
     1
  1
\A1;540
  7
ED20
  0
POINT
  5
82C
100
AcDbEntity
  8
DEFPOINTS
  6
BYBLOCK
 62
     0
100
AcDbPoint
 10
553.916884
 20
-5.0
 30
0.0
  0
POINT
  5
82D
100
AcDbEntity
  8
DEFPOINTS
  6
BYBLOCK
 62
     0
100
AcDbPoint
 10
1093.916884
 20
-5.0
 30
0.0
  0
POINT
  5
82E
100
AcDbEntity
  8
DEFPOINTS
  6
BYBLOCK
 62
     0
100
AcDbPoint
 10
1093.916884
 20
-117.724891
 30
0.0
  0
ENDBLK
  5
82F
100
AcDbEntity
  8
0
100
AcDbBlockEnd
  0
BLOCK
  5
831
100
AcDbEntity
  8
0
100
AcDbBlockBegin
  2
*D4
 70
     1
 10
0.0
 20
0.0
 30
0.0
  3
*D4
  1

  0
LINE
  5
832
100
AcDbEntity
  8
0
  6
BYBLOCK
 62
     0
100
AcDbLine
 10
563.916884
 20
-24.629782
 30
0.0
 11
563.916884
 21
-88.620195
 31
0.0
  0
LINE
  5
833
100
AcDbEntity
  8
0
  6
BYBLOCK
 62
     0
100
AcDbLine
 10
1083.916884
 20
-24.629782
 30
0.0
 11
1083.916884
 21
-88.620195
 31
0.0
  0
LINE
  5
834
100
AcDbEntity
  8
0
  6
BYBLOCK
 62
     0
100
AcDbLine
 10
578.916884
 20
-87.370195
 30
0.0
 11
1068.916884
 21
-87.370195
 31
0.0
  0
INSERT
  5
835
100
AcDbEntity
  8
0
  6
BYBLOCK
 62
     0
100
AcDbBlockReference
  2
_OPEN
 10
563.916884
 20
-87.370195
 30
0.0
 41
15.0
 42
15.0
 43
15.0
 50
180.0
  0
INSERT
  5
836
100
AcDbEntity
  8
0
  6
BYBLOCK
 62
     0
100
AcDbBlockReference
  2
_OPEN
 10
1083.916884
 20
-87.370195
 30
0.0
 41
15.0
 42
15.0
 43
15.0
  0
MTEXT
  5
837
100
AcDbEntity
  8
0
  6
BYBLOCK
 62
     0
100
AcDbMText
 10
823.916884
 20
-75.368227
 30
0.0
 40
20.0
 41
0.0
 71
     5
 72
     1
  1
\A1;520
  7
ED20
  0
POINT
  5
838
100
AcDbEntity
  8
DEFPOINTS
  6
BYBLOCK
 62
     0
100
AcDbPoint
 10
563.916884
 20
-23.629782
 30
0.0
  0
POINT
  5
839
100
AcDbEntity
  8
DEFPOINTS
  6
BYBLOCK
 62
     0
100
AcDbPoint
 10
1083.916884
 20
-23.629782
 30
0.0
  0
POINT
  5
83A
100
AcDbEntity
  8
DEFPOINTS
  6
BYBLOCK
 62
     0
100
AcDbPoint
 10
1083.916884
 20
-87.370195
 30
0.0
  0
ENDBLK
  5
83B
100
AcDbEntity
  8
0
100
AcDbBlockEnd
  0
BLOCK
  5
83D
100
AcDbEntity
  8
0
100
AcDbBlockBegin
  2
*D5
 70
     1
 10
0.0
 20
0.0
 30
0.0
  3
*D5
  1

  0
LINE
  5
83E
100
AcDbEntity
  8
0
  6
BYBLOCK
 62
     0
100
AcDbLine
 10
573.916884
 20
-26.0
 30
0.0
 11
573.916884
 21
-57.966186
 31
0.0
  0
LINE
  5
83F
100
AcDbEntity
  8
0
  6
BYBLOCK
 62
     0
100
AcDbLine
 10
1073.916884
 20
-26.0
 30
0.0
 11
1073.916884
 21
-57.966186
 31
0.0
  0
LINE
  5
840
100
AcDbEntity
  8
0
  6
BYBLOCK
 62
     0
100
AcDbLine
 10
588.916884
 20
-56.716186
 30
0.0
 11
1058.916884
 21
-56.716186
 31
0.0
  0
INSERT
  5
841
100
AcDbEntity
  8
0
  6
BYBLOCK
 62
     0
100
AcDbBlockReference
  2
_OPEN
 10
573.916884
 20
-56.716186
 30
0.0
 41
15.0
 42
15.0
 43
15.0
 50
180.0
  0
INSERT
  5
842
100
AcDbEntity
  8
0
  6
BYBLOCK
 62
     0
100
AcDbBlockReference
  2
_OPEN
 10
1073.916884
 20
-56.716186
 30
0.0
 41
15.0
 42
15.0
 43
15.0
  0
MTEXT
  5
843
100
AcDbEntity
  8
0
  6
BYBLOCK
 62
     0
100
AcDbMText
 10
823.916884
 20
-44.716186
 30
0.0
 40
20.0
 41
0.0
 71
     5
 72
     1
  1
\A1;500
  7
ED20
  0
POINT
  5
844
100
AcDbEntity
  8
DEFPOINTS
  6
BYBLOCK
 62
     0
100
AcDbPoint
 10
573.916884
 20
-25.0
 30
0.0
  0
POINT
  5
845
100
AcDbEntity
  8
DEFPOINTS
  6
BYBLOCK
 62
     0
100
AcDbPoint
 10
1073.916884
 20
-25.0
 30
0.0
  0
POINT
  5
846
100
AcDbEntity
  8
DEFPOINTS
  6
BYBLOCK
 62
     0
100
AcDbPoint
 10
1073.916884
 20
-56.716186
 30
0.0
  0
ENDBLK
  5
847
100
AcDbEntity
  8
0
100
AcDbBlockEnd
  0
BLOCK
  5
849
100
AcDbEntity
  8
0
100
AcDbBlockBegin
  2
*D6
 70
     1
 10
0.0
 20
0.0
 30
0.0
  3
*D6
  1

  0
LINE
  5
84A
100
AcDbEntity
  8
0
  6
BYBLOCK
 62
     0
100
AcDbLine
 10
1094.916884
 20
244.0
 30
0.0
 11
1133.80953
 21
244.0
 31
0.0
  0
LINE
  5
84B
100
AcDbEntity
  8
0
  6
BYBLOCK
 62
     0
100
AcDbLine
 10
1094.916884
 20
-4.0
 30
0.0
 11
1133.80953
 21
-4.0
 31
0.0
  0
LINE
  5
84C
100
AcDbEntity
  8
0
  6
BYBLOCK
 62
     0
100
AcDbLine
 10
1132.55953
 20
229.0
 30
0.0
 11
1132.55953
 21
11.0
 31
0.0
  0
INSERT
  5
84D
100
AcDbEntity
  8
0
  6
BYBLOCK
 62
     0
100
AcDbBlockReference
  2
_OPEN
 10
1132.55953
 20
244.0
 30
0.0
 41
15.0
 42
15.0
 43
15.0
 50
90.0
  0
INSERT
  5
84E
100
AcDbEntity
  8
0
  6
BYBLOCK
 62
     0
100
AcDbBlockReference
  2
_OPEN
 10
1132.55953
 20
-4.0
 30
0.0
 41
15.0
 42
15.0
 43
15.0
 50
270.0
  0
MTEXT
  5
84F
100
AcDbEntity
  8
0
  6
BYBLOCK
 62
     0
100
AcDbMText
 10
1120.557561
 20
120.0
 30
0.0
 40
20.0
 41
0.0
 71
     5
 72
     1
  1
\A1;248
  7
ED20
 11
0.0
 21
1.0
 31
0.0
  0
POINT
  5
850
100
AcDbEntity
  8
DEFPOINTS
  6
BYBLOCK
 62
     0
100
AcDbPoint
 10
1093.916884
 20
244.0
 30
0.0
  0
POINT
  5
851
100
AcDbEntity
  8
DEFPOINTS
  6
BYBLOCK
 62
     0
100
AcDbPoint
 10
1093.916884
 20
-4.0
 30
0.0
  0
POINT
  5
852
100
AcDbEntity
  8
DEFPOINTS
  6
BYBLOCK
 62
     0
100
AcDbPoint
 10
1132.55953
 20
-4.0
 30
0.0
  0
ENDBLK
  5
853
100
AcDbEntity
  8
0
100
AcDbBlockEnd
  0
BLOCK
  5
855
100
AcDbEntity
  8
0
100
AcDbBlockBegin
  2
*D7
 70
     1
 10
0.0
 20
0.0
 30
0.0
  3
*D7
  1

  0
LINE
  5
856
100
AcDbEntity
  8
0
  6
BYBLOCK
 62
     0
100
AcDbLine
 10
1093.867728
 20
255.0
 30
0.0
 11
1163.556441
 21
255.0
 31
0.0
  0
LINE
  5
857
100
AcDbEntity
  8
0
  6
BYBLOCK
 62
     0
100
AcDbLine
 10
1094.916884
 20
-15.0
 30
0.0
 11
1163.556441
 21
-15.0
 31
0.0
  0
LINE
  5
858
100
AcDbEntity
  8
0
  6
BYBLOCK
 62
     0
100
AcDbLine
 10
1162.306441
 20
240.0
 30
0.0
 11
1162.306441
 21
0.0
 31
0.0
  0
INSERT
  5
859
100
AcDbEntity
  8
0
  6
BYBLOCK
 62
     0
100
AcDbBlockReference
  2
_OPEN
 10
1162.306441
 20
255.0
 30
0.0
 41
15.0
 42
15.0
 43
15.0
 50
90.0
  0
INSERT
  5
85A
100
AcDbEntity
  8
0
  6
BYBLOCK
 62
     0
100
AcDbBlockReference
  2
_OPEN
 10
1162.306441
 20
-15.0
 30
0.0
 41
15.0
 42
15.0
 43
15.0
 50
270.0
  0
MTEXT
  5
85B
100
AcDbEntity
  8
0
  6
BYBLOCK
 62
     0
100
AcDbMText
 10
1150.304472
 20
120.0
 30
0.0
 40
20.0
 41
0.0
 71
     5
 72
     1
  1
\A1;270
  7
ED20
 11
0.0
 21
1.0
 31
0.0
  0
POINT
  5
85C
100
AcDbEntity
  8
DEFPOINTS
  6
BYBLOCK
 62
     0
100
AcDbPoint
 10
1092.867728
 20
255.0
 30
0.0
  0
POINT
  5
85D
100
AcDbEntity
  8
DEFPOINTS
  6
BYBLOCK
 62
     0
100
AcDbPoint
 10
1093.916884
 20
-15.0
 30
0.0
  0
POINT
  5
85E
100
AcDbEntity
  8
DEFPOINTS
  6
BYBLOCK
 62
     0
100
AcDbPoint
 10
1162.306441
 20
-15.0
 30
0.0
  0
ENDBLK
  5
85F
100
AcDbEntity
  8
0
100
AcDbBlockEnd
  0
BLOCK
  5
861
100
AcDbEntity
  8
0
100
AcDbBlockBegin
  2
*D8
 70
     1
 10
0.0
 20
0.0
 30
0.0
  3
*D8
  1

  0
LINE
  5
862
100
AcDbEntity
  8
0
  6
BYBLOCK
 62
     0
100
AcDbLine
 10
1074.916884
 20
265.0
 30
0.0
 11
1196.764952
 21
265.0
 31
0.0
  0
LINE
  5
863
100
AcDbEntity
  8
0
  6
BYBLOCK
 62
     0
100
AcDbLine
 10
1074.916884
 20
-25.0
 30
0.0
 11
1196.764952
 21
-25.0
 31
0.0
  0
LINE
  5
864
100
AcDbEntity
  8
0
  6
BYBLOCK
 62
     0
100
AcDbLine
 10
1195.514952
 20
250.0
 30
0.0
 11
1195.514952
 21
-10.0
 31
0.0
  0
INSERT
  5
865
100
AcDbEntity
  8
0
  6
BYBLOCK
 62
     0
100
AcDbBlockReference
  2
_OPEN
 10
1195.514952
 20
265.0
 30
0.0
 41
15.0
 42
15.0
 43
15.0
 50
90.0
  0
INSERT
  5
866
100
AcDbEntity
  8
0
  6
BYBLOCK
 62
     0
100
AcDbBlockReference
  2
_OPEN
 10
1195.514952
 20
-25.0
 30
0.0
 41
15.0
 42
15.0
 43
15.0
 50
270.0
  0
MTEXT
  5
867
100
AcDbEntity
  8
0
  6
BYBLOCK
 62
     0
100
AcDbMText
 10
1183.512983
 20
120.0
 30
0.0
 40
20.0
 41
0.0
 71
     5
 72
     1
  1
\A1;290
  7
ED20
 11
0.0
 21
1.0
 31
0.0
  0
POINT
  5
868
100
AcDbEntity
  8
DEFPOINTS
  6
BYBLOCK
 62
     0
100
AcDbPoint
 10
1073.916884
 20
265.0
 30
0.0
  0
POINT
  5
869
100
AcDbEntity
  8
DEFPOINTS
  6
BYBLOCK
 62
     0
100
AcDbPoint
 10
1073.916884
 20
-25.0
 30
0.0
  0
POINT
  5
86A
100
AcDbEntity
  8
DEFPOINTS
  6
BYBLOCK
 62
     0
100
AcDbPoint
 10
1195.514952
 20
-25.0
 30
0.0
  0
ENDBLK
  5
86B
100
AcDbEntity
  8
0
100
AcDbBlockEnd
  0
BLOCK
  5
8A8
100
AcDbEntity
  8
0
100
AcDbBlockBegin
  2
AROTOR
 70
     0
 10
0.0
 20
0.0
 30
0.0
  3
AROTOR
  1

  0
ARC
  5
8EE
100
AcDbEntity
  8
V0-VYPLNE
  6
DASHED
 62
    52
100
AcDbCircle
 10
183.488866
 20
-350.537996
 30
0.0
 40
595.669442
100
AcDbArc
 50
89.227405
 51
111.825582
  0
ARC
  5
8EF
100
AcDbEntity
  8
V0-VYPLNE
  6
DASHED
 62
    52
100
AcDbCircle
 10
97.003139
 20
-68.892063
 30
0.0
 40
303.043927
100
AcDbArc
 50
116.44849
 51
141.790666
  0
ARC
  5
8F0
100
AcDbEntity
  8
V0-VYPLNE
  6
DASHED
 62
    52
100
AcDbCircle
 10
-89.894799
 20
-51.140116
 30
0.0
 40
44.495532
100
AcDbArc
 50
257.175907
 51
309.010287
  0
ARC
  5
8F1
100
AcDbEntity
  8
V0-VYPLNE
  6
DASHED
 62
    52
100
AcDbCircle
 10
-101.298199
 20
-20.85812
 30
0.0
 40
44.495532
100
AcDbArc
 50
239.175907
 51
291.010287
  0
ARC
  5
8F2
100
AcDbEntity
  8
V0-VYPLNE
  6
DASHED
 62
    52
100
AcDbCircle
 10
-51.140116
 20
89.894799
 30
0.0
 40
44.495532
100
AcDbArc
 50
167.175907
 51
219.010287
  0
ARC
  5
8F3
100
AcDbEntity
  8
V0-VYPLNE
  6
DASHED
 62
    52
100
AcDbCircle
 10
0.0
 20
0.0
 30
0.0
 40
106.465069
100
AcDbArc
 50
91.687982
 51
89.730531
  0
CIRCLE
  5
8F4
100
AcDbEntity
  8
V0-VYPLNE
  6
DASHED
 62
    52
100
AcDbCircle
 10
0.0
 20
0.0
 30
0.0
 40
136.78334
  0
ARC
  5
8F5
100
AcDbEntity
  8
V0-VYPLNE
  6
DASHED
 62
    52
100
AcDbCircle
 10
-102.785826
 20
11.465614
 30
0.0
 40
44.495532
100
AcDbArc
 50
221.175907
 51
273.010287
  0
ARC
  5
8F6
100
AcDbEntity
  8
V0-VYPLNE
  6
DASHED
 62
    52
100
AcDbCircle
 10
110.67042
 20
7.654315
 30
0.0
 40
247.662789
100
AcDbArc
 50
192.990197
 51
193.153718
  0
ARC
  5
8F7
100
AcDbEntity
  8
V0-VYPLNE
  6
DASHED
 62
    52
100
AcDbCircle
 10
-76.416161
 20
69.691869
 30
0.0
 40
44.495532
100
AcDbArc
 50
185.175907
 51
237.010287
  0
ARC
  5
8F8
100
AcDbEntity
  8
V0-VYPLNE
  6
DASHED
 62
    52
100
AcDbCircle
 10
-94.21206
 20
42.667014
 30
0.0
 40
44.495532
100
AcDbArc
 50
203.175907
 51
255.010287
  0
ARC
  5
8F9
100
AcDbEntity
  8
V0-VYPLNE
  6
DASHED
 62
    52
100
AcDbCircle
 10
0.0
 20
0.0
 30
0.0
 40
143.919654
100
AcDbArc
 50
299.236959
 51
3.688819
  0
ARC
  5
8FA
100
AcDbEntity
  8
V0-VYPLNE
  6
DASHED
 62
    52
100
AcDbCircle
 10
94.21206
 20
-42.667014
 30
0.0
 40
44.495532
100
AcDbArc
 50
23.175907
 51
75.010287
  0
LINE
  5
8FB
100
AcDbEntity
  8
V0-VYPLNE
  6
DASHDOT
 62
    41
100
AcDbLine
 10
0.0
 20
0.0
 30
0.0
 11
0.0
 21
-34.564774
 31
0.0
  0
ARC
  5
8FC
100
AcDbEntity
  8
V0-VYPLNE
  6
DASHED
 62
    52
100
AcDbCircle
 10
51.140116
 20
-89.894799
 30
0.0
 40
44.495532
100
AcDbArc
 50
347.175907
 51
39.010287
  0
ARC
  5
8FD
100
AcDbEntity
  8
V0-VYPLNE
  6
DASHED
 62
    52
100
AcDbCircle
 10
-42.667014
 20
-94.21206
 30
0.0
 40
44.495532
100
AcDbArc
 50
293.175907
 51
345.010287
  0
ARC
  5
8FE
100
AcDbEntity
  8
V0-VYPLNE
  6
DASHED
 62
    52
100
AcDbCircle
 10
-69.691869
 20
-76.416161
 30
0.0
 40
44.495532
100
AcDbArc
 50
275.175907
 51
327.010287
  0
ARC
  5
8FF
100
AcDbEntity
  8
V0-VYPLNE
  6
DASHED
 62
    52
100
AcDbCircle
 10
-11.465614
 20
-102.785826
 30
0.0
 40
44.495532
100
AcDbArc
 50
311.175907
 51
3.010287
  0
ARC
  5
900
100
AcDbEntity
  8
V0-VYPLNE
  6
DASHED
 62
    52
100
AcDbCircle
 10
20.85812
 20
-101.298199
 30
0.0
 40
44.495532
100
AcDbArc
 50
329.175907
 51
21.010287
  0
ARC
  5
901
100
AcDbEntity
  8
V0-VYPLNE
  6
DASHED
 62
    52
100
AcDbCircle
 10
76.416161
 20
-69.691869
 30
0.0
 40
44.495532
100
AcDbArc
 50
5.175907
 51
57.010287
  0
ARC
  5
902
100
AcDbEntity
  8
V0-VYPLNE
  6
DASHED
 62
    52
100
AcDbCircle
 10
101.298199
 20
20.85812
 30
0.0
 40
44.495532
100
AcDbArc
 50
59.175907
 51
111.010287
  0
ARC
  5
903
100
AcDbEntity
  8
V0-VYPLNE
  6
DASHED
 62
    52
100
AcDbCircle
 10
89.894799
 20
51.140116
 30
0.0
 40
44.495532
100
AcDbArc
 50
77.175907
 51
129.010287
  0
ARC
  5
904
100
AcDbEntity
  8
V0-VYPLNE
  6
DASHED
 62
    52
100
AcDbCircle
 10
42.667014
 20
94.21206
 30
0.0
 40
44.495532
100
AcDbArc
 50
113.175907
 51
165.010287
  0
ARC
  5
905
100
AcDbEntity
  8
V0-VYPLNE
  6
DASHED
 62
    52
100
AcDbCircle
 10
11.465614
 20
102.785826
 30
0.0
 40
44.495532
100
AcDbArc
 50
131.175907
 51
183.010287
  0
ARC
  5
906
100
AcDbEntity
  8
V0-VYPLNE
  6
DASHED
 62
    52
100
AcDbCircle
 10
-20.85812
 20
101.298199
 30
0.0
 40
44.495532
100
AcDbArc
 50
149.175907
 51
201.010287
  0
ARC
  5
907
100
AcDbEntity
  8
V0-VYPLNE
  6
DASHED
 62
    52
100
AcDbCircle
 10
69.691869
 20
76.416161
 30
0.0
 40
44.495532
100
AcDbArc
 50
95.175907
 51
147.010287
  0
LINE
  5
908
100
AcDbEntity
  8
V0-VYPLNE
  6
DASHDOT
 62
    41
100
AcDbLine
 10
0.0
 20
0.0
 30
0.0
 11
28.300002
 21
0.0
 31
0.0
  0
LINE
  5
909
100
AcDbEntity
  8
V0-VYPLNE
  6
DASHDOT
 62
    52
100
AcDbLine
 10
0.0
 20
0.0
 30
0.0
 11
0.0
 21
34.564774
 31
0.0
  0
LINE
  5
90A
100
AcDbEntity
  8
V0-VYPLNE
  6
DASHDOT
 62
    41
100
AcDbLine
 10
0.0
 20
0.0
 30
0.0
 11
-28.300002
 21
0.0
 31
0.0
  0
ARC
  5
90B
100
AcDbEntity
  8
V0-VYPLNE
  6
DASHED
 62
    52
100
AcDbCircle
 10
102.785826
 20
-11.465614
 30
0.0
 40
44.495532
100
AcDbArc
 50
41.175907
 51
93.010287
  0
LINE
  5
90C
100
AcDbEntity
  8
V0-VYPLNE
  6
DASHED
 62
    52
100
AcDbLine
 10
143.62148
 20
9.259441
 30
0.0
 11
143.62148
 21
28.612266
 31
0.0
  0
ARC
  5
90D
100
AcDbEntity
  8
V0-VYPLNE
  6
DASHED
 62
    52
100
AcDbCircle
 10
151.837952
 20
30.047907
 30
0.0
 40
8.340952
100
AcDbArc
 50
0.0
 51
189.911078
  0
ARC
  5
90E
100
AcDbEntity
  8
V0-VYPLNE
  6
DASHED
 62
    52
100
AcDbCircle
 10
-13.295909
 20
15.39813
 30
0.0
 40
163.901019
100
AcDbArc
 50
142.02389
 51
300.663833
  0
ENDBLK
  5
8A9
100
AcDbEntity
  8
0
100
AcDbBlockEnd
  0
BLOCK
  5
8AF
100
AcDbEntity
  8
0
100
AcDbBlockBegin
  2
AZNAK
 70
     0
 10
0.0
 20
0.0
 30
0.0
  3
AZNAK
  1

  0
LINE
  5
8AC
100
AcDbEntity
  8
V0-NAZVY
 62
   210
100
AcDbLine
 10
-24.212224
 20
-21.995765
 30
0.0
 11
29.715001
 21
-13.197458
 31
0.0
  0
LINE
  5
8AD
100
AcDbEntity
  8
V0-NAZVY
 62
   210
100
AcDbLine
 10
-24.212224
 20
21.995765
 30
0.0
 11
29.715001
 21
13.197458
 31
0.0
  0
CIRCLE
  5
8AE
100
AcDbEntity
  8
V0-NAZVY
 62
   210
100
AcDbCircle
 10
0.0
 20
0.0
 30
0.0
 40
33.029256
  0
ENDBLK
  5
8B0
100
AcDbEntity
  8
0
100
AcDbBlockEnd
  0
ENDSEC
  0
SECTION
  2
ENTITIES
  0
MTEXT
  5
5A9
100
AcDbEntity
  8
V0-ZBYTEK
 62
   130
100
AcDbMText
 10
880.77761
 20
-450.726159
 30
0.0
 40
31.5
 41
892.3329
 71
     5
 72
     5
  1
RADIALNI VENTILATOR 
  7
ED10
  0
MTEXT
  5
5AA
100
AcDbEntity
  8
V0-ZBYTEK
100
AcDbMText
 10
877.191306
 20
-518.911014
 30
0.0
 40
22.5
 41
353.465
 71
     5
 72
     5
  1
PRO CTYRHRANNE POTRUBI
  7
ED10
  0
MTEXT
  5
5AB
100
AcDbEntity
  8
V0-NAZVY
100
AcDbMText
 10
866.341251
 20
-368.273749
 30
0.0
 40
56.25
 41
462.6912
 71
     5
 72
     5
  1
ILB/ILT 225
  7
ED10
  0
LINE
  5
5AD
100
AcDbEntity
  8
V0-OBRYS
100
AcDbLine
 10
-105.0
 20
-25.0
 30
0.0
 11
-100.0
 21
-25.0
 31
0.0
  0
LINE
  5
5AE
100
AcDbEntity
  8
V0-OBRYS
100
AcDbLine
 10
1093.916884
 20
-15.0
 30
0.0
 11
1093.916884
 21
255.0
 31
0.0
  0
LINE
  5
5AF
100
AcDbEntity
  8
V0-OBRYS
100
AcDbLine
 10
1083.916884
 20
265.0
 30
0.0
 11
563.916884
 21
265.0
 31
0.0
  0
LINE
  5
5B0
100
AcDbEntity
  8
V0-OBRYS
100
AcDbLine
 10
553.916884
 20
255.0
 30
0.0
 11
553.916884
 21
-15.0
 31
0.0
  0
LINE
  5
5B1
100
AcDbEntity
  8
V0-OBRYS
100
AcDbLine
 10
573.916884
 20
265.0
 30
0.0
 11
573.916884
 21
-25.0
 31
0.0
  0
LINE
  5
5B2
100
AcDbEntity
  8
V0-OBRYS
100
AcDbLine
 10
1093.916884
 20
244.0
 30
0.0
 11
553.916884
 21
244.0
 31
0.0
  0
LINE
  5
5B3
100
AcDbEntity
  8
V0-OBRYS
100
AcDbLine
 10
1073.916884
 20
-25.0
 30
0.0
 11
1073.916884
 21
265.0
 31
0.0
  0
LINE
  5
5B4
100
AcDbEntity
  8
V0-OBRYS
100
AcDbLine
 10
553.916884
 20
-4.0
 30
0.0
 11
1093.916884
 21
-4.0
 31
0.0
  0
ARC
  5
5B5
100
AcDbEntity
  8
V0-OBRYS
100
AcDbCircle
 10
563.916884
 20
-15.0
 30
0.0
 40
10.0
100
AcDbArc
 50
180.0
 51
270.0
  0
ARC
  5
5B6
100
AcDbEntity
  8
V0-OBRYS
100
AcDbCircle
 10
563.916884
 20
255.0
 30
0.0
 40
10.0
100
AcDbArc
 50
90.0
 51
180.0
  0
ARC
  5
5B7
100
AcDbEntity
  8
V0-OBRYS
100
AcDbCircle
 10
1083.916884
 20
255.0
 30
0.0
 40
10.0
100
AcDbArc
 50
0.0
 51
90.0
  0
ARC
  5
5B8
100
AcDbEntity
  8
V0-OBRYS
100
AcDbCircle
 10
1083.916884
 20
-15.0
 30
0.0
 40
10.0
100
AcDbArc
 50
270.0
 51
0.0
  0
LINE
  5
5BA
100
AcDbEntity
  8
V0-OBRYS
100
AcDbLine
 10
573.916884
 20
162.465254
 30
0.0
 11
1073.916884
 21
162.465254
 31
0.0
  0
LINE
  5
5D4
100
AcDbEntity
  8
V0-OBRYS
100
AcDbLine
 10
589.090362
 20
162.631966
 30
0.0
 11
589.090362
 21
-4.825678
 31
0.0
  0
CIRCLE
  5
5D5
100
AcDbEntity
  8
V0-OBRYS
100
AcDbCircle
 10
563.916884
 20
-15.0
 30
0.0
 40
4.5
  0
LINE
  5
5D6
100
AcDbEntity
  8
V0-VYPLNE
100
AcDbLine
 10
-112.051175
 20
-15.0
 30
0.0
 11
-91.04967
 21
-15.0
 31
0.0
  0
LINE
  5
5D7
100
AcDbEntity
  8
V0-VYPLNE
100
AcDbLine
 10
569.683573
 20
-15.0
 30
0.0
 11
572.943786
 21
-15.0
 31
0.0
  0
LINE
  5
5D8
100
AcDbEntity
  8
V0-VYPLNE
100
AcDbLine
 10
563.916884
 20
-23.629782
 30
0.0
 11
563.916884
 21
-5.94382
 31
0.0
  0
LINE
  5
5D9
100
AcDbEntity
  8
V0-VYPLNE
100
AcDbLine
 10
-112.051175
 20
255.0
 30
0.0
 11
-91.04967
 21
255.0
 31
0.0
  0
LINE
  5
5DA
100
AcDbEntity
  8
V0-VYPLNE
100
AcDbLine
 10
563.916884
 20
263.629782
 30
0.0
 11
563.916884
 21
245.94382
 31
0.0
  0
CIRCLE
  5
5DB
100
AcDbEntity
  8
V0-OBRYS
100
AcDbCircle
 10
563.916884
 20
255.0
 30
0.0
 40
4.5
  0
CIRCLE
  5
5DC
100
AcDbEntity
  8
V0-OBRYS
100
AcDbCircle
 10
1083.916884
 20
254.0
 30
0.0
 40
4.5
  0
LINE
  5
5DD
100
AcDbEntity
  8
V0-VYPLNE
100
AcDbLine
 10
1083.916884
 20
262.629782
 30
0.0
 11
1083.916884
 21
244.94382
 31
0.0
  0
LINE
  5
5DE
100
AcDbEntity
  8
V0-VYPLNE
100
AcDbLine
 10
1092.867728
 20
254.0
 30
0.0
 11
1078.150194
 21
254.0
 31
0.0
  0
LINE
  5
5DF
100
AcDbEntity
  8
V0-VYPLNE
100
AcDbLine
 10
1092.867728
 20
-14.0
 30
0.0
 11
1078.150194
 21
-14.0
 31
0.0
  0
LINE
  5
5E0
100
AcDbEntity
  8
V0-VYPLNE
100
AcDbLine
 10
1083.916884
 20
-22.629782
 30
0.0
 11
1083.916884
 21
-4.94382
 31
0.0
  0
CIRCLE
  5
5E1
100
AcDbEntity
  8
V0-OBRYS
100
AcDbCircle
 10
1083.916884
 20
-14.0
 30
0.0
 40
4.5
  0
LINE
  5
5E2
100
AcDbEntity
  8
V0-VYPLNE
100
AcDbLine
 10
1078.150194
 20
-14.0
 30
0.0
 11
1074.889981
 21
-14.0
 31
0.0
  0
LINE
  5
5E8
100
AcDbEntity
  8
V0-OBRYS
100
AcDbLine
 10
430.0
 20
-25.0
 30
0.0
 11
430.0
 21
265.0
 31
0.0
  0
LINE
  5
5E9
100
AcDbEntity
  8
V0-OBRYS
100
AcDbLine
 10
-105.0
 20
-25.0
 30
0.0
 11
-105.0
 21
265.0
 31
0.0
  0
LINE
  5
5EC
100
AcDbEntity
  8
V0-OBRYS
100
AcDbLine
 10
430.0
 20
265.0
 30
0.0
 11
425.0
 21
265.0
 31
0.0
  0
LINE
  5
5ED
100
AcDbEntity
  8
V0-OBRYS
100
AcDbLine
 10
563.916884
 20
-25.0
 30
0.0
 11
1083.916884
 21
-25.0
 31
0.0
  0
LINE
  5
5EE
100
AcDbEntity
  8
V0-OBRYS
100
AcDbLine
 10
425.0
 20
245.0
 30
0.0
 11
-100.0
 21
245.0
 31
0.0
  0
LINE
  5
5EF
100
AcDbEntity
  8
V0-OBRYS
100
AcDbLine
 10
-100.0
 20
-5.0
 30
0.0
 11
425.0
 21
-5.0
 31
0.0
  0
LINE
  5
5F1
100
AcDbEntity
  8
V0-OBRYS
100
AcDbLine
 10
-100.0
 20
-25.0
 30
0.0
 11
-100.0
 21
265.0
 31
0.0
  0
LINE
  5
5F2
100
AcDbEntity
  8
V0-OBRYS
100
AcDbLine
 10
425.0
 20
-25.0
 30
0.0
 11
425.0
 21
265.0
 31
0.0
  0
LINE
  5
5F3
100
AcDbEntity
  8
V0-OBRYS
100
AcDbLine
 10
-100.0
 20
265.0
 30
0.0
 11
-105.0
 21
265.0
 31
0.0
  0
LINE
  5
5F4
100
AcDbEntity
  8
V0-OBRYS
100
AcDbLine
 10
425.0
 20
-25.0
 30
0.0
 11
430.0
 21
-25.0
 31
0.0
  0
LINE
  5
5F7
100
AcDbEntity
  8
V0-VYPLNE
100
AcDbLine
 10
548.586238
 20
255.0
 30
0.0
 11
569.683573
 21
255.0
 31
0.0
  0
LINE
  5
5F8
100
AcDbEntity
  8
V0-VYPLNE
100
AcDbLine
 10
548.586238
 20
-15.0
 30
0.0
 11
569.683573
 21
-15.0
 31
0.0
  0
LINE
  5
5F9
100
AcDbEntity
  8
V0-VYPLNE
100
AcDbLine
 10
418.166486
 20
255.0
 30
0.0
 11
437.258763
 21
255.0
 31
0.0
  0
LINE
  5
5FA
100
AcDbEntity
  8
V0-VYPLNE
100
AcDbLine
 10
417.21187
 20
-15.0
 30
0.0
 11
435.349534
 21
-15.0
 31
0.0
  0
LINE
  5
5FB
100
AcDbEntity
  8
V0-OBRYS
100
AcDbLine
 10
425.0
 20
-702.03118
 30
0.0
 11
425.0
 21
-162.03118
 31
0.0
  0
LINE
  5
5FC
100
AcDbEntity
  8
V0-OBRYS
100
AcDbLine
 10
-100.0
 20
-702.03118
 30
0.0
 11
-100.0
 21
-162.03118
 31
0.0
  0
LINE
  5
5FD
100
AcDbEntity
  8
V0-OBRYS
100
AcDbLine
 10
-105.0
 20
-702.03118
 30
0.0
 11
-105.0
 21
-162.03118
 31
0.0
  0
LINE
  5
5FE
100
AcDbEntity
  8
V0-OBRYS
100
AcDbLine
 10
430.0
 20
-702.03118
 30
0.0
 11
430.0
 21
-162.03118
 31
0.0
  0
LINE
  5
5FF
100
AcDbEntity
  8
V0-OBRYS
100
AcDbLine
 10
-105.0
 20
-702.03118
 30
0.0
 11
-100.0
 21
-702.03118
 31
0.0
  0
LINE
  5
600
100
AcDbEntity
  8
V0-OBRYS
100
AcDbLine
 10
425.0
 20
-702.03118
 30
0.0
 11
430.0
 21
-702.03118
 31
0.0
  0
LINE
  5
601
100
AcDbEntity
  8
V0-OBRYS
100
AcDbLine
 10
-100.0
 20
-682.03118
 30
0.0
 11
425.0
 21
-682.03118
 31
0.0
  0
LINE
  5
602
100
AcDbEntity
  8
V0-OBRYS
100
AcDbLine
 10
425.0
 20
-182.03118
 30
0.0
 11
-100.0
 21
-182.03118
 31
0.0
  0
LINE
  5
603
100
AcDbEntity
  8
V0-VYPLNE
100
AcDbLine
 10
-112.051175
 20
-692.03118
 30
0.0
 11
-91.04967
 21
-692.03118
 31
0.0
  0
LINE
  5
604
100
AcDbEntity
  8
V0-VYPLNE
100
AcDbLine
 10
-112.051175
 20
-172.03118
 30
0.0
 11
-91.04967
 21
-172.03118
 31
0.0
  0
LINE
  5
605
100
AcDbEntity
  8
V0-OBRYS
100
AcDbLine
 10
-100.0
 20
-162.03118
 30
0.0
 11
-105.0
 21
-162.03118
 31
0.0
  0
LINE
  5
606
100
AcDbEntity
  8
V0-VYPLNE
100
AcDbLine
 10
417.21187
 20
-692.03118
 30
0.0
 11
435.349534
 21
-692.03118
 31
0.0
  0
LINE
  5
607
100
AcDbEntity
  8
V0-VYPLNE
100
AcDbLine
 10
418.166486
 20
-172.03118
 30
0.0
 11
437.258763
 21
-172.03118
 31
0.0
  0
LINE
  5
608
100
AcDbEntity
  8
V0-OBRYS
100
AcDbLine
 10
430.0
 20
-162.03118
 30
0.0
 11
425.0
 21
-162.03118
 31
0.0
  0
LINE
  5
63B
100
AcDbEntity
  8
V0-OBRYS
100
AcDbLine
 10
866.355446
 20
162.149653
 30
0.0
 11
866.355446
 21
-4.894697
 31
0.0
  0
MTEXT
  5
63C
100
AcDbEntity
  8
V0-ZBYTEK
 62
   130
100
AcDbMText
 10
840.495736
 20
313.445448
 30
0.0
 40
21.0
 41
594.8886
 71
     5
 72
     5
  1
POHLED NA VYSTUPNI STRANU
  7
ED10
  0
DIMENSION
  5
67D
100
AcDbEntity
  8
V0-VYPLNE
  6
CONTINUOUS
100
AcDbDimension
  2
*D2
 10
430.0
 20
293.538274
 30
0.0
 11
147.5
 21
293.538274
 31
0.0
 70
   160
  3
ED20
100
AcDbAlignedDimension
 13
-105.0
 23
265.0
 33
0.0
 14
430.0
 24
266.0
 34
0.0
100
AcDbRotatedDimension
  0
DIMENSION
  5
695
100
AcDbEntity
  8
V0-VYPLNE
  6
CONTINUOUS
100
AcDbDimension
  2
*D8
 10
1195.514952
 20
-25.0
 30
0.0
 11
1183.512983
 21
120.0
 31
0.0
 70
    32
  3
ED20
100
AcDbAlignedDimension
 13
1073.916884
 23
265.0
 33
0.0
 14
1073.916884
 24
-25.0
 34
0.0
 50
90.0
100
AcDbRotatedDimension
  0
DIMENSION
  5
6A2
100
AcDbEntity
  8
V0-VYPLNE
  6
CONTINUOUS
100
AcDbDimension
  2
*D7
 10
1162.306441
 20
-15.0
 30
0.0
 11
1150.304472
 21
120.0
 31
0.0
 70
    32
  3
ED20
100
AcDbAlignedDimension
 13
1092.867728
 23
255.0
 33
0.0
 14
1093.916884
 24
-15.0
 34
0.0
 50
90.0
100
AcDbRotatedDimension
  0
DIMENSION
  5
6BC
100
AcDbEntity
  8
V0-VYPLNE
  6
CONTINUOUS
100
AcDbDimension
  2
*D5
 10
1073.916884
 20
-56.716186
 30
0.0
 11
823.916884
 21
-44.716186
 31
0.0
 70
    32
  3
ED20
100
AcDbAlignedDimension
 13
573.916884
 23
-25.0
 33
0.0
 14
1073.916884
 24
-25.0
 34
0.0
100
AcDbRotatedDimension
  0
DIMENSION
  5
6C9
100
AcDbEntity
  8
V0-VYPLNE
  6
CONTINUOUS
100
AcDbDimension
  2
*D4
 10
1083.916884
 20
-87.370195
 30
0.0
 11
823.916884
 21
-75.368227
 31
0.0
 70
    32
  3
ED20
100
AcDbAlignedDimension
 13
563.916884
 23
-23.629782
 33
0.0
 14
1083.916884
 24
-23.629782
 34
0.0
100
AcDbRotatedDimension
  0
DIMENSION
  5
6D6
100
AcDbEntity
  8
V0-VYPLNE
  6
CONTINUOUS
100
AcDbDimension
  2
*D3
 10
1093.916884
 20
-117.724891
 30
0.0
 11
823.916884
 21
-105.724891
 31
0.0
 70
    32
  3
ED20
100
AcDbAlignedDimension
 13
553.916884
 23
-5.0
 33
0.0
 14
1093.916884
 24
-5.0
 34
0.0
100
AcDbRotatedDimension
  0
LINE
  5
6D7
100
AcDbEntity
  8
V0-VYPLNE
  6
CONTINUOUS
100
AcDbLine
 10
101.888227
 20
113.553883
 30
0.0
 11
193.831966
 21
113.553883
 31
0.0
  0
LINE
  5
6D8
100
AcDbEntity
  8
V0-VYPLNE
  6
CONTINUOUS
100
AcDbLine
 10
167.398884
 20
124.14053
 30
0.0
 11
193.831966
 21
113.553883
 31
0.0
  0
LINE
  5
6D9
100
AcDbEntity
  8
V0-VYPLNE
  6
CONTINUOUS
100
AcDbLine
 10
167.398884
 20
102.967237
 30
0.0
 11
193.831966
 21
113.553883
 31
0.0
  0
POINT
  5
6DB
100
AcDbEntity
  8
V0-VYPLNE
100
AcDbPoint
 10
-105.0
 20
120.0
 30
0.0
  0
POINT
  5
6DC
100
AcDbEntity
  8
V0-VYPLNE
100
AcDbPoint
 10
-105.0
 20
-432.03118
 30
0.0
  0
LINE
  5
6E1
100
AcDbEntity
  8
V0-VYPLNE
  6
CONTINUOUS
100
AcDbLine
 10
-28.915225
 20
-423.134604
 30
0.0
 11
-2.482142
 21
-433.721251
 31
0.0
  0
LINE
  5
6E2
100
AcDbEntity
  8
V0-VYPLNE
  6
CONTINUOUS
100
AcDbLine
 10
-94.425882
 20
-433.721251
 30
0.0
 11
-2.482142
 21
-433.721251
 31
0.0
  0
LINE
  5
6E3
100
AcDbEntity
  8
V0-VYPLNE
  6
CONTINUOUS
100
AcDbLine
 10
-28.915225
 20
-444.307897
 30
0.0
 11
-2.482142
 21
-433.721251
 31
0.0
  0
MTEXT
  5
6E8
100
AcDbEntity
  8
V0-NAZVY
100
AcDbMText
 10
147.927332
 20
175.452758
 30
0.0
 40
37.5
 41
308.4608
 71
     5
 72
     5
  1
ILB/ILT 225
  7
ED10
  0
MTEXT
  5
6E9
100
AcDbEntity
  8
V0-NAZVY
100
AcDbMText
 10
78.312599
 20
-247.481284
 30
0.0
 40
37.5
 41
308.4608
 71
     5
 72
     5
  1
ILB/ILT 225
  7
ED10
  0
MTEXT
  5
6EA
100
AcDbEntity
  8
V0-NAZVY
100
AcDbMText
 10
820.886657
 20
205.153393
 30
0.0
 40
37.5
 41
308.4608
 71
     5
 72
     5
  1
ILB/ILT 225
  7
ED10
  0
LEADER
  5
6F1
100
AcDbEntity
  8
V0-VYPLNE
100
AcDbLeader
  3
ED20
 73
     0
 75
     1
 40
20.0
 41
27.43187
 76
     3
 10
560.548379
 20
251.924337
 30
0.0
 10
537.465175
 20
206.042348
 30
0.0
 10
522.465175
 20
206.042348
 30
0.0
 77
   256
340
6F2
  0
MTEXT
  5
6F2
102
{ACAD_REACTORS
330
6F1
102
}
100
AcDbEntity
  8
V0-VYPLNE
100
AcDbMText
 10
520.465175
 20
218.042348
 30
0.0
 40
20.0
 41
0.0
 71
     6
 72
     1
  1
\A1;%%c9
  7
ED20
  0
DIMENSION
  5
7C0
100
AcDbEntity
  8
V0-VYPLNE
  6
CONTINUOUS
 62
    41
100
AcDbDimension
  2
*D6
 10
1132.55953
 20
-4.0
 30
0.0
 11
1120.557561
 21
120.0
 31
0.0
 70
    32
  3
ED20
100
AcDbAlignedDimension
 13
1093.916884
 23
244.0
 33
0.0
 14
1093.916884
 24
-4.0
 34
0.0
 50
90.0
100
AcDbRotatedDimension
  0
INSERT
  5
8B1
100
AcDbEntity
  8
0
100
AcDbBlockReference
  2
AZNAK
 10
361.45916
 20
-261.499134
 30
0.0
  0
INSERT
  5
8B2
100
AcDbEntity
  8
0
100
AcDbBlockReference
  2
AZNAK
 10
318.981033
 20
115.770916
 30
0.0
  0
INSERT
  5
8B3
100
AcDbEntity
  8
0
100
AcDbBlockReference
  2
AZNAK
 10
764.590887
 20
81.202752
 30
0.0
  0
LINE
  5
8B4
100
AcDbEntity
  8
V0-OBRYS
100
AcDbLine
 10
866.355446
 20
8.809995
 30
0.0
 11
995.394793
 21
8.809995
 31
0.0
  0
LINE
  5
8B6
100
AcDbEntity
  8
V0-OBRYS
100
AcDbLine
 10
995.394793
 20
124.356652
 30
0.0
 11
866.355446
 21
124.356652
 31
0.0
  0
LINE
  5
8B7
100
AcDbEntity
  8
V0-OBRYS
100
AcDbLine
 10
888.218063
 20
137.992325
 30
0.0
 11
888.218063
 21
124.356652
 31
0.0
  0
LINE
  5
8B8
100
AcDbEntity
  8
V0-VYPLNE
  6
CONTINUOUS
 62
    52
100
AcDbLine
 10
877.053817
 20
124.356652
 30
0.0
 11
877.053817
 21
8.809995
 31
0.0
  0
LINE
  5
8B9
100
AcDbEntity
  8
V0-VYPLNE
  6
CONTINUOUS
 62
    52
100
AcDbLine
 10
906.080847
 20
124.356652
 30
0.0
 11
906.080847
 21
8.809995
 31
0.0
  0
LINE
  5
8BA
100
AcDbEntity
  8
V0-VYPLNE
  6
CONTINUOUS
 62
    52
100
AcDbLine
 10
935.107882
 20
124.356652
 30
0.0
 11
935.107882
 21
8.809995
 31
0.0
  0
LINE
  5
8BB
100
AcDbEntity
  8
V0-OBRYS
100
AcDbLine
 10
866.355446
 20
137.992325
 30
0.0
 11
941.806426
 21
137.992325
 31
0.0
  0
LINE
  5
8BC
100
AcDbEntity
  8
V0-OBRYS
100
AcDbLine
 10
941.806426
 20
137.992325
 30
0.0
 11
941.806426
 21
138.732627
 31
0.0
  0
LINE
  5
8BD
100
AcDbEntity
  8
V0-OBRYS
100
AcDbLine
 10
995.394793
 20
8.809995
 30
0.0
 11
995.394793
 21
124.356652
 31
0.0
  0
LINE
  5
8BE
100
AcDbEntity
  8
V0-VYPLNE
  6
CONTINUOUS
 62
    52
100
AcDbLine
 10
964.134912
 20
124.356652
 30
0.0
 11
964.134912
 21
8.809995
 31
0.0
  0
ARC
  5
8BF
100
AcDbEntity
  8
V0-OBRYS
100
AcDbCircle
 10
978.715783
 20
123.268215
 30
0.0
 40
39.890462
100
AcDbArc
 50
100.615644
 51
158.339043
  0
POINT
  5
8C1
100
AcDbEntity
  8
V0-OBRYS
100
AcDbPoint
 10
823.916884
 20
120.0
 30
0.0
  0
INSERT
  5
90F
100
AcDbEntity
  8
V0-OBRYS
100
AcDbBlockReference
  2
AROTOR
 10
180.272049
 20
-490.568927
 30
0.0
 41
1.25
 42
1.25
 43
1.25
  0
VIEWPORT
  5
22
100
AcDbEntity
 67
     1
  8
0
100
AcDbViewport
 10
261.517699
 20
161.962666
 30
0.0
 40
523.035398
 41
323.925332
 68
    -1
 69
     1
1001
ACAD
1000
MVIEW
1002
{
1070
    16
1010
0.0
1020
0.0
1030
0.0
1010
0.0
1020
0.0
1030
1.0
1040
0.0
1040
323.925332
1040
261.517699
1040
161.962666
1040
50.0
1040
0.0
1040
0.0
1070
     0
1070
   100
1070
     1
1070
     1
1070
     0
1070
     0
1070
     0
1070
     0
1040
0.0
1040
0.0
1040
0.0
1040
1.0
1040
1.0
1040
10.0
1040
10.0
1070
     0
1002
{
1002
}
1002
}
  0
ENDSEC
  0
SECTION
  2
OBJECTS
  0
DICTIONARY
  5
C
100
AcDbDictionary
  3
ACAD_GROUP
350
D
  3
ACAD_MLINESTYLE
350
E
  3
ACDBVARIABLEDICTIONARY
350
5D
  0
DICTIONARY
  5
D
102
{ACAD_REACTORS
330
C
102
}
100
AcDbDictionary
  0
DICTIONARY
  5
E
102
{ACAD_REACTORS
330
C
102
}
100
AcDbDictionary
  3
STANDARD
350
13
  0
DICTIONARY
  5
5D
102
{ACAD_REACTORS
330
C
102
}
100
AcDbDictionary
  3
DIMADEC
350
5E
  3
SORTENTS
350
3D8
  0
MLINESTYLE
  5
13
102
{ACAD_REACTORS
330
E
102
}
100
AcDbMlineStyle
  2
STANDARD
 70
     0
  3

 62
     0
 51
90.0
 52
90.0
 71
     2
 49
0.5
 62
   256
  6
BYLAYER
 49
-0.5
 62
   256
  6
BYLAYER
  0
DICTIONARYVAR
  5
5E
102
{ACAD_REACTORS
330
5D
102
}
100
DictionaryVariables
280
     0
  1
0
  0
DICTIONARYVAR
  5
3D8
102
{ACAD_REACTORS
330
5D
102
}
100
DictionaryVariables
280
     0
  1
96
  0
ENDSEC
  0
EOF
