  0
SECTION
  2
HEADER
  9
$ACADVER
  1
AC1014
  9
$ACADMAINTVER
 70
     0
  9
$DWGCODEPAGE
  3
ANSI_1250
  9
$INSBASE
 10
0.0
 20
0.0
 30
0.0
  9
$EXTMIN
 10
-444.693914
 20
-268.319551
 30
-0.009484
  9
$EXTMAX
 10
421.266963
 20
183.624891
 30
0.0
  9
$LIMMIN
 10
0.0
 20
0.0
  9
$LIMMAX
 10
420.0
 20
297.0
  9
$ORTHOMODE
 70
     1
  9
$REGENMODE
 70
     1
  9
$FILLMODE
 70
     1
  9
$QTEXTMODE
 70
     0
  9
$MIRRTEXT
 70
     1
  9
$DRAGMODE
 70
     2
  9
$LTSCALE
 40
1.0
  9
$OSMODE
 70
    36
  9
$ATTMODE
 70
     1
  9
$TEXTSIZE
 40
20.0
  9
$TRACEWID
 40
1.0
  9
$TEXTSTYLE
  7
ED5
  9
$CLAYER
  8
V0-ZBYTEK
  9
$CELTYPE
  6
CONTINUOUS
  9
$CECOLOR
 62
    41
  9
$CELTSCALE
 40
3.0
  9
$DELOBJ
 70
     1
  9
$DISPSILH
 70
     0
  9
$DIMSCALE
 40
0.0
  9
$DIMASZ
 40
20.0
  9
$DIMEXO
 40
1.0
  9
$DIMDLI
 40
3.75
  9
$DIMRND
 40
0.0
  9
$DIMDLE
 40
0.0
  9
$DIMEXE
 40
1.25
  9
$DIMTP
 40
0.0
  9
$DIMTM
 40
0.0
  9
$DIMTXT
 40
20.0
  9
$DIMCEN
 40
3.0
  9
$DIMTSZ
 40
0.0
  9
$DIMTOL
 70
     0
  9
$DIMLIM
 70
     0
  9
$DIMTIH
 70
     0
  9
$DIMTOH
 70
     0
  9
$DIMSE1
 70
     0
  9
$DIMSE2
 70
     0
  9
$DIMTAD
 70
     1
  9
$DIMZIN
 70
     8
  9
$DIMBLK
  1

  9
$DIMASO
 70
     1
  9
$DIMSHO
 70
     1
  9
$DIMPOST
  1

  9
$DIMAPOST
  1

  9
$DIMALT
 70
     0
  9
$DIMALTD
 70
     4
  9
$DIMALTF
 40
0.0394
  9
$DIMLFAC
 40
1.0
  9
$DIMTOFL
 70
     1
  9
$DIMTVP
 40
0.0
  9
$DIMTIX
 70
     0
  9
$DIMSOXD
 70
     0
  9
$DIMSAH
 70
     1
  9
$DIMBLK1
  1
_OPEN
  9
$DIMBLK2
  1
_OPEN
  9
$DIMSTYLE
  2
ED20
  9
$DIMCLRD
 70
     0
  9
$DIMCLRE
 70
     0
  9
$DIMCLRT
 70
     0
  9
$DIMTFAC
 40
1.0
  9
$DIMGAP
 40
2.0
  9
$DIMJUST
 70
     0
  9
$DIMSD1
 70
     0
  9
$DIMSD2
 70
     0
  9
$DIMTOLJ
 70
     1
  9
$DIMTZIN
 70
     8
  9
$DIMALTZ
 70
     0
  9
$DIMALTTZ
 70
     0
  9
$DIMFIT
 70
     3
  9
$DIMUPT
 70
     0
  9
$DIMUNIT
 70
     2
  9
$DIMDEC
 70
     0
  9
$DIMTDEC
 70
     1
  9
$DIMALTU
 70
     8
  9
$DIMALTTD
 70
     4
  9
$DIMTXSTY
  7
ED20
  9
$DIMAUNIT
 70
     0
  9
$LUNITS
 70
     2
  9
$LUPREC
 70
     4
  9
$SKETCHINC
 40
1.0
  9
$FILLETRAD
 40
0.0
  9
$AUNITS
 70
     0
  9
$AUPREC
 70
     0
  9
$MENU
  1
.
  9
$ELEVATION
 40
0.0
  9
$PELEVATION
 40
0.0
  9
$THICKNESS
 40
0.0
  9
$LIMCHECK
 70
     0
  9
$BLIPMODE
 70
     0
  9
$CHAMFERA
 40
0.0
  9
$CHAMFERB
 40
0.0
  9
$CHAMFERC
 40
20.0
  9
$CHAMFERD
 40
0.0
  9
$SKPOLY
 70
     1
  9
$TDCREATE
 40
2451196.643769328
  9
$TDUPDATE
 40
2453310.848644190
  9
$TDINDWG
 40
0.4642816551
  9
$TDUSRTIMER
 40
0.4642816551
  9
$USRTIMER
 70
     1
  9
$ANGBASE
 50
0.0
  9
$ANGDIR
 70
     0
  9
$PDMODE
 70
     3
  9
$PDSIZE
 40
20.0
  9
$PLINEWID
 40
0.0
  9
$COORDS
 70
     1
  9
$SPLFRAME
 70
     0
  9
$SPLINETYPE
 70
     6
  9
$SPLINESEGS
 70
     8
  9
$ATTDIA
 70
     0
  9
$ATTREQ
 70
     1
  9
$HANDLING
 70
     1
  9
$HANDSEED
  5
2546
  9
$SURFTAB1
 70
    15
  9
$SURFTAB2
 70
    15
  9
$SURFTYPE
 70
     6
  9
$SURFU
 70
     6
  9
$SURFV
 70
     6
  9
$UCSNAME
  2

  9
$UCSORG
 10
0.0
 20
0.0
 30
0.0
  9
$UCSXDIR
 10
1.0
 20
0.0
 30
0.0
  9
$UCSYDIR
 10
0.0
 20
1.0
 30
0.0
  9
$PUCSNAME
  2

  9
$PUCSORG
 10
0.0
 20
0.0
 30
0.0
  9
$PUCSXDIR
 10
1.0
 20
0.0
 30
0.0
  9
$PUCSYDIR
 10
0.0
 20
1.0
 30
0.0
  9
$USERI1
 70
     0
  9
$USERI2
 70
     0
  9
$USERI3
 70
     0
  9
$USERI4
 70
     0
  9
$USERI5
 70
     0
  9
$USERR1
 40
0.0
  9
$USERR2
 40
0.0
  9
$USERR3
 40
0.0
  9
$USERR4
 40
0.0
  9
$USERR5
 40
0.0
  9
$WORLDVIEW
 70
     1
  9
$SHADEDGE
 70
     3
  9
$SHADEDIF
 70
    70
  9
$TILEMODE
 70
     1
  9
$MAXACTVP
 70
    48
  9
$PINSBASE
 10
0.0
 20
0.0
 30
0.0
  9
$PLIMCHECK
 70
     0
  9
$PEXTMIN
 10
1.000000E+20
 20
1.000000E+20
 30
1.000000E+20
  9
$PEXTMAX
 10
-1.000000E+20
 20
-1.000000E+20
 30
-1.000000E+20
  9
$PLIMMIN
 10
0.0
 20
0.0
  9
$PLIMMAX
 10
420.0
 20
297.0
  9
$UNITMODE
 70
     0
  9
$VISRETAIN
 70
     1
  9
$PLINEGEN
 70
     0
  9
$PSLTSCALE
 70
     0
  9
$TREEDEPTH
 70
  3020
  9
$PICKSTYLE
 70
     1
  9
$CMLSTYLE
  2
STANDARD
  9
$CMLJUST
 70
     0
  9
$CMLSCALE
 40
1.0
  9
$PROXYGRAPHICS
 70
     1
  9
$MEASUREMENT
 70
     1
  0
ENDSEC
  0
SECTION
  2
CLASSES
  0
CLASS
  1
DICTIONARYVAR
  2
AcDbDictionaryVar
  3
"AutoCAD"
 90
        0
280
     0
281
     0
  0
CLASS
  1
LWPOLYLINE
  2
AcDbPolyline
  3
"AutoCAD"
 90
        0
280
     0
281
     1
  0
CLASS
  1
HATCH
  2
AcDbHatch
  3
"ACAD_SEDONA"
 90
        0
280
     0
281
     1
  0
ENDSEC
  0
SECTION
  2
TABLES
  0
TABLE
  2
VPORT
  5
8
100
AcDbSymbolTable
 70
     9
  0
VPORT
  5
2545
100
AcDbSymbolTableRecord
100
AcDbViewportTableRecord
  2
*ACTIVE
 70
     0
 10
0.0
 20
0.0
 11
1.0
 21
1.0
 12
-79.356724
 22
-27.671881
 13
0.0
 23
0.0
 14
10.0
 24
10.0
 15
10.0
 25
10.0
 16
0.0
 26
0.0
 36
1.0
 17
0.0
 27
0.0
 37
0.0
 40
783.828292
 41
1.650104
 42
50.0
 43
0.0
 44
0.0
 50
0.0
 51
0.0
 71
     0
 72
   100
 73
     1
 74
     1
 75
     0
 76
     0
 77
     0
 78
     0
  0
ENDTAB
  0
TABLE
  2
LTYPE
  5
5
100
AcDbSymbolTable
 70
     3
  0
LTYPE
  5
14
100
AcDbSymbolTableRecord
100
AcDbLinetypeTableRecord
  2
BYBLOCK
 70
     0
  3

 72
    65
 73
     0
 40
0.0
  0
LTYPE
  5
15
100
AcDbSymbolTableRecord
100
AcDbLinetypeTableRecord
  2
BYLAYER
 70
     0
  3

 72
    65
 73
     0
 40
0.0
  0
LTYPE
  5
16
100
AcDbSymbolTableRecord
100
AcDbLinetypeTableRecord
  2
CONTINUOUS
 70
     0
  3
Solid line
 72
    65
 73
     0
 40
0.0
  0
LTYPE
  5
7F
100
AcDbSymbolTableRecord
100
AcDbLinetypeTableRecord
  2
DASHDOT
 70
     0
  3
Dash dot __ . __ . __ . __ . __ . __ . __ . __
 72
    65
 73
     4
 40
25.4
 49
12.7
 74
     0
 49
-6.35
 74
     0
 49
0.0
 74
     0
 49
-6.35
 74
     0
  0
LTYPE
  5
80
100
AcDbSymbolTableRecord
100
AcDbLinetypeTableRecord
  2
DASHED
 70
     0
  3
Dashed __ __ __ __ __ __ __ __ __ __ __ __ __ _
 72
    65
 73
     2
 40
19.05
 49
12.7
 74
     0
 49
-6.35
 74
     0
  0
ENDTAB
  0
TABLE
  2
LAYER
  5
2
100
AcDbSymbolTable
 70
     7
  0
LAYER
  5
F
100
AcDbSymbolTableRecord
100
AcDbLayerTableRecord
  2
0
 70
     0
 62
     7
  6
CONTINUOUS
  0
LAYER
  5
9E
100
AcDbSymbolTableRecord
100
AcDbLayerTableRecord
  2
DEFPOINTS
 70
     0
 62
     7
  6
CONTINUOUS
  0
LAYER
  5
377
100
AcDbSymbolTableRecord
100
AcDbLayerTableRecord
  2
V0-OBRYS
 70
     0
 62
    90
  6
CONTINUOUS
  0
LAYER
  5
378
100
AcDbSymbolTableRecord
100
AcDbLayerTableRecord
  2
V0-VYPLNE
 70
     0
 62
    63
  6
DASHDOT
  0
LAYER
  5
37A
100
AcDbSymbolTableRecord
100
AcDbLayerTableRecord
  2
V0-NAZVY
 70
     0
 62
   210
  6
CONTINUOUS
  0
LAYER
  5
559
100
AcDbSymbolTableRecord
100
AcDbLayerTableRecord
  2
V0-ZBYTEK
 70
     0
 62
    51
  6
CONTINUOUS
  0
LAYER
  5
1B0C
100
AcDbSymbolTableRecord
100
AcDbLayerTableRecord
  2
POM
 70
     0
 62
    30
  6
CONTINUOUS
  0
ENDTAB
  0
TABLE
  2
STYLE
  5
3
100
AcDbSymbolTable
 70
     6
  0
STYLE
  5
10
100
AcDbSymbolTableRecord
100
AcDbTextStyleTableRecord
  2
STANDARD
 70
     0
 40
7.0
 41
1.0
 50
0.0
 71
     0
 42
20.0
  3
ISOCP.shx
  4

  0
STYLE
  5
331
100
AcDbSymbolTableRecord
100
AcDbTextStyleTableRecord
  2
ED30
 70
     0
 40
30.0
 41
1.0
 50
0.0
 71
     0
 42
2.5
  3
ISOCP.shx
  4

  0
STYLE
  5
5D2
100
AcDbSymbolTableRecord
100
AcDbTextStyleTableRecord
  2
ED20
 70
     0
 40
20.0
 41
1.0
 50
0.0
 71
     0
 42
20.0
  3
isocp.shx
  4

  0
STYLE
  5
64F
100
AcDbSymbolTableRecord
100
AcDbTextStyleTableRecord
  2
ED40
 70
     0
 40
40.0
 41
1.0
 50
0.0
 71
     0
 42
20.0
  3
isocp.shx
  4

  0
STYLE
  5
650
100
AcDbSymbolTableRecord
100
AcDbTextStyleTableRecord
  2
ED10
 70
     0
 40
10.0
 41
1.0
 50
0.0
 71
     0
 42
20.0
  3
isocp.shx
  4

  0
STYLE
  5
1E52
100
AcDbSymbolTableRecord
100
AcDbTextStyleTableRecord
  2
ED5
 70
     0
 40
10.0
 41
1.0
 50
0.0
 71
     0
 42
20.0
  3
isocp.shx
  4

  0
ENDTAB
  0
TABLE
  2
VIEW
  5
6
100
AcDbSymbolTable
 70
     0
  0
ENDTAB
  0
TABLE
  2
UCS
  5
7
100
AcDbSymbolTable
 70
     0
  0
ENDTAB
  0
TABLE
  2
APPID
  5
9
100
AcDbSymbolTable
 70
     3
  0
APPID
  5
11
100
AcDbSymbolTableRecord
100
AcDbRegAppTableRecord
  2
ACAD
 70
     0
  0
APPID
  5
FAA
100
AcDbSymbolTableRecord
100
AcDbRegAppTableRecord
  2
CONTENTBLOCKICON
 70
     0
  0
APPID
  5
FAB
100
AcDbSymbolTableRecord
100
AcDbRegAppTableRecord
  2
CONTENTBLOCKDESCRIPTION
 70
     0
  0
ENDTAB
  0
TABLE
  2
DIMSTYLE
  5
A
100
AcDbSymbolTable
 70
     5
  0
DIMSTYLE
105
1D
100
AcDbSymbolTableRecord
100
AcDbDimStyleTableRecord
  2
STANDARD
 70
     0
  3

  4

  5

  6
_OPEN
  7
_OPEN
 40
0.0
 41
15.0
 42
0.625
 43
3.75
 44
1.25
 45
0.0
 46
0.0
 47
0.0
 48
0.0
140
15.0
141
2.5
142
0.0
143
0.0394
144
1.0
145
0.0
146
1.0
147
3.0
 71
     0
 72
     0
 73
     0
 74
     0
 75
     0
 76
     0
 77
     1
 78
     8
170
     0
171
     4
172
     1
173
     1
174
     0
175
     0
176
     0
177
     0
178
     0
270
     2
271
     0
272
     1
273
     8
274
     4
340
331
275
     0
280
     0
281
     0
282
     0
283
     1
284
     8
285
     0
286
     0
287
     3
288
     0
  0
DIMSTYLE
105
397
100
AcDbSymbolTableRecord
100
AcDbDimStyleTableRecord
  2
ED40
 70
     0
  3

  4

  5

  6
_OPEN
  7
_OPEN
 40
0.0
 41
35.0
 42
1.0
 43
3.75
 44
1.25
 45
0.0
 46
0.0
 47
0.0
 48
0.0
140
40.0
141
3.0
142
0.0
143
0.0394
144
1.0
145
0.0
146
1.0
147
4.0
 71
     0
 72
     0
 73
     0
 74
     0
 75
     0
 76
     0
 77
     1
 78
     8
170
     0
171
     4
172
     1
173
     1
174
     0
175
     0
176
     0
177
     0
178
     0
270
     2
271
     0
272
     1
273
     8
274
     4
340
64F
275
     0
280
     0
281
     0
282
     0
283
     1
284
     8
285
     0
286
     0
287
     3
288
     0
  0
DIMSTYLE
105
656
102
{ACAD_REACTORS
330
1E5F
330
1E6E
330
1E7B
102
}
100
AcDbSymbolTableRecord
100
AcDbDimStyleTableRecord
  2
ED30
 70
     0
  3

  4

  5

  6
_OPEN
  7
_OPEN
 40
0.0
 41
15.0
 42
1.0
 43
3.75
 44
1.25
 45
0.0
 46
0.0
 47
0.0
 48
0.0
140
30.0
141
3.0
142
0.0
143
0.0394
144
1.0
145
0.0
146
1.0
147
4.0
 71
     0
 72
     0
 73
     0
 74
     0
 75
     0
 76
     0
 77
     1
 78
     8
170
     0
171
     4
172
     1
173
     1
174
     0
175
     0
176
     0
177
     0
178
     0
270
     2
271
     0
272
     1
273
     8
274
     4
340
650
275
     0
280
     0
281
     0
282
     0
283
     1
284
     8
285
     0
286
     0
287
     3
288
     0
  0
DIMSTYLE
105
657
102
{ACAD_REACTORS
330
1FCE
330
1FCF
330
1FD0
330
1FD8
330
1FDF
330
1FE0
330
1FE1
330
1FE2
330
2079
330
207A
330
207B
330
251F
102
}
100
AcDbSymbolTableRecord
100
AcDbDimStyleTableRecord
  2
ED20
 70
     0
  3

  4

  5

  6
_OPEN
  7
_OPEN
 40
0.0
 41
20.0
 42
1.0
 43
3.75
 44
1.25
 45
0.0
 46
0.0
 47
0.0
 48
0.0
140
20.0
141
3.0
142
0.0
143
0.0394
144
1.0
145
0.0
146
1.0
147
2.0
 71
     0
 72
     0
 73
     0
 74
     0
 75
     0
 76
     0
 77
     1
 78
     8
170
     0
171
     4
172
     1
173
     1
174
     0
175
     0
176
     0
177
     0
178
     0
270
     2
271
     0
272
     1
273
     8
274
     4
340
5D2
275
     0
280
     0
281
     0
282
     0
283
     1
284
     8
285
     0
286
     0
287
     3
288
     0
  0
DIMSTYLE
105
658
102
{ACAD_REACTORS
330
1EF5
330
229E
330
23B3
102
}
100
AcDbSymbolTableRecord
100
AcDbDimStyleTableRecord
  2
ED10
 70
     0
  3

  4

  5

  6
_OPEN
  7
_OPEN
 40
0.0
 41
15.0
 42
1.0
 43
3.75
 44
1.25
 45
0.0
 46
0.0
 47
0.0
 48
0.0
140
10.0
141
3.0
142
0.0
143
0.0394
144
1.0
145
0.0
146
1.0
147
1.5
 71
     0
 72
     0
 73
     0
 74
     0
 75
     0
 76
     0
 77
     1
 78
     8
170
     0
171
     4
172
     1
173
     1
174
     0
175
     0
176
     0
177
     0
178
     0
270
     2
271
     0
272
     1
273
     8
274
     4
340
650
275
     0
280
     0
281
     0
282
     0
283
     1
284
     8
285
     0
286
     0
287
     3
288
     0
  0
ENDTAB
  0
TABLE
  2
BLOCK_RECORD
  5
1
100
AcDbSymbolTable
 70
    55
  0
BLOCK_RECORD
  5
1A
100
AcDbSymbolTableRecord
100
AcDbBlockTableRecord
  2
*MODEL_SPACE
  0
BLOCK_RECORD
  5
17
100
AcDbSymbolTableRecord
100
AcDbBlockTableRecord
  2
*PAPER_SPACE
  0
BLOCK_RECORD
  5
90
100
AcDbSymbolTableRecord
100
AcDbBlockTableRecord
  2
_OPEN
  0
BLOCK_RECORD
  5
17E3
100
AcDbSymbolTableRecord
100
AcDbBlockTableRecord
  2
AZAVER
1001
CONTENTBLOCKICON
1071
        0
1004
2800000020000000200000000100040000000000000200000000000000000000000000000000000000000000000080000080000000808000800000008000800080800000C0C0C000808080000000FF0000FF000000FFFF00FF000000FF00FF00FFFF0000FFFFFF00FFFFFFFFFFAAAAAAAAAAAFFFFFFFFFFF
1004
FFFFFFFFFFAFFFFFFFFFFAFFFFFFFFFFFFFFFFFFFFAFFFFFFFFFFAFFFFFFFFFFFFFFFFFFFFAFFFFFFFFFFAFFFFFFFFFFFFFFFFFFFFAFFFFFFFFFFAFFFFFFFFFFFFFFFFFFFFAFFFFFFFFFFAFFFFFFFFFFFFFFFFFFFFAFFFFFFFFFFAFFFFFFFFFFFFFFFFFFFFAFFFFFFFFFFAFFFFFFFFFFFFFFFFFFFFAFFFFF
1004
FFFFFAFFFFFFFFFFFFFFFFFFFFAFFFFFFFFFFAFFFFFFFFFFFFFFFFFFAAAFFFFFFFFFFAAFFFFFFFFFFFFFFFFFAFAFFFFFFFFFFAAFFFFFFFFFFFFFFFFFAFAFFFFFFFFFFAAFFFFFFFFFFFFFFFFFAFAAAAAAAAAAAAAFFFFFFFFFFFFFFFFFAFFFFFFFFFFFFFAFFFFFFFFFFFFFFFFFAFFFFFFFFFFFFFAFFFFFFFFF
1004
FFFFFFFFAFFFFFFFFFFFFFAFFFFFFFFFFFFFFFFFAFFFFFFFFFFFFFAFFFFFFFFFFFFFFFFFAFFFFFFFFFFFFFAFFFFFFFFFFFFFFFFFAFFFFFFFFFFFFFAFFFFFFFFFFFFFFFFFAFAAAAAAAAAAAAAFFFFFFFFFFFFFFFFFAFAFFFFFFFFFFAAFFFFFFFFFFFFFFFFFAAAAAAAAAAAAAAAFFFFFFFFFFFFFFFFFFFAFFFFF
1004
FFFFFAFFFFFFFFFFFFFFFFFFFFAFFFFFFFFFFAFFFFFFFFFFFFFFFFFFFFAFFFFFFFFFFAFFFFFFFFFFFFFFFFFFFFAFFFFFFFFFFAFFFFFFFFFFFFFFFFFFFFAFFFFFFFFFFAFFFFFFFFFFFFFFFFFFFFAFFFFFFFFFFAFFFFFFFFFFFFFFFFFFFFAFFFFFFFFFFAFFFFFFFFFFFFFFFFFFFFAFFFFFFFFFFAFFFFFFFFFF
1004
FFFFFFFFFFAAAAAAAAAAAFFFFFFFFFFF
  0
BLOCK_RECORD
  5
1877
100
AcDbSymbolTableRecord
100
AcDbBlockTableRecord
  2
AZAVER-P
1001
CONTENTBLOCKICON
1071
        0
1004
2800000020000000200000000100040000000000000200000000000000000000000000000000000000000000000080000080000000808000800000008000800080800000C0C0C000808080000000FF0000FF000000FFFF00FF000000FF00FF00FFFF0000FFFFFF00FFFFFFFFFFFFFFFFAAFFFFFFFFFFFFFF
1004
FFFFFFFFFFFFFFFAFAFFFFFFFFFFFFFFFFFFFFFFFFFFFFFAFAFFFFFFFFFFFFFFFFFFFFFFFFFFFFFAFAFFFFFFFFFFFFFFFFFFFFFFFFFFFAAAFAAAFFFFFFFFFFFFFFFFFFFFFFFFFAFAFAFFFFFFFFFFFFFFFFFFFFFFFFFFFAFAFAFFFFFFFFFFFFFFFFFFFFFFFFFFFAFAFAFFFFFFFFFFFFFFFFFFFFFFFFFFFAFA
1004
FAFFFFFFFFFFFFFFFFFFFFFFFFFFFAFAFAFFFFFFFFFFFFFFFFFFFFFFFFFFFAFAFAFFFFFFFFFFFFFFFFFFFFFFFFFFFAFAFAFFFFFFFFFFFFFFFFFFFFFFFFFFFAFAFAFFFFFFFFFFFFFFFFFFFFFFFFFFFAFAFAFFFFFFFFFFFFFFFFFFFFFFFFFFFAFAFAFFFFFFFFFFFFFFFFFFFFFFFFFFFAFAFAFFFFFFFFFFFFFF
1004
FFFFFFFFFFFFFAFAFAFFFFFFFFFFFFFFFFFFFFFFFFFFFAFAFAFFFFFFFFFFFFFFFFFFFFFFFFFFFAFAFAFFFFFFFFFFFFFFFFFFFFFFFFFFFAFAFAFFFFFFFFFFFFFFFFFFFFFFFFFFFAFAFAFFFFFFFFFFFFFFFFFFFFFFFFFFFAFAFAFFFFFFFFFFFFFFFFFFFFFFFFFFFAFAFAFFFFFFFFFFFFFFFFFFFFFFFFFFFAFA
1004
FAFFFFFFFFFFFFFFFFFFFFFFFFFFFAFAFAFFFFFFFFFFFFFFFFFFFFFFFFFFFAFAFAFFFFFFFFFFFFFFFFFFFFFFFFFFFAAAFAAFFFFFFFFFFFFFFFFFFFFFFFFFFFFAFAFFFFFFFFFFFFFFFFFFFFFFFFFFFFFAFAFFFFFFFFFFFFFFFFFFFFFFFFFFFFFAFAFFFFFFFFFFFFFFFFFFFFFFFFFFFFFAFAFFFFFFFFFFFFFF
1004
FFFFFFFFFFFFFFFFAAFFFFFFFFFFFFFF
  0
BLOCK_RECORD
  5
189E
100
AcDbSymbolTableRecord
100
AcDbBlockTableRecord
  2
AZAVER-B
1001
CONTENTBLOCKICON
1071
        0
1004
2800000020000000200000000100040000000000000200000000000000000000000000000000000000000000000080000080000000808000800000008000800080800000C0C0C000808080000000FF0000FF000000FFFF00FF000000FF00FF00FFFF0000FFFFFF00FFFFFFFFFFFFFFFFFFFFFFFFFFFFFFFF
1004
FFFFFFFFFFFFFFAFFFFFFFFFFFFFFFFFFFFFFFFFFFFFFFAFFFFFFFFFFFFFFFFFFFFFFFFFFFFFFFAFFFFFFFFFFFFFFFFFFFFFFFFFFFFFFFAFFFFFFFFFFFFFFFFFFFFFFFFFFFFFFFAFFFFFFFFFFFFFFFFFFFFFFFFFFFFFFFAFFFFFFFFFFFFFFFFFFFFFFFFFFFFFFFAFFFFFFFFFFFFFFFFFFFFFFFFFFFFFFFAF
1004
FAFFFFFFFFFFFFFFFFFFFFFFFFFFFFAFFAFFFFFFFFFFFFFFFFFFFFFFFFFFFFAAAAFFFFFFFFFFFFFFFFFFFFFFFFFFFFAAAAFFFFFFFFFFFFFFFFFFFFFFFFFFFFAAAAFFFFFFFFFFFFFFFFFFFFFFFFFFFFAAAAFFFFFFFFFFFFFFFFFFFFFFFFFFFFFAAFFFFFFFFFFFFFFFFFFFFFFFFFFFFFFAAFFFFFFFFFFFFFFF
1004
FFFFFFFFFFFFFFFAAFFFFFFFFFFFFFFFFFFFFFFFFFFFFFFAAFFFFFFFFFFFFFFFFFFFFFFFFFFFFFFAAFFFFFFFFFFFFFFFFFFFFFFFFFFFFFFAAFFFFFFFFFFFFFFFFFFFFFFFFFFFFFAAAAFFFFFFFFFFFFFFFFFFFFFFFFFFFFAAAAFFFFFFFFFFFFFFFFFFFFFFFFFFFFAAAAFFFFFFFFFFFFFFFFFFFFFFFFFFFFFF
1004
FAFFFFFFFFFFFFFFFFFFFFFFFFFFFFFFFAFFFFFFFFFFFFFFFFFFFFFFFFFFFFFFFAFFFFFFFFFFFFFFFFFFFFFFFFFFFFFFFAFFFFFFFFFFFFFFFFFFFFFFFFFFFFFFFAFFFFFFFFFFFFFFFFFFFFFFFFFFFFFFFAFFFFFFFFFFFFFFFFFFFFFFFFFFFFFFFAFFFFFFFFFFFFFFFFFFFFFFFFFFFFFFFAFFFFFFFFFFFFFF
1004
FFFFFFFFFFFFFFFFFAFFFFFFFFFFFFFF
  0
BLOCK_RECORD
  5
18D6
100
AcDbSymbolTableRecord
100
AcDbBlockTableRecord
  2
CMB-240-180-N
  0
BLOCK_RECORD
  5
1E53
100
AcDbSymbolTableRecord
100
AcDbBlockTableRecord
  2
*D16
  0
BLOCK_RECORD
  5
1E60
100
AcDbSymbolTableRecord
100
AcDbBlockTableRecord
  2
*D17
  0
BLOCK_RECORD
  5
1E6F
100
AcDbSymbolTableRecord
100
AcDbBlockTableRecord
  2
*D18
  0
BLOCK_RECORD
  5
1EC6
100
AcDbSymbolTableRecord
100
AcDbBlockTableRecord
  2
*D19
  0
BLOCK_RECORD
  5
1EE9
100
AcDbSymbolTableRecord
100
AcDbBlockTableRecord
  2
*D20
  0
BLOCK_RECORD
  5
1F17
100
AcDbSymbolTableRecord
100
AcDbBlockTableRecord
  2
*D21
  0
BLOCK_RECORD
  5
1F23
100
AcDbSymbolTableRecord
100
AcDbBlockTableRecord
  2
*D22
  0
BLOCK_RECORD
  5
1F2F
100
AcDbSymbolTableRecord
100
AcDbBlockTableRecord
  2
*D23
  0
BLOCK_RECORD
  5
1F3B
100
AcDbSymbolTableRecord
100
AcDbBlockTableRecord
  2
*D24
  0
BLOCK_RECORD
  5
1F47
100
AcDbSymbolTableRecord
100
AcDbBlockTableRecord
  2
*D25
  0
BLOCK_RECORD
  5
1F53
100
AcDbSymbolTableRecord
100
AcDbBlockTableRecord
  2
*D26
  0
BLOCK_RECORD
  5
1F5F
100
AcDbSymbolTableRecord
100
AcDbBlockTableRecord
  2
*D27
  0
BLOCK_RECORD
  5
1F6D
100
AcDbSymbolTableRecord
100
AcDbBlockTableRecord
  2
*D28
  0
BLOCK_RECORD
  5
1F7B
100
AcDbSymbolTableRecord
100
AcDbBlockTableRecord
  2
*D29
  0
BLOCK_RECORD
  5
1F87
100
AcDbSymbolTableRecord
100
AcDbBlockTableRecord
  2
*D30
  0
BLOCK_RECORD
  5
1F93
100
AcDbSymbolTableRecord
100
AcDbBlockTableRecord
  2
*D31
  0
BLOCK_RECORD
  5
1F9F
100
AcDbSymbolTableRecord
100
AcDbBlockTableRecord
  2
EDRI-125
  0
BLOCK_RECORD
  5
215D
100
AcDbSymbolTableRecord
100
AcDbBlockTableRecord
  2
*D33
  0
BLOCK_RECORD
  5
2169
100
AcDbSymbolTableRecord
100
AcDbBlockTableRecord
  2
*D34
  0
BLOCK_RECORD
  5
2175
100
AcDbSymbolTableRecord
100
AcDbBlockTableRecord
  2
*D35
  0
BLOCK_RECORD
  5
2181
100
AcDbSymbolTableRecord
100
AcDbBlockTableRecord
  2
*D36
  0
BLOCK_RECORD
  5
218D
100
AcDbSymbolTableRecord
100
AcDbBlockTableRecord
  2
*D37
  0
BLOCK_RECORD
  5
2199
100
AcDbSymbolTableRecord
100
AcDbBlockTableRecord
  2
*D38
  0
BLOCK_RECORD
  5
21A5
100
AcDbSymbolTableRecord
100
AcDbBlockTableRecord
  2
*D39
  0
BLOCK_RECORD
  5
21B3
100
AcDbSymbolTableRecord
100
AcDbBlockTableRecord
  2
*D40
  0
BLOCK_RECORD
  5
21C1
100
AcDbSymbolTableRecord
100
AcDbBlockTableRecord
  2
*D41
  0
BLOCK_RECORD
  5
21CD
100
AcDbSymbolTableRecord
100
AcDbBlockTableRecord
  2
*D42
  0
BLOCK_RECORD
  5
21D9
100
AcDbSymbolTableRecord
100
AcDbBlockTableRecord
  2
*D43
  0
BLOCK_RECORD
  5
2292
100
AcDbSymbolTableRecord
100
AcDbBlockTableRecord
  2
*D44
  0
BLOCK_RECORD
  5
22AA
100
AcDbSymbolTableRecord
100
AcDbBlockTableRecord
  2
*D45
  0
BLOCK_RECORD
  5
2310
100
AcDbSymbolTableRecord
100
AcDbBlockTableRecord
  2
*D46
  0
BLOCK_RECORD
  5
231E
100
AcDbSymbolTableRecord
100
AcDbBlockTableRecord
  2
*D47
  0
BLOCK_RECORD
  5
239A
100
AcDbSymbolTableRecord
100
AcDbBlockTableRecord
  2
*D48
  0
BLOCK_RECORD
  5
23A8
100
AcDbSymbolTableRecord
100
AcDbBlockTableRecord
  2
*D49
  0
BLOCK_RECORD
  5
2485
100
AcDbSymbolTableRecord
100
AcDbBlockTableRecord
  2
*D50
  0
BLOCK_RECORD
  5
24CA
100
AcDbSymbolTableRecord
100
AcDbBlockTableRecord
  2
*D51
  0
BLOCK_RECORD
  5
24D8
100
AcDbSymbolTableRecord
100
AcDbBlockTableRecord
  2
*D52
  0
BLOCK_RECORD
  5
24E4
100
AcDbSymbolTableRecord
100
AcDbBlockTableRecord
  2
*D53
  0
BLOCK_RECORD
  5
2513
100
AcDbSymbolTableRecord
100
AcDbBlockTableRecord
  2
*D54
  0
ENDTAB
  0
ENDSEC
  0
SECTION
  2
BLOCKS
  0
BLOCK
  5
1B
100
AcDbEntity
  8
0
100
AcDbBlockBegin
  2
*MODEL_SPACE
 70
     0
 10
0.0
 20
0.0
 30
0.0
  3
*MODEL_SPACE
  1

  0
ENDBLK
  5
1C
100
AcDbEntity
  8
0
100
AcDbBlockEnd
  0
BLOCK
  5
18
100
AcDbEntity
 67
     1
  8
0
100
AcDbBlockBegin
  2
*PAPER_SPACE
 70
     0
 10
0.0
 20
0.0
 30
0.0
  3
*PAPER_SPACE
  1

  0
ENDBLK
  5
19
100
AcDbEntity
 67
     1
  8
0
100
AcDbBlockEnd
  0
BLOCK
  5
91
100
AcDbEntity
  8
0
100
AcDbBlockBegin
  2
_OPEN
 70
     0
 10
0.0
 20
0.0
 30
0.0
  3
_OPEN
  1

  0
LINE
  5
92
100
AcDbEntity
  8
0
  6
BYBLOCK
 62
     0
100
AcDbLine
 10
-1.0
 20
0.166667
 30
0.0
 11
0.0
 21
0.0
 31
0.0
  0
LINE
  5
93
100
AcDbEntity
  8
0
  6
BYBLOCK
 62
     0
100
AcDbLine
 10
0.0
 20
0.0
 30
0.0
 11
-1.0
 21
-0.166667
 31
0.0
  0
LINE
  5
94
100
AcDbEntity
  8
0
  6
BYBLOCK
 62
     0
100
AcDbLine
 10
0.0
 20
0.0
 30
0.0
 11
-1.0
 21
0.0
 31
0.0
  0
ENDBLK
  5
95
100
AcDbEntity
  8
0
100
AcDbBlockEnd
  0
BLOCK
  5
17E4
100
AcDbEntity
  8
0
 48
3.0
100
AcDbBlockBegin
  2
AZAVER
 70
     0
 10
0.0
 20
0.0
 30
0.0
  3
AZAVER
  1

  0
LINE
  5
1817
100
AcDbEntity
  8
V0-OBRYS
  6
CONTINUOUS
 62
    90
 48
3.0
100
AcDbLine
 10
40.124616
 20
15.125763
 30
0.0
 11
65.339471
 21
15.125763
 31
0.0
  0
LINE
  5
1818
100
AcDbEntity
  8
V0-OBRYS
  6
CONTINUOUS
 62
    90
 48
3.0
100
AcDbLine
 10
35.802071
 20
-6.469158
 30
0.0
 11
69.662016
 21
-6.469158
 31
0.0
  0
LINE
  5
1819
100
AcDbEntity
  8
V0-OBRYS
  6
CONTINUOUS
 62
    90
 48
3.0
100
AcDbLine
 10
40.124616
 20
-59.016801
 30
0.0
 11
65.339471
 21
-59.016801
 31
0.0
  0
LINE
  5
181A
100
AcDbEntity
  8
V0-OBRYS
  6
CONTINUOUS
 62
    90
 48
3.0
100
AcDbLine
 10
40.124616
 20
-28.06408
 30
0.0
 11
65.339471
 21
-28.06408
 31
0.0
  0
LINE
  5
181B
100
AcDbEntity
  8
V0-OBRYS
  6
CONTINUOUS
 62
    90
 48
3.0
100
AcDbLine
 10
40.124616
 20
-10.788143
 30
0.0
 11
65.339471
 21
-10.788143
 31
0.0
  0
LINE
  5
181C
100
AcDbEntity
  8
V0-OBRYS
  6
CONTINUOUS
 62
    90
 48
3.0
100
AcDbLine
 10
40.124616
 20
-59.016801
 30
0.0
 11
40.124616
 21
-28.06408
 31
0.0
  0
LINE
  5
181D
100
AcDbEntity
  8
V0-OBRYS
  6
CONTINUOUS
 62
    90
 48
3.0
100
AcDbLine
 10
40.124616
 20
15.125763
 30
0.0
 11
40.124616
 21
-10.788143
 31
0.0
  0
LINE
  5
181E
100
AcDbEntity
  8
V0-OBRYS
  6
CONTINUOUS
 62
    90
 48
3.0
100
AcDbLine
 10
35.081648
 20
-6.469158
 30
0.0
 11
35.081648
 21
-35.262385
 31
0.0
  0
LINE
  5
181F
100
AcDbEntity
  8
V0-OBRYS
  6
CONTINUOUS
 62
    90
 48
3.0
100
AcDbLine
 10
35.081648
 20
-35.262385
 30
0.0
 11
39.404193
 21
-35.262385
 31
0.0
  0
LINE
  5
1820
100
AcDbEntity
  8
V0-OBRYS
  6
CONTINUOUS
 62
    90
 48
3.0
100
AcDbLine
 10
65.339471
 20
-28.06408
 30
0.0
 11
65.339471
 21
-59.016801
 31
0.0
  0
LINE
  5
1821
100
AcDbEntity
  8
V0-OBRYS
  6
CONTINUOUS
 62
    90
 48
3.0
100
AcDbLine
 10
65.339471
 20
-10.788143
 30
0.0
 11
65.339471
 21
15.125763
 31
0.0
  0
LINE
  5
1822
100
AcDbEntity
  8
V0-OBRYS
  6
CONTINUOUS
 62
    90
 48
3.0
100
AcDbLine
 10
69.662016
 20
-6.469158
 30
0.0
 11
69.662016
 21
-35.262385
 31
0.0
  0
LINE
  5
1823
100
AcDbEntity
  8
V0-OBRYS
  6
CONTINUOUS
 62
    90
 48
3.0
100
AcDbLine
 10
69.662016
 20
-35.262385
 30
0.0
 11
65.339471
 21
-35.262385
 31
0.0
  0
ENDBLK
  5
17F2
100
AcDbEntity
  8
0
 48
3.0
100
AcDbBlockEnd
  0
BLOCK
  5
1878
100
AcDbEntity
  8
0
 48
3.0
100
AcDbBlockBegin
  2
AZAVER-P
 70
     0
 10
0.0
 20
0.0
 30
0.0
  3
AZAVER-P
  1

  0
LINE
  5
1879
100
AcDbEntity
  8
V0-OBRYS
  6
CONTINUOUS
 62
    90
 48
3.0
100
AcDbLine
 10
-3.827085
 20
-36.911801
 30
0.0
 11
-3.827085
 21
-70.692253
 31
0.0
  0
LINE
  5
187A
100
AcDbEntity
  8
V0-OBRYS
  6
CONTINUOUS
 62
    90
 48
3.0
100
AcDbLine
 10
-2.200766
 20
-70.692253
 30
0.0
 11
-2.200766
 21
-41.390269
 31
0.0
  0
ARC
  5
187B
100
AcDbEntity
  8
V0-OBRYS
  6
CONTINUOUS
 62
    90
 48
3.0
100
AcDbCircle
 10
-3.013925
 20
-70.692253
 30
0.0
 40
0.813159
100
AcDbArc
 50
180.0
 51
0.0
  0
LINE
  5
187C
100
AcDbEntity
  8
V0-OBRYS
  6
CONTINUOUS
 62
    90
 48
3.0
100
AcDbLine
 10
-6.519751
 20
-41.292399
 30
0.0
 11
-3.827085
 21
-41.292399
 31
0.0
  0
LINE
  5
187D
100
AcDbEntity
  8
V0-OBRYS
  6
CONTINUOUS
 62
    90
 48
3.0
100
AcDbLine
 10
-3.827085
 20
-66.507255
 30
0.0
 11
-6.519751
 21
-66.507255
 31
0.0
  0
LINE
  5
187E
100
AcDbEntity
  8
V0-OBRYS
  6
CONTINUOUS
 62
    90
 48
3.0
100
AcDbLine
 10
-6.519751
 20
-66.507255
 30
0.0
 11
-6.519751
 21
-41.292399
 31
0.0
  0
ARC
  5
187F
100
AcDbEntity
  8
V0-OBRYS
  6
CONTINUOUS
 62
    90
 48
3.0
100
AcDbCircle
 10
-3.013925
 20
-36.911801
 30
0.0
 40
0.813159
100
AcDbArc
 50
0.0
 51
180.0
  0
LINE
  5
1880
100
AcDbEntity
  8
V0-OBRYS
  6
CONTINUOUS
 62
    90
 48
3.0
100
AcDbLine
 10
-2.200766
 20
-41.390269
 30
0.0
 11
-2.200766
 21
-36.911801
 31
0.0
  0
LINE
  5
1881
100
AcDbEntity
  8
V0-OBRYS
  6
CONTINUOUS
 62
    90
 48
3.0
100
AcDbLine
 10
-2.191912
 20
-41.292399
 30
0.0
 11
0.0
 21
-41.292399
 31
0.0
  0
LINE
  5
1882
100
AcDbEntity
  8
V0-OBRYS
  6
CONTINUOUS
 62
    90
 48
3.0
100
AcDbLine
 10
0.0
 20
-66.507255
 30
0.0
 11
-2.191912
 21
-66.507255
 31
0.0
  0
ENDBLK
  5
1883
100
AcDbEntity
  8
0
 48
3.0
100
AcDbBlockEnd
  0
BLOCK
  5
189F
100
AcDbEntity
  8
0
 48
3.0
100
AcDbBlockBegin
  2
AZAVER-B
 70
     0
 10
0.0
 20
0.0
 30
0.0
  3
AZAVER-B
  1

  0
LINE
  5
18AE
100
AcDbEntity
  8
V0-OBRYS
  6
CONTINUOUS
 62
    90
 48
3.0
100
AcDbLine
 10
-7.466751
 20
-65.180052
 30
0.0
 11
-7.466751
 21
-78.057025
 31
0.0
  0
LINE
  5
18AF
100
AcDbEntity
  8
V0-OBRYS
  6
CONTINUOUS
 62
    90
 48
3.0
100
AcDbLine
 10
-3.324311
 20
-54.602539
 30
0.0
 11
-3.324311
 21
-25.629357
 31
0.0
  0
LINE
  5
18B0
100
AcDbEntity
  8
V0-OBRYS
  6
CONTINUOUS
 62
    90
 48
3.0
100
AcDbLine
 10
-5.625665
 20
-25.629357
 30
0.0
 11
-5.625665
 21
-54.602539
 31
0.0
  0
LINE
  5
18B1
100
AcDbEntity
  8
V0-OBRYS
  6
CONTINUOUS
 62
    90
 48
3.0
100
AcDbLine
 10
-5.625665
 20
-54.602539
 30
0.0
 11
-3.324311
 21
-54.602539
 31
0.0
  0
LINE
  5
18B2
100
AcDbEntity
  8
V0-OBRYS
  6
CONTINUOUS
 62
    90
 48
3.0
100
AcDbLine
 10
-1.483225
 20
-47.24427
 30
0.0
 11
-7.466751
 21
-47.24427
 31
0.0
  0
LINE
  5
18B3
100
AcDbEntity
  8
V0-OBRYS
  6
CONTINUOUS
 62
    90
 48
3.0
100
AcDbLine
 10
-7.466751
 20
-47.24427
 30
0.0
 11
-7.466751
 21
-65.180052
 31
0.0
  0
LINE
  5
18B4
100
AcDbEntity
  8
V0-OBRYS
  6
CONTINUOUS
 62
    90
 48
3.0
100
AcDbLine
 10
-1.483225
 20
-58.741568
 30
0.0
 11
-1.483225
 21
-47.24427
 31
0.0
  0
LINE
  5
18B5
100
AcDbEntity
  8
V0-OBRYS
  6
CONTINUOUS
 62
    90
 48
3.0
100
AcDbLine
 10
-3.324311
 20
-25.629357
 30
0.0
 11
-5.625665
 21
-25.629357
 31
0.0
  0
LINE
  5
18B6
100
AcDbEntity
  8
V0-OBRYS
  6
CONTINUOUS
 62
    90
 48
3.0
100
AcDbLine
 10
-1.483225
 20
-30.228273
 30
0.0
 11
-7.927024
 21
-30.228273
 31
0.0
  0
LINE
  5
18B7
100
AcDbEntity
  8
V0-OBRYS
  6
CONTINUOUS
 62
    90
 48
3.0
100
AcDbLine
 10
-7.927024
 20
-30.228273
 30
0.0
 11
-7.927024
 21
-24.249679
 31
0.0
  0
LINE
  5
18B8
100
AcDbEntity
  8
V0-OBRYS
  6
CONTINUOUS
 62
    90
 48
3.0
100
AcDbLine
 10
-1.483225
 20
-4.01444
 30
0.0
 11
-1.483225
 21
-30.228273
 31
0.0
  0
ENDBLK
  5
18AB
100
AcDbEntity
  8
0
 48
3.0
100
AcDbBlockEnd
  0
BLOCK
  5
18FC
100
AcDbEntity
  8
0
 62
    41
 48
3.0
100
AcDbBlockBegin
  2
CMB-240-180-N
 70
     0
 10
0.0
 20
0.0
 30
0.0
  3
CMB-240-180-N
  1

  0
LINE
  5
18D7
100
AcDbEntity
  8
V0-VYPLNE
100
AcDbLine
 10
-181.44995
 20
-26.63432
 30
0.0
 11
-181.44995
 21
-139.133702
 31
0.0
  0
ARC
  5
18D8
100
AcDbEntity
  8
V0-OBRYS
100
AcDbCircle
 10
-170.55995
 20
79.520028
 30
0.0
 40
209.33
100
AcDbArc
 50
182.626485
 51
270.0
  0
MTEXT
  5
18D9
100
AcDbEntity
  8
V0-NAZVY
100
AcDbMText
 10
-250.860869
 20
-44.196084
 30
0.0
 40
27.225
 41
223.9425
 71
     5
 72
     5
  1
CBM-240-180
  7
ED10
  0
LINE
  5
18DA
100
AcDbEntity
  8
V0-VYPLNE
100
AcDbLine
 10
25.866213
 20
100.090028
 30
0.0
 11
-335.743575
 21
100.090028
 31
0.0
  0
LWPOLYLINE
  5
18DB
100
AcDbEntity
  8
V0-OBRYS
100
AcDbPolyline
 90
        4
 70
     1
 43
0.0
 10
-252.833381
 20
-106.848253
 10
-182.833381
 20
-106.848253
 10
-182.833381
 20
-86.848253
 10
-252.833381
 20
-86.848253
  0
ARC
  5
18DC
100
AcDbEntity
  8
V0-OBRYS
100
AcDbCircle
 10
-184.44995
 20
100.090028
 30
0.0
 40
67.414501
100
AcDbArc
 50
32.684046
 51
147.424572
  0
ARC
  5
18DD
100
AcDbEntity
  8
V0-OBRYS
100
AcDbCircle
 10
-184.44995
 20
100.090028
 30
0.0
 40
105.571475
100
AcDbArc
 50
31.727031
 51
148.450037
  0
ARC
  5
18DE
100
AcDbEntity
  8
V0-OBRYS
100
AcDbCircle
 10
-184.44995
 20
100.090028
 30
0.0
 40
110.298019
100
AcDbArc
 50
31.609657
 51
148.514274
  0
LINE
  5
18DF
100
AcDbEntity
  8
V0-OBRYS
100
AcDbLine
 10
-208.026241
 20
110.208837
 30
0.0
 11
-295.708955
 21
160.832476
 31
0.0
  0
LINE
  5
18E0
100
AcDbEntity
  8
V0-OBRYS
100
AcDbLine
 10
-205.001241
 20
115.44829
 30
0.0
 11
-292.683955
 21
166.071929
 31
0.0
  0
ARC
  5
18E1
100
AcDbEntity
  8
V0-OBRYS
100
AcDbCircle
 10
-184.44995
 20
100.090028
 30
0.0
 40
110.298019
100
AcDbArc
 50
151.558401
 51
268.418387
  0
ARC
  5
18E2
100
AcDbEntity
  8
V0-OBRYS
100
AcDbCircle
 10
-184.44995
 20
100.090028
 30
0.0
 40
105.571475
100
AcDbArc
 50
151.655913
 51
268.285088
  0
ARC
  5
18E3
100
AcDbEntity
  8
V0-OBRYS
100
AcDbCircle
 10
-184.44995
 20
100.090028
 30
0.0
 40
67.414501
100
AcDbArc
 50
152.614823
 51
267.600439
  0
ARC
  5
18E4
100
AcDbEntity
  8
V0-OBRYS
100
AcDbCircle
 10
-197.17995
 20
79.520028
 30
0.0
 40
182.71
100
AcDbArc
 50
90.0
 51
182.916555
  0
ARC
  5
18E5
100
AcDbEntity
  8
V0-OBRYS
100
AcDbCircle
 10
-294.196455
 20
163.452203
 30
0.0
 40
3.025
100
AcDbArc
 50
60.0
 51
240.0
  0
ARC
  5
18E6
100
AcDbEntity
  8
V0-OBRYS
100
AcDbCircle
 10
-170.55995
 20
79.520028
 30
0.0
 40
209.33
100
AcDbArc
 50
179.728476
 51
180.0
  0
ARC
  5
18E7
100
AcDbEntity
  8
V0-OBRYS
100
AcDbCircle
 10
-74.703445
 20
163.452203
 30
0.0
 40
3.025
100
AcDbArc
 50
300.0
 51
120.0
  0
LINE
  5
18E8
100
AcDbEntity
  8
V0-OBRYS
100
AcDbLine
 10
-163.89866
 20
115.44829
 30
0.0
 11
-76.215945
 21
166.071929
 31
0.0
  0
LINE
  5
18E9
100
AcDbEntity
  8
V0-VYPLNE
100
AcDbLine
 10
-183.44995
 20
261.435409
 30
0.0
 11
-184.44995
 21
-26.63432
 31
0.0
  0
ARC
  5
18EA
100
AcDbEntity
  8
V0-OBRYS
100
AcDbCircle
 10
-205.836025
 20
98.077269
 30
0.0
 40
164.380826
100
AcDbArc
 50
11.130492
 51
86.981485
  0
ARC
  5
18EB
100
AcDbEntity
  8
V0-OBRYS
100
AcDbCircle
 10
-184.44995
 20
100.090028
 30
0.0
 40
110.298019
100
AcDbArc
 50
271.628789
 51
28.480046
  0
ARC
  5
18EC
100
AcDbEntity
  8
V0-OBRYS
100
AcDbCircle
 10
-184.44995
 20
100.090028
 30
0.0
 40
105.571475
100
AcDbArc
 50
271.637083
 51
28.280642
  0
LINE
  5
18ED
100
AcDbEntity
  8
V0-OBRYS
100
AcDbLine
 10
-187.47495
 20
74.612957
 30
0.0
 11
-187.47495
 21
-26.63432
 31
0.0
  0
LINE
  5
18EE
100
AcDbEntity
  8
V0-OBRYS
100
AcDbLine
 10
-181.42495
 20
74.612957
 30
0.0
 11
-181.42495
 21
-26.63432
 31
0.0
  0
LINE
  5
18EF
100
AcDbEntity
  8
V0-OBRYS
100
AcDbLine
 10
-44.547191
 20
129.810028
 30
0.0
 11
-44.547191
 21
-129.265036
 31
0.0
  0
LINE
  5
18F0
100
AcDbEntity
  8
V0-OBRYS
100
AcDbLine
 10
0.00005
 20
-129.809972
 30
0.0
 11
0.00005
 21
129.810028
 31
0.0
  0
LWPOLYLINE
  5
18F1
100
AcDbEntity
  8
V0-OBRYS
100
AcDbPolyline
 90
        4
 70
     1
 43
0.0
 10
-147.266717
 20
-120.838177
 10
-87.266717
 20
-120.838177
 10
-87.266717
 20
-60.838177
 10
-147.266717
 20
-60.838177
  0
LINE
  5
18F2
100
AcDbEntity
  8
V0-OBRYS
100
AcDbLine
 10
-170.55995
 20
-129.809972
 30
0.0
 11
0.00005
 21
-129.809972
 31
0.0
  0
ARC
  5
18F3
100
AcDbEntity
  8
V0-OBRYS
100
AcDbCircle
 10
-181.44995
 20
-26.63432
 30
0.0
 40
3.025
100
AcDbArc
 50
180.0
 51
0.0
  0
POINT
  5
18F4
100
AcDbEntity
  8
0
  6
CONTINUOUS
 62
     7
100
AcDbPoint
 10
0.00005
 20
0.000028
 30
0.0
  0
ARC
  5
18F5
100
AcDbEntity
  8
V0-OBRYS
100
AcDbCircle
 10
-184.44995
 20
100.090028
 30
0.0
 40
67.414501
100
AcDbArc
 50
272.565236
 51
27.437736
  0
LINE
  5
18F6
100
AcDbEntity
  8
V0-OBRYS
100
AcDbLine
 10
-160.87366
 20
110.208837
 30
0.0
 11
-73.190945
 21
160.832476
 31
0.0
  0
CIRCLE
  5
18F7
100
AcDbEntity
  8
V0-OBRYS
100
AcDbCircle
 10
-184.44995
 20
100.090028
 30
0.0
 40
25.477071
  0
LINE
  5
18F8
100
AcDbEntity
  8
V0-OBRYS
100
AcDbLine
 10
-181.42495
 20
74.612957
 30
0.0
 11
-187.47495
 21
74.612957
 31
0.0
  0
LINE
  5
18F9
100
AcDbEntity
  8
V0-OBRYS
100
AcDbLine
 10
-208.026241
 20
110.208837
 30
0.0
 11
-205.001241
 21
115.44829
 31
0.0
  0
LINE
  5
18FA
100
AcDbEntity
  8
V0-OBRYS
100
AcDbLine
 10
-163.89866
 20
115.44829
 30
0.0
 11
-160.87366
 21
110.208837
 31
0.0
  0
LINE
  5
18FB
100
AcDbEntity
  8
V0-OBRYS
100
AcDbLine
 10
-44.547191
 20
129.810028
 30
0.0
 11
0.00005
 21
129.810028
 31
0.0
  0
ENDBLK
  5
18FD
100
AcDbEntity
  8
0
 62
    41
 48
3.0
100
AcDbBlockEnd
  0
BLOCK
  5
247A
100
AcDbEntity
  8
0
 48
3.0
100
AcDbBlockBegin
  2
*D16
 70
     1
 10
0.0
 20
0.0
 30
0.0
  3
*D16
  1

  0
LINE
  5
247B
100
AcDbEntity
  8
0
  6
BYBLOCK
 62
     0
 48
3.0
100
AcDbLine
 10
-55.0
 20
-75.858737
 30
0.0
 11
-55.0
 21
-138.959533
 31
0.0
  0
LINE
  5
247C
100
AcDbEntity
  8
0
  6
BYBLOCK
 62
     0
 48
3.0
100
AcDbLine
 10
65.0
 20
-75.858737
 30
0.0
 11
65.0
 21
-138.959533
 31
0.0
  0
LINE
  5
247D
100
AcDbEntity
  8
0
  6
BYBLOCK
 62
     0
 48
3.0
100
AcDbLine
 10
-35.0
 20
-137.709533
 30
0.0
 11
45.0
 21
-137.709533
 31
0.0
  0
INSERT
  5
247E
100
AcDbEntity
  8
0
  6
BYBLOCK
 62
     0
 48
3.0
100
AcDbBlockReference
  2
_OPEN
 10
-55.0
 20
-137.709533
 30
0.0
 41
20.0
 42
20.0
 43
20.0
 50
180.0
  0
INSERT
  5
247F
100
AcDbEntity
  8
0
  6
BYBLOCK
 62
     0
 48
3.0
100
AcDbBlockReference
  2
_OPEN
 10
65.0
 20
-137.709533
 30
0.0
 41
20.0
 42
20.0
 43
20.0
  0
MTEXT
  5
2480
100
AcDbEntity
  8
0
  6
BYBLOCK
 62
     0
 48
3.0
100
AcDbMText
 10
0.0
 20
-125.707565
 30
0.0
 40
20.0
 41
0.0
 71
     5
 72
     1
  1
\A1;120
  7
ED20
  0
POINT
  5
2481
100
AcDbEntity
  8
DEFPOINTS
  6
BYBLOCK
 62
     0
 48
3.0
100
AcDbPoint
 10
-55.0
 20
-74.858737
 30
0.0
  0
POINT
  5
2482
100
AcDbEntity
  8
DEFPOINTS
  6
BYBLOCK
 62
     0
 48
3.0
100
AcDbPoint
 10
65.0
 20
-74.858737
 30
0.0
  0
POINT
  5
2483
100
AcDbEntity
  8
DEFPOINTS
  6
BYBLOCK
 62
     0
 48
3.0
100
AcDbPoint
 10
65.0
 20
-137.709533
 30
0.0
  0
ENDBLK
  5
2484
100
AcDbEntity
  8
0
 48
3.0
100
AcDbBlockEnd
  0
BLOCK
  5
2537
100
AcDbEntity
  8
0
 48
3.0
100
AcDbBlockBegin
  2
*D17
 70
     1
 10
0.0
 20
0.0
 30
0.0
  3
*D17
  1

  0
LINE
  5
2538
100
AcDbEntity
  8
0
  6
BYBLOCK
 62
     0
 48
3.0
100
AcDbLine
 10
115.657578
 20
75.5
 30
0.0
 11
115.657578
 21
163.867017
 31
0.0
  0
LINE
  5
2539
100
AcDbEntity
  8
0
  6
BYBLOCK
 62
     0
 48
3.0
100
AcDbLine
 10
75.657578
 20
77.0
 30
0.0
 11
75.657578
 21
163.867017
 31
0.0
  0
LINE
  5
253A
100
AcDbEntity
  8
0
  6
BYBLOCK
 62
     0
 48
3.0
100
AcDbLine
 10
135.657578
 20
162.617017
 30
0.0
 11
155.657578
 21
162.617017
 31
0.0
  0
LINE
  5
253B
100
AcDbEntity
  8
0
  6
BYBLOCK
 62
     0
 48
3.0
100
AcDbLine
 10
55.657578
 20
162.617017
 30
0.0
 11
35.657578
 21
162.617017
 31
0.0
  0
LINE
  5
253C
100
AcDbEntity
  8
0
  6
BYBLOCK
 62
     0
 48
3.0
100
AcDbLine
 10
115.657578
 20
162.617017
 30
0.0
 11
75.657578
 21
162.617017
 31
0.0
  0
INSERT
  5
253D
100
AcDbEntity
  8
0
  6
BYBLOCK
 62
     0
 48
3.0
100
AcDbBlockReference
  2
_OPEN
 10
115.657578
 20
162.617017
 30
0.0
 41
20.0
 42
20.0
 43
20.0
 50
180.0
  0
INSERT
  5
253E
100
AcDbEntity
  8
0
  6
BYBLOCK
 62
     0
 48
3.0
100
AcDbBlockReference
  2
_OPEN
 10
75.657578
 20
162.617017
 30
0.0
 41
20.0
 42
20.0
 43
20.0
  0
MTEXT
  5
253F
100
AcDbEntity
  8
0
  6
BYBLOCK
 62
     0
 48
3.0
100
AcDbMText
 10
95.657578
 20
174.617017
 30
0.0
 40
20.0
 41
0.0
 71
     5
 72
     1
  1
\A1;40
  7
ED20
  0
POINT
  5
2540
100
AcDbEntity
  8
DEFPOINTS
  6
BYBLOCK
 62
     0
 48
3.0
100
AcDbPoint
 10
115.657578
 20
74.5
 30
0.0
  0
POINT
  5
2541
100
AcDbEntity
  8
DEFPOINTS
  6
BYBLOCK
 62
     0
 48
3.0
100
AcDbPoint
 10
75.657578
 20
76.0
 30
0.0
  0
POINT
  5
2542
100
AcDbEntity
  8
DEFPOINTS
  6
BYBLOCK
 62
     0
 48
3.0
100
AcDbPoint
 10
75.657578
 20
162.617017
 30
0.0
  0
ENDBLK
  5
2543
100
AcDbEntity
  8
0
 48
3.0
100
AcDbBlockEnd
  0
BLOCK
  5
1EDE
100
AcDbEntity
  8
0
 48
3.0
100
AcDbBlockBegin
  2
*D18
 70
     1
 10
0.0
 20
0.0
 30
0.0
  3
*D18
  1

  0
LINE
  5
1EDF
100
AcDbEntity
  8
0
  6
BYBLOCK
 62
     0
 48
3.0
100
AcDbLine
 10
56.0
 20
39.5
 30
0.0
 11
104.493674
 21
39.5
 31
0.0
  0
LINE
  5
1EE0
100
AcDbEntity
  8
0
  6
BYBLOCK
 62
     0
 48
3.0
100
AcDbLine
 10
56.0
 20
-39.858737
 30
0.0
 11
104.493674
 21
-39.858737
 31
0.0
  0
LINE
  5
1EE1
100
AcDbEntity
  8
0
  6
BYBLOCK
 62
     0
 48
3.0
100
AcDbLine
 10
103.243674
 20
24.5
 30
0.0
 11
103.243674
 21
-24.858737
 31
0.0
  0
INSERT
  5
1EE2
100
AcDbEntity
  8
0
  6
BYBLOCK
 62
     0
 48
3.0
100
AcDbBlockReference
  2
_OPEN
 10
103.243674
 20
39.5
 30
0.0
 41
15.0
 42
15.0
 43
15.0
 50
90.0
  0
INSERT
  5
1EE3
100
AcDbEntity
  8
0
  6
BYBLOCK
 62
     0
 48
3.0
100
AcDbBlockReference
  2
_OPEN
 10
103.243674
 20
-39.858737
 30
0.0
 41
15.0
 42
15.0
 43
15.0
 50
270.0
  0
MTEXT
  5
1EE4
100
AcDbEntity
  8
0
  6
BYBLOCK
 62
     0
 48
3.0
100
AcDbMText
 10
96.743674
 20
-0.179369
 30
0.0
 40
10.0
 41
0.0
 71
     5
 72
     1
  1
\A1;\U+220579
  7
ED10
 11
0.0
 21
1.0
 31
0.0
  0
POINT
  5
1EE5
100
AcDbEntity
  8
DEFPOINTS
  6
BYBLOCK
 62
     0
 48
3.0
100
AcDbPoint
 10
55.0
 20
39.5
 30
0.0
  0
POINT
  5
1EE6
100
AcDbEntity
  8
DEFPOINTS
  6
BYBLOCK
 62
     0
 48
3.0
100
AcDbPoint
 10
55.0
 20
-39.858737
 30
0.0
  0
POINT
  5
1EE7
100
AcDbEntity
  8
DEFPOINTS
  6
BYBLOCK
 62
     0
 48
3.0
100
AcDbPoint
 10
103.243674
 20
-39.858737
 30
0.0
  0
ENDBLK
  5
1EE8
100
AcDbEntity
  8
0
 48
3.0
100
AcDbBlockEnd
  0
BLOCK
  5
1ED3
100
AcDbEntity
  8
0
 48
3.0
100
AcDbBlockBegin
  2
*D19
 70
     1
 10
0.0
 20
0.0
 30
0.0
  3
*D19
  1

  0
LINE
  5
1ED4
100
AcDbEntity
  8
0
  6
BYBLOCK
 62
     0
 48
3.0
100
AcDbLine
 10
36.0
 20
41.0
 30
0.0
 11
86.019767
 21
41.0
 31
0.0
  0
LINE
  5
1ED5
100
AcDbEntity
  8
0
  6
BYBLOCK
 62
     0
 48
3.0
100
AcDbLine
 10
36.0
 20
-41.358737
 30
0.0
 11
86.019767
 21
-41.358737
 31
0.0
  0
LINE
  5
1ED6
100
AcDbEntity
  8
0
  6
BYBLOCK
 62
     0
 48
3.0
100
AcDbLine
 10
84.769767
 20
26.0
 30
0.0
 11
84.769767
 21
-26.358737
 31
0.0
  0
INSERT
  5
1ED7
100
AcDbEntity
  8
0
  6
BYBLOCK
 62
     0
 48
3.0
100
AcDbBlockReference
  2
_OPEN
 10
84.769767
 20
41.0
 30
0.0
 41
15.0
 42
15.0
 43
15.0
 50
90.0
  0
INSERT
  5
1ED8
100
AcDbEntity
  8
0
  6
BYBLOCK
 62
     0
 48
3.0
100
AcDbBlockReference
  2
_OPEN
 10
84.769767
 20
-41.358737
 30
0.0
 41
15.0
 42
15.0
 43
15.0
 50
270.0
  0
MTEXT
  5
1ED9
100
AcDbEntity
  8
0
  6
BYBLOCK
 62
     0
 48
3.0
100
AcDbMText
 10
78.268783
 20
-0.179369
 30
0.0
 40
10.0
 41
0.0
 71
     5
 72
     1
  1
\A1;\U+220582
  7
ED10
 11
0.0
 21
1.0
 31
0.0
  0
POINT
  5
1EDA
100
AcDbEntity
  8
DEFPOINTS
  6
BYBLOCK
 62
     0
 48
3.0
100
AcDbPoint
 10
35.0
 20
41.0
 30
0.0
  0
POINT
  5
1EDB
100
AcDbEntity
  8
DEFPOINTS
  6
BYBLOCK
 62
     0
 48
3.0
100
AcDbPoint
 10
35.0
 20
-41.358737
 30
0.0
  0
POINT
  5
1EDC
100
AcDbEntity
  8
DEFPOINTS
  6
BYBLOCK
 62
     0
 48
3.0
100
AcDbPoint
 10
84.769767
 20
-41.358737
 30
0.0
  0
ENDBLK
  5
1EDD
100
AcDbEntity
  8
0
 48
3.0
100
AcDbBlockEnd
  0
BLOCK
  5
252C
100
AcDbEntity
  8
0
 48
3.0
100
AcDbBlockBegin
  2
*D20
 70
     1
 10
0.0
 20
0.0
 30
0.0
  3
*D20
  1

  0
LINE
  5
252D
100
AcDbEntity
  8
0
  6
BYBLOCK
 62
     0
 48
3.0
100
AcDbLine
 10
41.657578
 20
115.0
 30
0.0
 11
193.377154
 21
115.0
 31
0.0
  0
LINE
  5
252E
100
AcDbEntity
  8
0
  6
BYBLOCK
 62
     0
 48
3.0
100
AcDbLine
 10
41.657578
 20
-115.358737
 30
0.0
 11
193.377154
 21
-115.358737
 31
0.0
  0
LINE
  5
252F
100
AcDbEntity
  8
0
  6
BYBLOCK
 62
     0
 48
3.0
100
AcDbLine
 10
192.127154
 20
95.0
 30
0.0
 11
192.127154
 21
-95.358737
 31
0.0
  0
INSERT
  5
2530
100
AcDbEntity
  8
0
  6
BYBLOCK
 62
     0
 48
3.0
100
AcDbBlockReference
  2
_OPEN
 10
192.127154
 20
115.0
 30
0.0
 41
20.0
 42
20.0
 43
20.0
 50
90.0
  0
INSERT
  5
2531
100
AcDbEntity
  8
0
  6
BYBLOCK
 62
     0
 48
3.0
100
AcDbBlockReference
  2
_OPEN
 10
192.127154
 20
-115.358737
 30
0.0
 41
20.0
 42
20.0
 43
20.0
 50
270.0
  0
MTEXT
  5
2532
100
AcDbEntity
  8
0
  6
BYBLOCK
 62
     0
 48
3.0
100
AcDbMText
 10
180.125185
 20
-0.179369
 30
0.0
 40
20.0
 41
0.0
 71
     5
 72
     1
  1
\A1;\U+2205230
  7
ED20
 11
0.0
 21
1.0
 31
0.0
  0
POINT
  5
2533
100
AcDbEntity
  8
DEFPOINTS
  6
BYBLOCK
 62
     0
 48
3.0
100
AcDbPoint
 10
40.657578
 20
115.0
 30
0.0
  0
POINT
  5
2534
100
AcDbEntity
  8
DEFPOINTS
  6
BYBLOCK
 62
     0
 48
3.0
100
AcDbPoint
 10
40.657578
 20
-115.358737
 30
0.0
  0
POINT
  5
2535
100
AcDbEntity
  8
DEFPOINTS
  6
BYBLOCK
 62
     0
 48
3.0
100
AcDbPoint
 10
192.127154
 20
-115.358737
 30
0.0
  0
ENDBLK
  5
2536
100
AcDbEntity
  8
0
 48
3.0
100
AcDbBlockEnd
  0
BLOCK
  5
1F21
100
AcDbEntity
  8
0
 48
3.0
100
AcDbBlockBegin
  2
*D21
 70
     1
 10
0.0
 20
0.0
 30
0.0
  3
*D21
  1

  0
LINE
  5
1F18
100
AcDbEntity
  8
0
  6
BYBLOCK
 62
     0
 48
3.0
100
AcDbLine
 10
253.683213
 20
-714.336202
 30
0.0
 11
253.683213
 21
-920.674458
 31
0.0
  0
LINE
  5
1F19
100
AcDbEntity
  8
0
  6
BYBLOCK
 62
     0
 48
3.0
100
AcDbLine
 10
644.683213
 20
-714.336202
 30
0.0
 11
644.683213
 21
-920.674458
 31
0.0
  0
LINE
  5
1F1A
100
AcDbEntity
  8
0
  6
BYBLOCK
 62
     0
 48
3.0
100
AcDbLine
 10
273.683213
 20
-919.424458
 30
0.0
 11
624.683213
 21
-919.424458
 31
0.0
  0
INSERT
  5
1F1B
100
AcDbEntity
  8
0
  6
BYBLOCK
 62
     0
 48
3.0
100
AcDbBlockReference
  2
_OPEN
 10
253.683213
 20
-919.424458
 30
0.0
 41
20.0
 42
20.0
 43
20.0
 50
180.0
  0
INSERT
  5
1F1C
100
AcDbEntity
  8
0
  6
BYBLOCK
 62
     0
 48
3.0
100
AcDbBlockReference
  2
_OPEN
 10
644.683213
 20
-919.424458
 30
0.0
 41
20.0
 42
20.0
 43
20.0
  0
MTEXT
  5
1F1D
100
AcDbEntity
  8
0
  6
BYBLOCK
 62
     0
 48
3.0
100
AcDbMText
 10
446.304902
 20
-907.424458
 30
0.0
 40
20.0
 41
0.0
 71
     5
 72
     1
  1
\A1;391
  7
ED20
  0
POINT
  5
1F1E
100
AcDbEntity
  8
DEFPOINTS
  6
BYBLOCK
 62
     0
 48
3.0
100
AcDbPoint
 10
253.683213
 20
-713.336202
 30
0.0
  0
POINT
  5
1F1F
100
AcDbEntity
  8
DEFPOINTS
  6
BYBLOCK
 62
     0
 48
3.0
100
AcDbPoint
 10
644.683213
 20
-713.336202
 30
0.0
  0
POINT
  5
1F20
100
AcDbEntity
  8
DEFPOINTS
  6
BYBLOCK
 62
     0
 48
3.0
100
AcDbPoint
 10
644.683213
 20
-919.424458
 30
0.0
  0
ENDBLK
  5
1F22
100
AcDbEntity
  8
0
 48
3.0
100
AcDbBlockEnd
  0
BLOCK
  5
1F2D
100
AcDbEntity
  8
0
 48
3.0
100
AcDbBlockBegin
  2
*D22
 70
     1
 10
0.0
 20
0.0
 30
0.0
  3
*D22
  1

  0
LINE
  5
1F24
100
AcDbEntity
  8
0
  6
BYBLOCK
 62
     0
 48
3.0
100
AcDbLine
 10
608.683213
 20
-531.836202
 30
0.0
 11
741.826644
 21
-531.836202
 31
0.0
  0
LINE
  5
1F25
100
AcDbEntity
  8
0
  6
BYBLOCK
 62
     0
 48
3.0
100
AcDbLine
 10
608.683213
 20
-823.836202
 30
0.0
 11
741.826644
 21
-823.836202
 31
0.0
  0
LINE
  5
1F26
100
AcDbEntity
  8
0
  6
BYBLOCK
 62
     0
 48
3.0
100
AcDbLine
 10
740.576644
 20
-551.836202
 30
0.0
 11
740.576644
 21
-803.836202
 31
0.0
  0
INSERT
  5
1F27
100
AcDbEntity
  8
0
  6
BYBLOCK
 62
     0
 48
3.0
100
AcDbBlockReference
  2
_OPEN
 10
740.576644
 20
-531.836202
 30
0.0
 41
20.0
 42
20.0
 43
20.0
 50
90.0
  0
INSERT
  5
1F28
100
AcDbEntity
  8
0
  6
BYBLOCK
 62
     0
 48
3.0
100
AcDbBlockReference
  2
_OPEN
 10
740.576644
 20
-823.836202
 30
0.0
 41
20.0
 42
20.0
 43
20.0
 50
270.0
  0
MTEXT
  5
1F29
100
AcDbEntity
  8
0
  6
BYBLOCK
 62
     0
 48
3.0
100
AcDbMText
 10
728.569842
 20
-686.996356
 30
0.0
 40
20.0
 41
0.0
 71
     5
 72
     1
  1
\A1;292
  7
ED20
 11
0.0
 21
1.0
 31
0.0
  0
POINT
  5
1F2A
100
AcDbEntity
  8
DEFPOINTS
  6
BYBLOCK
 62
     0
 48
3.0
100
AcDbPoint
 10
607.683213
 20
-531.836202
 30
0.0
  0
POINT
  5
1F2B
100
AcDbEntity
  8
DEFPOINTS
  6
BYBLOCK
 62
     0
 48
3.0
100
AcDbPoint
 10
607.683213
 20
-823.836202
 30
0.0
  0
POINT
  5
1F2C
100
AcDbEntity
  8
DEFPOINTS
  6
BYBLOCK
 62
     0
 48
3.0
100
AcDbPoint
 10
740.576644
 20
-823.836202
 30
0.0
  0
ENDBLK
  5
1F2E
100
AcDbEntity
  8
0
 48
3.0
100
AcDbBlockEnd
  0
BLOCK
  5
1F39
100
AcDbEntity
  8
0
 48
3.0
100
AcDbBlockBegin
  2
*D23
 70
     1
 10
0.0
 20
0.0
 30
0.0
  3
*D23
  1

  0
LINE
  5
1F30
100
AcDbEntity
  8
0
  6
BYBLOCK
 62
     0
 48
3.0
100
AcDbLine
 10
838.518337
 20
-827.836202
 30
0.0
 11
838.518337
 21
-879.251626
 31
0.0
  0
LINE
  5
1F31
100
AcDbEntity
  8
0
  6
BYBLOCK
 62
     0
 48
3.0
100
AcDbLine
 10
1198.518337
 20
-827.836202
 30
0.0
 11
1198.518337
 21
-879.251626
 31
0.0
  0
LINE
  5
1F32
100
AcDbEntity
  8
0
  6
BYBLOCK
 62
     0
 48
3.0
100
AcDbLine
 10
858.518337
 20
-878.001626
 30
0.0
 11
1178.518337
 21
-878.001626
 31
0.0
  0
INSERT
  5
1F33
100
AcDbEntity
  8
0
  6
BYBLOCK
 62
     0
 48
3.0
100
AcDbBlockReference
  2
_OPEN
 10
838.518337
 20
-878.001626
 30
0.0
 41
20.0
 42
20.0
 43
20.0
 50
180.0
  0
INSERT
  5
1F34
100
AcDbEntity
  8
0
  6
BYBLOCK
 62
     0
 48
3.0
100
AcDbBlockReference
  2
_OPEN
 10
1198.518337
 20
-878.001626
 30
0.0
 41
20.0
 42
20.0
 43
20.0
  0
MTEXT
  5
1F35
100
AcDbEntity
  8
0
  6
BYBLOCK
 62
     0
 48
3.0
100
AcDbMText
 10
1018.518337
 20
-866.001626
 30
0.0
 40
20.0
 41
0.0
 71
     5
 72
     1
  1
\A1;360
  7
ED20
  0
POINT
  5
1F36
100
AcDbEntity
  8
DEFPOINTS
  6
BYBLOCK
 62
     0
 48
3.0
100
AcDbPoint
 10
838.518337
 20
-826.836202
 30
0.0
  0
POINT
  5
1F37
100
AcDbEntity
  8
DEFPOINTS
  6
BYBLOCK
 62
     0
 48
3.0
100
AcDbPoint
 10
1198.518337
 20
-826.836202
 30
0.0
  0
POINT
  5
1F38
100
AcDbEntity
  8
DEFPOINTS
  6
BYBLOCK
 62
     0
 48
3.0
100
AcDbPoint
 10
1198.518337
 20
-878.001626
 30
0.0
  0
ENDBLK
  5
1F3A
100
AcDbEntity
  8
0
 48
3.0
100
AcDbBlockEnd
  0
BLOCK
  5
1F45
100
AcDbEntity
  8
0
 48
3.0
100
AcDbBlockBegin
  2
*D24
 70
     1
 10
0.0
 20
0.0
 30
0.0
  3
*D24
  1

  0
LINE
  5
1F3C
100
AcDbEntity
  8
0
  6
BYBLOCK
 62
     0
 48
3.0
100
AcDbLine
 10
645.683213
 20
-588.336202
 30
0.0
 11
703.19878
 21
-588.336202
 31
0.0
  0
LINE
  5
1F3D
100
AcDbEntity
  8
0
  6
BYBLOCK
 62
     0
 48
3.0
100
AcDbLine
 10
645.683213
 20
-713.336202
 30
0.0
 11
703.19878
 21
-713.336202
 31
0.0
  0
LINE
  5
1F3E
100
AcDbEntity
  8
0
  6
BYBLOCK
 62
     0
 48
3.0
100
AcDbLine
 10
701.94878
 20
-608.336202
 30
0.0
 11
701.94878
 21
-693.336202
 31
0.0
  0
INSERT
  5
1F3F
100
AcDbEntity
  8
0
  6
BYBLOCK
 62
     0
 48
3.0
100
AcDbBlockReference
  2
_OPEN
 10
701.94878
 20
-588.336202
 30
0.0
 41
20.0
 42
20.0
 43
20.0
 50
90.0
  0
INSERT
  5
1F40
100
AcDbEntity
  8
0
  6
BYBLOCK
 62
     0
 48
3.0
100
AcDbBlockReference
  2
_OPEN
 10
701.94878
 20
-713.336202
 30
0.0
 41
20.0
 42
20.0
 43
20.0
 50
270.0
  0
MTEXT
  5
1F41
100
AcDbEntity
  8
0
  6
BYBLOCK
 62
     0
 48
3.0
100
AcDbMText
 10
689.946811
 20
-650.836202
 30
0.0
 40
20.0
 41
0.0
 71
     5
 72
     1
  1
\A1;\U+2205125
  7
ED20
 11
0.0
 21
1.0
 31
0.0
  0
POINT
  5
1F42
100
AcDbEntity
  8
DEFPOINTS
  6
BYBLOCK
 62
     0
 48
3.0
100
AcDbPoint
 10
644.683213
 20
-588.336202
 30
0.0
  0
POINT
  5
1F43
100
AcDbEntity
  8
DEFPOINTS
  6
BYBLOCK
 62
     0
 48
3.0
100
AcDbPoint
 10
644.683213
 20
-713.336202
 30
0.0
  0
POINT
  5
1F44
100
AcDbEntity
  8
DEFPOINTS
  6
BYBLOCK
 62
     0
 48
3.0
100
AcDbPoint
 10
701.94878
 20
-713.336202
 30
0.0
  0
ENDBLK
  5
1F46
100
AcDbEntity
  8
0
 48
3.0
100
AcDbBlockEnd
  0
BLOCK
  5
1F51
100
AcDbEntity
  8
0
 48
3.0
100
AcDbBlockBegin
  2
*D25
 70
     1
 10
0.0
 20
0.0
 30
0.0
  3
*D25
  1

  0
LINE
  5
1F48
100
AcDbEntity
  8
0
  6
BYBLOCK
 62
     0
 48
3.0
100
AcDbLine
 10
252.683213
 20
-650.836202
 30
0.0
 11
209.598399
 21
-650.836202
 31
0.0
  0
LINE
  5
1F49
100
AcDbEntity
  8
0
  6
BYBLOCK
 62
     0
 48
3.0
100
AcDbLine
 10
289.683213
 20
-823.836202
 30
0.0
 11
209.598399
 21
-823.836202
 31
0.0
  0
LINE
  5
1F4A
100
AcDbEntity
  8
0
  6
BYBLOCK
 62
     0
 48
3.0
100
AcDbLine
 10
210.848399
 20
-670.836202
 30
0.0
 11
210.848399
 21
-803.836202
 31
0.0
  0
INSERT
  5
1F4B
100
AcDbEntity
  8
0
  6
BYBLOCK
 62
     0
 48
3.0
100
AcDbBlockReference
  2
_OPEN
 10
210.848399
 20
-650.836202
 30
0.0
 41
20.0
 42
20.0
 43
20.0
 50
90.0
  0
INSERT
  5
1F4C
100
AcDbEntity
  8
0
  6
BYBLOCK
 62
     0
 48
3.0
100
AcDbBlockReference
  2
_OPEN
 10
210.848399
 20
-823.836202
 30
0.0
 41
20.0
 42
20.0
 43
20.0
 50
270.0
  0
MTEXT
  5
1F4D
100
AcDbEntity
  8
0
  6
BYBLOCK
 62
     0
 48
3.0
100
AcDbMText
 10
198.848399
 20
-737.336202
 30
0.0
 40
20.0
 41
0.0
 71
     5
 72
     1
  1
\A1;173
  7
ED20
 11
0.0
 21
1.0
 31
0.0
  0
POINT
  5
1F4E
100
AcDbEntity
  8
DEFPOINTS
  6
BYBLOCK
 62
     0
 48
3.0
100
AcDbPoint
 10
253.683213
 20
-650.836202
 30
0.0
  0
POINT
  5
1F4F
100
AcDbEntity
  8
DEFPOINTS
  6
BYBLOCK
 62
     0
 48
3.0
100
AcDbPoint
 10
290.683213
 20
-823.836202
 30
0.0
  0
POINT
  5
1F50
100
AcDbEntity
  8
DEFPOINTS
  6
BYBLOCK
 62
     0
 48
3.0
100
AcDbPoint
 10
210.848399
 20
-823.836202
 30
0.0
  0
ENDBLK
  5
1F52
100
AcDbEntity
  8
0
 48
3.0
100
AcDbBlockEnd
  0
BLOCK
  5
1F5D
100
AcDbEntity
  8
0
 48
3.0
100
AcDbBlockBegin
  2
*D26
 70
     1
 10
0.0
 20
0.0
 30
0.0
  3
*D26
  1

  0
LINE
  5
1F54
100
AcDbEntity
  8
0
  6
BYBLOCK
 62
     0
 48
3.0
100
AcDbLine
 10
290.683213
 20
-824.836202
 30
0.0
 11
290.683213
 21
-874.64909
 31
0.0
  0
LINE
  5
1F55
100
AcDbEntity
  8
0
  6
BYBLOCK
 62
     0
 48
3.0
100
AcDbLine
 10
607.683213
 20
-824.836202
 30
0.0
 11
607.683213
 21
-874.64909
 31
0.0
  0
LINE
  5
1F56
100
AcDbEntity
  8
0
  6
BYBLOCK
 62
     0
 48
3.0
100
AcDbLine
 10
310.683213
 20
-873.39909
 30
0.0
 11
587.683213
 21
-873.39909
 31
0.0
  0
INSERT
  5
1F57
100
AcDbEntity
  8
0
  6
BYBLOCK
 62
     0
 48
3.0
100
AcDbBlockReference
  2
_OPEN
 10
290.683213
 20
-873.39909
 30
0.0
 41
20.0
 42
20.0
 43
20.0
 50
180.0
  0
INSERT
  5
1F58
100
AcDbEntity
  8
0
  6
BYBLOCK
 62
     0
 48
3.0
100
AcDbBlockReference
  2
_OPEN
 10
607.683213
 20
-873.39909
 30
0.0
 41
20.0
 42
20.0
 43
20.0
  0
MTEXT
  5
1F59
100
AcDbEntity
  8
0
  6
BYBLOCK
 62
     0
 48
3.0
100
AcDbMText
 10
449.183213
 20
-861.39909
 30
0.0
 40
20.0
 41
0.0
 71
     5
 72
     1
  1
\A1;317
  7
ED20
  0
POINT
  5
1F5A
100
AcDbEntity
  8
DEFPOINTS
  6
BYBLOCK
 62
     0
 48
3.0
100
AcDbPoint
 10
290.683213
 20
-823.836202
 30
0.0
  0
POINT
  5
1F5B
100
AcDbEntity
  8
DEFPOINTS
  6
BYBLOCK
 62
     0
 48
3.0
100
AcDbPoint
 10
607.683213
 20
-823.836202
 30
0.0
  0
POINT
  5
1F5C
100
AcDbEntity
  8
DEFPOINTS
  6
BYBLOCK
 62
     0
 48
3.0
100
AcDbPoint
 10
607.683213
 20
-873.39909
 30
0.0
  0
ENDBLK
  5
1F5E
100
AcDbEntity
  8
0
 48
3.0
100
AcDbBlockEnd
  0
BLOCK
  5
1F6B
100
AcDbEntity
  8
0
 48
3.0
100
AcDbBlockBegin
  2
*D27
 70
     1
 10
0.0
 20
0.0
 30
0.0
  3
*D27
  1

  0
LINE
  5
1F60
100
AcDbEntity
  8
0
  6
BYBLOCK
 62
     0
 48
3.0
100
AcDbLine
 10
253.683213
 20
-714.336202
 30
0.0
 11
253.683213
 21
-874.64909
 31
0.0
  0
LINE
  5
1F61
100
AcDbEntity
  8
0
  6
BYBLOCK
 62
     0
 48
3.0
100
AcDbLine
 10
290.683213
 20
-714.336202
 30
0.0
 11
290.683213
 21
-874.64909
 31
0.0
  0
LINE
  5
1F62
100
AcDbEntity
  8
0
  6
BYBLOCK
 62
     0
 48
3.0
100
AcDbLine
 10
233.683213
 20
-873.39909
 30
0.0
 11
213.683213
 21
-873.39909
 31
0.0
  0
LINE
  5
1F63
100
AcDbEntity
  8
0
  6
BYBLOCK
 62
     0
 48
3.0
100
AcDbLine
 10
310.683213
 20
-873.39909
 30
0.0
 11
330.683213
 21
-873.39909
 31
0.0
  0
LINE
  5
1F64
100
AcDbEntity
  8
0
  6
BYBLOCK
 62
     0
 48
3.0
100
AcDbLine
 10
253.683213
 20
-873.39909
 30
0.0
 11
290.683213
 21
-873.39909
 31
0.0
  0
INSERT
  5
1F65
100
AcDbEntity
  8
0
  6
BYBLOCK
 62
     0
 48
3.0
100
AcDbBlockReference
  2
_OPEN
 10
253.683213
 20
-873.39909
 30
0.0
 41
20.0
 42
20.0
 43
20.0
  0
INSERT
  5
1F66
100
AcDbEntity
  8
0
  6
BYBLOCK
 62
     0
 48
3.0
100
AcDbBlockReference
  2
_OPEN
 10
290.683213
 20
-873.39909
 30
0.0
 41
20.0
 42
20.0
 43
20.0
 50
180.0
  0
MTEXT
  5
1F67
100
AcDbEntity
  8
0
  6
BYBLOCK
 62
     0
 48
3.0
100
AcDbMText
 10
272.183213
 20
-861.39909
 30
0.0
 40
20.0
 41
0.0
 71
     5
 72
     1
  1
\A1;37
  7
ED20
  0
POINT
  5
1F68
100
AcDbEntity
  8
DEFPOINTS
  6
BYBLOCK
 62
     0
 48
3.0
100
AcDbPoint
 10
253.683213
 20
-713.336202
 30
0.0
  0
POINT
  5
1F69
100
AcDbEntity
  8
DEFPOINTS
  6
BYBLOCK
 62
     0
 48
3.0
100
AcDbPoint
 10
290.683213
 20
-713.336202
 30
0.0
  0
POINT
  5
1F6A
100
AcDbEntity
  8
DEFPOINTS
  6
BYBLOCK
 62
     0
 48
3.0
100
AcDbPoint
 10
290.683213
 20
-873.39909
 30
0.0
  0
ENDBLK
  5
1F6C
100
AcDbEntity
  8
0
 48
3.0
100
AcDbBlockEnd
  0
BLOCK
  5
1F79
100
AcDbEntity
  8
0
 48
3.0
100
AcDbBlockBegin
  2
*D28
 70
     1
 10
0.0
 20
0.0
 30
0.0
  3
*D28
  1

  0
LINE
  5
1F6E
100
AcDbEntity
  8
0
  6
BYBLOCK
 62
     0
 48
3.0
100
AcDbLine
 10
607.683213
 20
-824.836202
 30
0.0
 11
607.683213
 21
-874.64909
 31
0.0
  0
LINE
  5
1F6F
100
AcDbEntity
  8
0
  6
BYBLOCK
 62
     0
 48
3.0
100
AcDbLine
 10
644.683213
 20
-714.336202
 30
0.0
 11
644.683213
 21
-874.64909
 31
0.0
  0
LINE
  5
1F70
100
AcDbEntity
  8
0
  6
BYBLOCK
 62
     0
 48
3.0
100
AcDbLine
 10
587.683213
 20
-873.39909
 30
0.0
 11
567.683213
 21
-873.39909
 31
0.0
  0
LINE
  5
1F71
100
AcDbEntity
  8
0
  6
BYBLOCK
 62
     0
 48
3.0
100
AcDbLine
 10
664.683213
 20
-873.39909
 30
0.0
 11
684.683213
 21
-873.39909
 31
0.0
  0
LINE
  5
1F72
100
AcDbEntity
  8
0
  6
BYBLOCK
 62
     0
 48
3.0
100
AcDbLine
 10
607.683213
 20
-873.39909
 30
0.0
 11
644.683213
 21
-873.39909
 31
0.0
  0
INSERT
  5
1F73
100
AcDbEntity
  8
0
  6
BYBLOCK
 62
     0
 48
3.0
100
AcDbBlockReference
  2
_OPEN
 10
607.683213
 20
-873.39909
 30
0.0
 41
20.0
 42
20.0
 43
20.0
  0
INSERT
  5
1F74
100
AcDbEntity
  8
0
  6
BYBLOCK
 62
     0
 48
3.0
100
AcDbBlockReference
  2
_OPEN
 10
644.683213
 20
-873.39909
 30
0.0
 41
20.0
 42
20.0
 43
20.0
 50
180.0
  0
MTEXT
  5
1F75
100
AcDbEntity
  8
0
  6
BYBLOCK
 62
     0
 48
3.0
100
AcDbMText
 10
626.183213
 20
-861.39909
 30
0.0
 40
20.0
 41
0.0
 71
     5
 72
     1
  1
\A1;37
  7
ED20
  0
POINT
  5
1F76
100
AcDbEntity
  8
DEFPOINTS
  6
BYBLOCK
 62
     0
 48
3.0
100
AcDbPoint
 10
607.683213
 20
-823.836202
 30
0.0
  0
POINT
  5
1F77
100
AcDbEntity
  8
DEFPOINTS
  6
BYBLOCK
 62
     0
 48
3.0
100
AcDbPoint
 10
644.683213
 20
-713.336202
 30
0.0
  0
POINT
  5
1F78
100
AcDbEntity
  8
DEFPOINTS
  6
BYBLOCK
 62
     0
 48
3.0
100
AcDbPoint
 10
644.683213
 20
-873.39909
 30
0.0
  0
ENDBLK
  5
1F7A
100
AcDbEntity
  8
0
 48
3.0
100
AcDbBlockEnd
  0
BLOCK
  5
1F85
100
AcDbEntity
  8
0
 48
3.0
100
AcDbBlockBegin
  2
*D29
 70
     1
 10
0.0
 20
0.0
 30
0.0
  3
*D29
  1

  0
LINE
  5
1F7C
100
AcDbEntity
  8
0
  6
BYBLOCK
 62
     0
 48
3.0
100
AcDbLine
 10
609.683213
 20
-530.836202
 30
0.0
 11
609.683213
 21
-497.042351
 31
0.0
  0
LINE
  5
1F7D
100
AcDbEntity
  8
0
  6
BYBLOCK
 62
     0
 48
3.0
100
AcDbLine
 10
288.683213
 20
-530.836202
 30
0.0
 11
288.683213
 21
-497.042351
 31
0.0
  0
LINE
  5
1F7E
100
AcDbEntity
  8
0
  6
BYBLOCK
 62
     0
 48
3.0
100
AcDbLine
 10
589.683213
 20
-498.292351
 30
0.0
 11
308.683213
 21
-498.292351
 31
0.0
  0
INSERT
  5
1F7F
100
AcDbEntity
  8
0
  6
BYBLOCK
 62
     0
 48
3.0
100
AcDbBlockReference
  2
_OPEN
 10
609.683213
 20
-498.292351
 30
0.0
 41
20.0
 42
20.0
 43
20.0
  0
INSERT
  5
1F80
100
AcDbEntity
  8
0
  6
BYBLOCK
 62
     0
 48
3.0
100
AcDbBlockReference
  2
_OPEN
 10
288.683213
 20
-498.292351
 30
0.0
 41
20.0
 42
20.0
 43
20.0
 50
180.0
  0
MTEXT
  5
1F81
100
AcDbEntity
  8
0
  6
BYBLOCK
 62
     0
 48
3.0
100
AcDbMText
 10
449.183213
 20
-486.290383
 30
0.0
 40
20.0
 41
0.0
 71
     5
 72
     1
  1
\A1;321
  7
ED20
  0
POINT
  5
1F82
100
AcDbEntity
  8
DEFPOINTS
  6
BYBLOCK
 62
     0
 48
3.0
100
AcDbPoint
 10
609.683213
 20
-531.836202
 30
0.0
  0
POINT
  5
1F83
100
AcDbEntity
  8
DEFPOINTS
  6
BYBLOCK
 62
     0
 48
3.0
100
AcDbPoint
 10
288.683213
 20
-531.836202
 30
0.0
  0
POINT
  5
1F84
100
AcDbEntity
  8
DEFPOINTS
  6
BYBLOCK
 62
     0
 48
3.0
100
AcDbPoint
 10
288.683213
 20
-498.292351
 30
0.0
  0
ENDBLK
  5
1F86
100
AcDbEntity
  8
0
 48
3.0
100
AcDbBlockEnd
  0
BLOCK
  5
1F91
100
AcDbEntity
  8
0
 48
3.0
100
AcDbBlockBegin
  2
*D30
 70
     1
 10
0.0
 20
0.0
 30
0.0
  3
*D30
  1

  0
LINE
  5
1F88
100
AcDbEntity
  8
0
  6
BYBLOCK
 62
     0
 48
3.0
100
AcDbLine
 10
836.518337
 20
-530.836202
 30
0.0
 11
836.518337
 21
-475.398395
 31
0.0
  0
LINE
  5
1F89
100
AcDbEntity
  8
0
  6
BYBLOCK
 62
     0
 48
3.0
100
AcDbLine
 10
1200.518337
 20
-530.836202
 30
0.0
 11
1200.518337
 21
-475.398395
 31
0.0
  0
LINE
  5
1F8A
100
AcDbEntity
  8
0
  6
BYBLOCK
 62
     0
 48
3.0
100
AcDbLine
 10
856.518337
 20
-476.648395
 30
0.0
 11
1180.518337
 21
-476.648395
 31
0.0
  0
INSERT
  5
1F8B
100
AcDbEntity
  8
0
  6
BYBLOCK
 62
     0
 48
3.0
100
AcDbBlockReference
  2
_OPEN
 10
836.518337
 20
-476.648395
 30
0.0
 41
20.0
 42
20.0
 43
20.0
 50
180.0
  0
INSERT
  5
1F8C
100
AcDbEntity
  8
0
  6
BYBLOCK
 62
     0
 48
3.0
100
AcDbBlockReference
  2
_OPEN
 10
1200.518337
 20
-476.648395
 30
0.0
 41
20.0
 42
20.0
 43
20.0
  0
MTEXT
  5
1F8D
100
AcDbEntity
  8
0
  6
BYBLOCK
 62
     0
 48
3.0
100
AcDbMText
 10
1008.763695
 20
-464.648395
 30
0.0
 40
20.0
 41
0.0
 71
     5
 72
     1
  1
\A1;364
  7
ED20
  0
POINT
  5
1F8E
100
AcDbEntity
  8
DEFPOINTS
  6
BYBLOCK
 62
     0
 48
3.0
100
AcDbPoint
 10
836.518337
 20
-531.836202
 30
0.0
  0
POINT
  5
1F8F
100
AcDbEntity
  8
DEFPOINTS
  6
BYBLOCK
 62
     0
 48
3.0
100
AcDbPoint
 10
1200.518337
 20
-531.836202
 30
0.0
  0
POINT
  5
1F90
100
AcDbEntity
  8
DEFPOINTS
  6
BYBLOCK
 62
     0
 48
3.0
100
AcDbPoint
 10
1200.518337
 20
-476.648395
 30
0.0
  0
ENDBLK
  5
1F92
100
AcDbEntity
  8
0
 48
3.0
100
AcDbBlockEnd
  0
BLOCK
  5
1F9D
100
AcDbEntity
  8
0
 48
3.0
100
AcDbBlockBegin
  2
*D31
 70
     1
 10
0.0
 20
0.0
 30
0.0
  3
*D31
  1

  0
LINE
  5
1F94
100
AcDbEntity
  8
0
  6
BYBLOCK
 62
     0
 48
3.0
100
AcDbLine
 10
287.683213
 20
-231.836202
 30
0.0
 11
239.539558
 21
-231.836202
 31
0.0
  0
LINE
  5
1F95
100
AcDbEntity
  8
0
  6
BYBLOCK
 62
     0
 48
3.0
100
AcDbLine
 10
287.683213
 20
-531.836202
 30
0.0
 11
239.539558
 21
-531.836202
 31
0.0
  0
LINE
  5
1F96
100
AcDbEntity
  8
0
  6
BYBLOCK
 62
     0
 48
3.0
100
AcDbLine
 10
240.789558
 20
-251.836202
 30
0.0
 11
240.789558
 21
-511.836202
 31
0.0
  0
INSERT
  5
1F97
100
AcDbEntity
  8
0
  6
BYBLOCK
 62
     0
 48
3.0
100
AcDbBlockReference
  2
_OPEN
 10
240.789558
 20
-231.836202
 30
0.0
 41
20.0
 42
20.0
 43
20.0
 50
90.0
  0
INSERT
  5
1F98
100
AcDbEntity
  8
0
  6
BYBLOCK
 62
     0
 48
3.0
100
AcDbBlockReference
  2
_OPEN
 10
240.789558
 20
-531.836202
 30
0.0
 41
20.0
 42
20.0
 43
20.0
 50
270.0
  0
MTEXT
  5
1F99
100
AcDbEntity
  8
0
  6
BYBLOCK
 62
     0
 48
3.0
100
AcDbMText
 10
228.789558
 20
-381.836202
 30
0.0
 40
20.0
 41
0.0
 71
     5
 72
     1
  1
\A1;300
  7
ED20
 11
0.0
 21
1.0
 31
0.0
  0
POINT
  5
1F9A
100
AcDbEntity
  8
DEFPOINTS
  6
BYBLOCK
 62
     0
 48
3.0
100
AcDbPoint
 10
288.683213
 20
-231.836202
 30
0.0
  0
POINT
  5
1F9B
100
AcDbEntity
  8
DEFPOINTS
  6
BYBLOCK
 62
     0
 48
3.0
100
AcDbPoint
 10
288.683213
 20
-531.836202
 30
0.0
  0
POINT
  5
1F9C
100
AcDbEntity
  8
DEFPOINTS
  6
BYBLOCK
 62
     0
 48
3.0
100
AcDbPoint
 10
240.789558
 20
-531.836202
 30
0.0
  0
ENDBLK
  5
1F9E
100
AcDbEntity
  8
0
 48
3.0
100
AcDbBlockEnd
  0
BLOCK
  5
207D
100
AcDbEntity
  8
0
 62
    41
 48
3.0
100
AcDbBlockBegin
  2
EDRI-125
 70
     0
 10
0.0
 20
0.0
 30
0.0
  3
EDRI-125
  1

  0
LINE
  5
1FA0
100
AcDbEntity
  8
V0-VYPLNE
 48
3.0
100
AcDbLine
 10
300.875946
 20
-637.050618
 30
0.0
 11
389.97147
 21
-637.050618
 31
0.0
  0
LINE
  5
1FA1
100
AcDbEntity
  8
V0-VYPLNE
 48
3.0
100
AcDbLine
 10
908.863475
 20
-650.836202
 30
0.0
 11
1106.003044
 21
-650.836202
 31
0.0
  0
LINE
  5
1FA2
100
AcDbEntity
  8
V0-OBRYS
  6
CONTINUOUS
 62
    90
 48
3.0
100
AcDbLine
 10
290.683213
 20
-551.836202
 30
0.0
 11
290.683213
 21
-823.836202
 31
0.0
  0
LINE
  5
1FA3
100
AcDbEntity
  8
V0-OBRYS
  6
CONTINUOUS
 62
    90
 48
3.0
100
AcDbLine
 10
288.683213
 20
-531.836202
 30
0.0
 11
609.683213
 21
-531.836202
 31
0.0
  0
LINE
  5
1FA4
100
AcDbEntity
  8
V0-OBRYS
  6
CONTINUOUS
 62
    90
 48
3.0
100
AcDbLine
 10
290.683213
 20
-823.836202
 30
0.0
 11
607.683213
 21
-823.836202
 31
0.0
  0
LINE
  5
1FA5
100
AcDbEntity
  8
V0-OBRYS
  6
CONTINUOUS
 62
    90
 48
3.0
100
AcDbLine
 10
607.683213
 20
-551.836202
 30
0.0
 11
607.683213
 21
-823.836202
 31
0.0
  0
LINE
  5
1FA6
100
AcDbEntity
  8
V0-OBRYS
  6
CONTINUOUS
 62
    90
 48
3.0
100
AcDbLine
 10
838.518337
 20
-551.836202
 30
0.0
 11
838.518337
 21
-826.836202
 31
0.0
  0
LINE
  5
1FA7
100
AcDbEntity
  8
V0-OBRYS
  6
CONTINUOUS
 62
    90
 48
3.0
100
AcDbLine
 10
1198.518337
 20
-551.836202
 30
0.0
 11
1198.518337
 21
-826.836202
 31
0.0
  0
LINE
  5
1FA8
100
AcDbEntity
  8
V0-OBRYS
  6
CONTINUOUS
 62
    90
 48
3.0
100
AcDbLine
 10
836.518337
 20
-531.836202
 30
0.0
 11
1200.518337
 21
-531.836202
 31
0.0
  0
LINE
  5
1FA9
100
AcDbEntity
  8
V0-OBRYS
 48
3.0
100
AcDbLine
 10
253.683213
 20
-713.336202
 30
0.0
 11
253.683213
 21
-588.336202
 31
0.0
  0
LINE
  5
1FAA
100
AcDbEntity
  8
V0-OBRYS
 48
3.0
100
AcDbLine
 10
253.683213
 20
-713.336202
 30
0.0
 11
263.683213
 21
-713.336202
 31
0.0
  0
LINE
  5
1FAB
100
AcDbEntity
  8
V0-OBRYS
 48
3.0
100
AcDbLine
 10
253.683213
 20
-588.336202
 30
0.0
 11
263.683213
 21
-588.336202
 31
0.0
  0
LINE
  5
1FAC
100
AcDbEntity
  8
V0-OBRYS
 48
3.0
100
AcDbLine
 10
263.683213
 20
-588.336202
 30
0.0
 11
263.683213
 21
-713.336202
 31
0.0
  0
LINE
  5
1FAD
100
AcDbEntity
  8
V0-OBRYS
 48
3.0
100
AcDbLine
 10
273.683213
 20
-713.336202
 30
0.0
 11
273.683213
 21
-588.336202
 31
0.0
  0
ARC
  5
1FAE
100
AcDbEntity
  8
V0-OBRYS
 48
3.0
100
AcDbCircle
 10
268.683213
 20
-588.336202
 30
0.0
 40
5.0
100
AcDbArc
 50
0.0
 51
180.0
  0
ARC
  5
1FAF
100
AcDbEntity
  8
V0-OBRYS
 48
3.0
100
AcDbCircle
 10
268.683213
 20
-713.336202
 30
0.0
 40
5.0
100
AcDbArc
 50
180.0
 51
0.0
  0
LINE
  5
1FB0
100
AcDbEntity
  8
V0-OBRYS
 48
3.0
100
AcDbLine
 10
273.683213
 20
-588.336202
 30
0.0
 11
290.683213
 21
-588.336202
 31
0.0
  0
LINE
  5
1FB1
100
AcDbEntity
  8
V0-OBRYS
 48
3.0
100
AcDbLine
 10
273.683213
 20
-713.336202
 30
0.0
 11
290.683213
 21
-713.336202
 31
0.0
  0
LINE
  5
1FB2
100
AcDbEntity
  8
V0-OBRYS
 48
3.0
100
AcDbLine
 10
624.683213
 20
-713.336202
 30
0.0
 11
624.683213
 21
-588.336202
 31
0.0
  0
LINE
  5
1FB3
100
AcDbEntity
  8
V0-OBRYS
 48
3.0
100
AcDbLine
 10
634.683213
 20
-588.336202
 30
0.0
 11
634.683213
 21
-713.336202
 31
0.0
  0
LINE
  5
1FB4
100
AcDbEntity
  8
V0-OBRYS
 48
3.0
100
AcDbLine
 10
644.683213
 20
-713.336202
 30
0.0
 11
644.683213
 21
-588.336202
 31
0.0
  0
LINE
  5
1FB5
100
AcDbEntity
  8
V0-OBRYS
 48
3.0
100
AcDbLine
 10
624.683213
 20
-713.336202
 30
0.0
 11
607.683213
 21
-713.336202
 31
0.0
  0
LINE
  5
1FB6
100
AcDbEntity
  8
V0-OBRYS
 48
3.0
100
AcDbLine
 10
644.683213
 20
-713.336202
 30
0.0
 11
634.683213
 21
-713.336202
 31
0.0
  0
ARC
  5
1FB7
100
AcDbEntity
  8
V0-OBRYS
 48
3.0
100
AcDbCircle
 10
629.683213
 20
-713.336202
 30
0.0
 40
5.0
100
AcDbArc
 50
180.0
 51
360.0
  0
LINE
  5
1FB8
100
AcDbEntity
  8
V0-OBRYS
 48
3.0
100
AcDbLine
 10
624.683213
 20
-588.336202
 30
0.0
 11
607.683213
 21
-588.336202
 31
0.0
  0
LINE
  5
1FB9
100
AcDbEntity
  8
V0-OBRYS
 48
3.0
100
AcDbLine
 10
644.683213
 20
-588.336202
 30
0.0
 11
634.683213
 21
-588.336202
 31
0.0
  0
ARC
  5
1FBA
100
AcDbEntity
  8
V0-OBRYS
 48
3.0
100
AcDbCircle
 10
629.683213
 20
-588.336202
 30
0.0
 40
5.0
100
AcDbArc
 50
360.0
 51
180.0
  0
LINE
  5
1FBB
100
AcDbEntity
  8
V0-VYPLNE
 48
3.0
100
AcDbLine
 10
231.852871
 20
-1199.568518
 30
0.0
 11
648.935856
 21
-1199.568518
 31
0.0
  0
LINE
  5
1FBC
100
AcDbEntity
  8
V0-OBRYS
 48
3.0
100
AcDbLine
 10
273.683213
 20
-1262.068518
 30
0.0
 11
273.683213
 21
-1137.068518
 31
0.0
  0
LINE
  5
1FBD
100
AcDbEntity
  8
V0-OBRYS
 48
3.0
100
AcDbLine
 10
263.683213
 20
-1137.068518
 30
0.0
 11
263.683213
 21
-1262.068518
 31
0.0
  0
LINE
  5
1FBE
100
AcDbEntity
  8
V0-OBRYS
 48
3.0
100
AcDbLine
 10
253.683213
 20
-1262.068518
 30
0.0
 11
253.683213
 21
-1137.068518
 31
0.0
  0
LINE
  5
1FBF
100
AcDbEntity
  8
V0-OBRYS
 48
3.0
100
AcDbLine
 10
273.683213
 20
-1262.068518
 30
0.0
 11
288.683213
 21
-1262.068518
 31
0.0
  0
LINE
  5
1FC0
100
AcDbEntity
  8
V0-OBRYS
 48
3.0
100
AcDbLine
 10
253.683213
 20
-1262.068518
 30
0.0
 11
263.683213
 21
-1262.068518
 31
0.0
  0
ARC
  5
1FC1
100
AcDbEntity
  8
V0-OBRYS
 48
3.0
100
AcDbCircle
 10
268.683213
 20
-1262.068518
 30
0.0
 40
5.0
100
AcDbArc
 50
180.0
 51
0.0
  0
LINE
  5
1FC2
100
AcDbEntity
  8
V0-OBRYS
 48
3.0
100
AcDbLine
 10
273.683213
 20
-1137.068518
 30
0.0
 11
288.683213
 21
-1137.068518
 31
0.0
  0
LINE
  5
1FC3
100
AcDbEntity
  8
V0-OBRYS
 48
3.0
100
AcDbLine
 10
253.683213
 20
-1137.068518
 30
0.0
 11
263.683213
 21
-1137.068518
 31
0.0
  0
ARC
  5
1FC4
100
AcDbEntity
  8
V0-OBRYS
 48
3.0
100
AcDbCircle
 10
268.683213
 20
-1137.068518
 30
0.0
 40
5.0
100
AcDbArc
 50
0.0
 51
180.0
  0
LINE
  5
1FC5
100
AcDbEntity
  8
V0-OBRYS
 48
3.0
100
AcDbLine
 10
642.683213
 20
-1262.068518
 30
0.0
 11
642.683213
 21
-1137.068518
 31
0.0
  0
LINE
  5
1FC6
100
AcDbEntity
  8
V0-OBRYS
 48
3.0
100
AcDbLine
 10
632.683213
 20
-1137.068518
 30
0.0
 11
632.683213
 21
-1262.068518
 31
0.0
  0
LINE
  5
1FC7
100
AcDbEntity
  8
V0-OBRYS
 48
3.0
100
AcDbLine
 10
622.683213
 20
-1262.068518
 30
0.0
 11
622.683213
 21
-1137.068518
 31
0.0
  0
LINE
  5
1FC8
100
AcDbEntity
  8
V0-OBRYS
 48
3.0
100
AcDbLine
 10
622.683213
 20
-1262.068518
 30
0.0
 11
609.683213
 21
-1262.068518
 31
0.0
  0
ARC
  5
1FC9
100
AcDbEntity
  8
V0-OBRYS
 48
3.0
100
AcDbCircle
 10
627.683213
 20
-1262.068518
 30
0.0
 40
5.0
100
AcDbArc
 50
180.0
 51
360.0
  0
LINE
  5
1FCA
100
AcDbEntity
  8
V0-OBRYS
 48
3.0
100
AcDbLine
 10
642.683213
 20
-1262.068518
 30
0.0
 11
632.683213
 21
-1262.068518
 31
0.0
  0
LINE
  5
1FCB
100
AcDbEntity
  8
V0-OBRYS
 48
3.0
100
AcDbLine
 10
622.683213
 20
-1137.068518
 30
0.0
 11
609.683213
 21
-1137.068518
 31
0.0
  0
ARC
  5
1FCC
100
AcDbEntity
  8
V0-OBRYS
 48
3.0
100
AcDbCircle
 10
627.683213
 20
-1137.068518
 30
0.0
 40
5.0
100
AcDbArc
 50
360.0
 51
180.0
  0
LINE
  5
1FCD
100
AcDbEntity
  8
V0-OBRYS
 48
3.0
100
AcDbLine
 10
642.683213
 20
-1137.068518
 30
0.0
 11
632.683213
 21
-1137.068518
 31
0.0
  0
DIMENSION
  5
1FCE
100
AcDbEntity
  8
V0-VYPLNE
  6
CONTINUOUS
 62
    41
 48
3.0
100
AcDbDimension
  2
*D21
 10
644.683213
 20
-919.424458
 30
0.0
 11
446.304902
 21
-919.424458
 31
0.0
 70
   160
  3
ED20
100
AcDbAlignedDimension
 13
253.683213
 23
-713.336202
 33
0.0
 14
644.683213
 24
-713.336202
 34
0.0
100
AcDbRotatedDimension
1001
ACAD
1000
DSTYLE
1002
{
1070
    40
1040
1.0
1002
}
  0
DIMENSION
  5
1FCF
100
AcDbEntity
  8
V0-VYPLNE
  6
CONTINUOUS
 62
    41
 48
3.0
100
AcDbDimension
  2
*D22
 10
740.576644
 20
-823.836202
 30
0.0
 11
740.576644
 21
-686.996356
 31
0.0
 70
   160
  3
ED20
100
AcDbAlignedDimension
 13
607.683213
 23
-531.836202
 33
0.0
 14
607.683213
 24
-823.836202
 34
0.0
 50
90.0
100
AcDbRotatedDimension
1001
ACAD
1000
DSTYLE
1002
{
1070
    40
1040
1.0
1002
}
  0
DIMENSION
  5
1FD0
100
AcDbEntity
  8
V0-VYPLNE
  6
CONTINUOUS
 62
    41
 48
3.0
100
AcDbDimension
  2
*D23
 10
1198.518337
 20
-878.001626
 30
0.0
 11
1018.518337
 21
-878.001626
 31
0.0
 70
   160
  3
ED20
100
AcDbAlignedDimension
 13
838.518337
 23
-826.836202
 33
0.0
 14
1198.518337
 24
-826.836202
 34
0.0
100
AcDbRotatedDimension
1001
ACAD
1000
DSTYLE
1002
{
1070
    40
1040
1.0
1002
}
  0
MTEXT
  5
1FD1
100
AcDbEntity
  8
V0-ZBYTEK
100
AcDbMText
 10
1025.019765
 20
-1260.099802
 30
0.0
 40
22.5
 41
353.4649
 71
     5
 72
     5
  1
ZVUKOVE  IZOLOVANY
  7
ED10
  0
MTEXT
  5
1FD2
100
AcDbEntity
  8
V0-ZBYTEK
 62
    51
100
AcDbMText
 10
1028.606069
 20
-1191.914947
 30
0.0
 40
31.5
 41
892.3329
 71
     5
 72
     5
  1
RADIALNI VENTILATOR
  7
ED10
  0
MTEXT
  5
1FD3
100
AcDbEntity
  8
V0-NAZVY
100
AcDbMText
 10
1014.16971
 20
-1109.462536
 30
0.0
 40
56.25
 41
462.6911
 71
     5
 72
     5
  1
EDRI-125
  7
ED10
  0
MTEXT
  5
1FD4
100
AcDbEntity
  8
V0-NAZVY
100
AcDbMText
 10
1017.586292
 20
-788.312664
 30
0.0
 40
33.75
 41
277.6147
 71
     5
 72
     5
  1
EDRI-125
  7
ED10
  0
LINE
  5
1FD5
100
AcDbEntity
  8
V0-VYPLNE
  6
DASHDOT
 62
    63
 48
3.0
100
AcDbLine
 10
1018.518337
 20
-577.755941
 30
0.0
 11
1018.518337
 21
-729.094645
 31
0.0
  0
CIRCLE
  5
1FD6
100
AcDbEntity
  8
V0-OBRYS
  6
CONTINUOUS
 62
    90
 48
3.0
100
AcDbCircle
 10
1018.518337
 20
-650.836202
 30
0.0
 40
62.4
  0
CIRCLE
  5
1FD7
100
AcDbEntity
  8
V0-OBRYS
  6
CONTINUOUS
 62
    90
 48
3.0
100
AcDbCircle
 10
1018.518337
 20
-650.836202
 30
0.0
 40
67.699793
  0
DIMENSION
  5
1FD8
100
AcDbEntity
  8
V0-VYPLNE
  6
CONTINUOUS
 62
    41
 48
3.0
100
AcDbDimension
  2
*D24
 10
701.94878
 20
-713.336202
 30
0.0
 11
689.946811
 21
-650.836202
 31
0.0
 70
    32
  1
%%c<>
  3
ED20
100
AcDbAlignedDimension
 13
644.683213
 23
-588.336202
 33
0.0
 14
644.683213
 24
-713.336202
 34
0.0
 50
90.0
100
AcDbRotatedDimension
1001
ACAD
1000
DSTYLE
1002
{
1070
    40
1040
1.0
1002
}
  0
MTEXT
  5
1FD9
100
AcDbEntity
  8
V0-NAZVY
100
AcDbMText
 10
387.937105
 20
-580.035896
 30
0.0
 40
29.7
 41
244.3009
 71
     5
 72
     5
  1
EDRI-125
  7
ED10
  0
MTEXT
  5
1FDA
100
AcDbEntity
  8
V0-NAZVY
100
AcDbMText
 10
443.594288
 20
-1137.923426
 30
0.0
 40
33.75
 41
277.6147
 71
     5
 72
     5
  1
EDRI-125
  7
ED10
  0
POINT
  5
1FDB
100
AcDbEntity
  8
V0-VYPLNE
  6
CONTINUOUS
 62
    41
 48
3.0
100
AcDbPoint
 10
253.683213
 20
-650.836202
 30
0.0
  0
POINT
  5
1FDC
100
AcDbEntity
  8
V0-VYPLNE
  6
CONTINUOUS
 62
    41
 48
3.0
100
AcDbPoint
 10
644.683213
 20
-650.836202
 30
0.0
  0
POINT
  5
1FDD
100
AcDbEntity
  8
V0-VYPLNE
  6
CONTINUOUS
 62
    41
 48
3.0
100
AcDbPoint
 10
253.683213
 20
-1199.568518
 30
0.0
  0
POINT
  5
1FDE
100
AcDbEntity
  8
V0-VYPLNE
  6
CONTINUOUS
 62
    41
 48
3.0
100
AcDbPoint
 10
642.683213
 20
-1199.568518
 30
0.0
  0
DIMENSION
  5
1FDF
100
AcDbEntity
  8
V0-VYPLNE
  6
CONTINUOUS
 62
    41
 48
3.0
100
AcDbDimension
  2
*D25
 10
210.848399
 20
-823.836202
 30
0.0
 11
210.848399
 21
-737.336202
 31
0.0
 70
   160
  3
ED20
100
AcDbAlignedDimension
 13
253.683213
 23
-650.836202
 33
0.0
 14
290.683213
 24
-823.836202
 34
0.0
 50
90.0
100
AcDbRotatedDimension
1001
ACAD
1000
DSTYLE
1002
{
1070
    40
1040
1.0
1002
}
  0
DIMENSION
  5
1FE0
100
AcDbEntity
  8
V0-VYPLNE
  6
CONTINUOUS
 62
    41
 48
3.0
100
AcDbDimension
  2
*D26
 10
607.683213
 20
-873.39909
 30
0.0
 11
449.183213
 21
-873.39909
 31
0.0
 70
   160
  3
ED20
100
AcDbAlignedDimension
 13
290.683213
 23
-823.836202
 33
0.0
 14
607.683213
 24
-823.836202
 34
0.0
100
AcDbRotatedDimension
1001
ACAD
1000
DSTYLE
1002
{
1070
    40
1040
1.0
1002
}
  0
DIMENSION
  5
1FE1
100
AcDbEntity
  8
V0-VYPLNE
  6
CONTINUOUS
 62
    41
 48
3.0
100
AcDbDimension
  2
*D27
 10
290.683213
 20
-873.39909
 30
0.0
 11
272.183213
 21
-873.39909
 31
0.0
 70
   160
  3
ED20
100
AcDbAlignedDimension
 13
253.683213
 23
-713.336202
 33
0.0
 14
290.683213
 24
-713.336202
 34
0.0
100
AcDbRotatedDimension
1001
ACAD
1000
DSTYLE
1002
{
1070
    40
1040
1.0
1002
}
  0
DIMENSION
  5
1FE2
100
AcDbEntity
  8
V0-VYPLNE
  6
CONTINUOUS
 62
    41
 48
3.0
100
AcDbDimension
  2
*D28
 10
644.683213
 20
-873.39909
 30
0.0
 11
626.183213
 21
-873.39909
 31
0.0
 70
   160
  3
ED20
100
AcDbAlignedDimension
 13
607.683213
 23
-823.836202
 33
0.0
 14
644.683213
 24
-713.336202
 34
0.0
100
AcDbRotatedDimension
1001
ACAD
1000
DSTYLE
1002
{
1070
    40
1040
1.0
1002
}
  0
LINE
  5
1FE3
100
AcDbEntity
  8
V0-OBRYS
  6
CONTINUOUS
 62
    90
 48
3.0
100
AcDbLine
 10
288.683213
 20
-531.836202
 30
0.0
 11
288.683213
 21
-551.836202
 31
0.0
  0
LINE
  5
1FE4
100
AcDbEntity
  8
V0-OBRYS
  6
CONTINUOUS
 62
    90
 48
3.0
100
AcDbLine
 10
288.683213
 20
-551.836202
 30
0.0
 11
609.683213
 21
-551.836202
 31
0.0
  0
LINE
  5
1FE5
100
AcDbEntity
  8
V0-OBRYS
  6
CONTINUOUS
 62
    90
 48
3.0
100
AcDbLine
 10
609.683213
 20
-551.836202
 30
0.0
 11
609.683213
 21
-531.836202
 31
0.0
  0
LINE
  5
1FE6
100
AcDbEntity
  8
V0-OBRYS
  6
CONTINUOUS
 62
    90
 48
3.0
100
AcDbLine
 10
1198.518337
 20
-826.836202
 30
0.0
 11
837.268337
 21
-826.836202
 31
0.0
  0
LINE
  5
1FE7
100
AcDbEntity
  8
V0-OBRYS
  6
CONTINUOUS
 62
    90
 48
3.0
100
AcDbLine
 10
1200.518337
 20
-531.836202
 30
0.0
 11
1200.518337
 21
-551.836202
 31
0.0
  0
LINE
  5
1FE8
100
AcDbEntity
  8
V0-OBRYS
  6
CONTINUOUS
 62
    90
 48
3.0
100
AcDbLine
 10
836.518337
 20
-531.836202
 30
0.0
 11
836.518337
 21
-551.836202
 31
0.0
  0
LINE
  5
1FE9
100
AcDbEntity
  8
V0-OBRYS
  6
CONTINUOUS
 62
    90
 48
3.0
100
AcDbLine
 10
836.518337
 20
-551.836202
 30
0.0
 11
876.642953
 21
-551.836202
 31
0.0
  0
LINE
  5
1FEA
100
AcDbEntity
  8
V0-OBRYS
  6
CONTINUOUS
 62
    90
 48
3.0
100
AcDbLine
 10
962.475087
 20
-624.831584
 30
0.0
 11
1018.518337
 21
-624.831584
 31
0.0
  0
LINE
  5
1FEB
100
AcDbEntity
  8
V0-OBRYS
  6
CONTINUOUS
 62
    90
 48
3.0
100
AcDbLine
 10
976.4859
 20
-683.7408
 30
0.0
 11
976.4859
 21
-645.194154
 31
0.0
  0
LINE
  5
1FEC
100
AcDbEntity
  8
V0-OBRYS
  6
CONTINUOUS
 62
    90
 48
3.0
100
AcDbLine
 10
976.4859
 20
-645.194154
 30
0.0
 11
1018.518337
 21
-645.194154
 31
0.0
  0
LINE
  5
1FED
100
AcDbEntity
  8
V0-OBRYS
  6
CONTINUOUS
 62
    90
 48
3.0
100
AcDbLine
 10
876.525877
 20
-536.105034
 30
0.0
 11
876.525877
 21
-562.018939
 31
0.0
  0
LINE
  5
1FEE
100
AcDbEntity
  8
V0-OBRYS
  6
CONTINUOUS
 62
    90
 48
3.0
100
AcDbLine
 10
876.525877
 20
-562.018939
 30
0.0
 11
901.740733
 21
-562.018939
 31
0.0
  0
LINE
  5
1FEF
100
AcDbEntity
  8
V0-OBRYS
  6
CONTINUOUS
 62
    90
 48
3.0
100
AcDbLine
 10
901.740733
 20
-562.018939
 30
0.0
 11
901.740733
 21
-536.105034
 31
0.0
  0
LINE
  5
1FF0
100
AcDbEntity
  8
V0-OBRYS
  6
CONTINUOUS
 62
    90
 48
3.0
100
AcDbLine
 10
901.857808
 20
-551.836202
 30
0.0
 11
1135.178865
 21
-551.836202
 31
0.0
  0
LINE
  5
1FF1
100
AcDbEntity
  8
V0-OBRYS
  6
CONTINUOUS
 62
    90
 48
3.0
100
AcDbLine
 10
876.525877
 20
-579.294876
 30
0.0
 11
901.740733
 21
-579.294876
 31
0.0
  0
LINE
  5
1FF2
100
AcDbEntity
  8
V0-OBRYS
  6
CONTINUOUS
 62
    90
 48
3.0
100
AcDbLine
 10
876.525877
 20
-610.247598
 30
0.0
 11
876.525877
 21
-579.294876
 31
0.0
  0
LINE
  5
1FF3
100
AcDbEntity
  8
V0-OBRYS
  6
CONTINUOUS
 62
    90
 48
3.0
100
AcDbLine
 10
901.740733
 20
-579.294876
 30
0.0
 11
901.740733
 21
-610.247598
 31
0.0
  0
LINE
  5
1FF4
100
AcDbEntity
  8
V0-OBRYS
  6
CONTINUOUS
 62
    90
 48
3.0
100
AcDbLine
 10
876.525877
 20
-610.247598
 30
0.0
 11
901.740733
 21
-610.247598
 31
0.0
  0
LINE
  5
1FF5
100
AcDbEntity
  8
V0-OBRYS
  6
CONTINUOUS
 62
    90
 48
3.0
100
AcDbLine
 10
872.203333
 20
-557.699955
 30
0.0
 11
906.063277
 21
-557.699955
 31
0.0
  0
LINE
  5
1FF6
100
AcDbEntity
  8
V0-OBRYS
  6
CONTINUOUS
 62
    90
 48
3.0
100
AcDbLine
 10
906.063277
 20
-557.699955
 30
0.0
 11
906.063277
 21
-586.493181
 31
0.0
  0
LINE
  5
1FF7
100
AcDbEntity
  8
V0-OBRYS
  6
CONTINUOUS
 62
    90
 48
3.0
100
AcDbLine
 10
906.063277
 20
-586.493181
 30
0.0
 11
901.740733
 21
-586.493181
 31
0.0
  0
LINE
  5
1FF8
100
AcDbEntity
  8
V0-OBRYS
  6
CONTINUOUS
 62
    90
 48
3.0
100
AcDbLine
 10
871.48291
 20
-557.699955
 30
0.0
 11
871.48291
 21
-586.493181
 31
0.0
  0
LINE
  5
1FF9
100
AcDbEntity
  8
V0-OBRYS
  6
CONTINUOUS
 62
    90
 48
3.0
100
AcDbLine
 10
871.48291
 20
-586.493181
 30
0.0
 11
875.805454
 21
-586.493181
 31
0.0
  0
LINE
  5
1FFA
100
AcDbEntity
  8
V0-OBRYS
  6
CONTINUOUS
 62
    90
 48
3.0
100
AcDbLine
 10
1164.599189
 20
-557.699955
 30
0.0
 11
1130.739245
 21
-557.699955
 31
0.0
  0
LINE
  5
1FFB
100
AcDbEntity
  8
V0-OBRYS
  6
CONTINUOUS
 62
    90
 48
3.0
100
AcDbLine
 10
1160.276645
 20
-610.247598
 30
0.0
 11
1135.061789
 21
-610.247598
 31
0.0
  0
LINE
  5
1FFC
100
AcDbEntity
  8
V0-OBRYS
  6
CONTINUOUS
 62
    90
 48
3.0
100
AcDbLine
 10
1160.276645
 20
-579.294876
 30
0.0
 11
1135.061789
 21
-579.294876
 31
0.0
  0
LINE
  5
1FFD
100
AcDbEntity
  8
V0-OBRYS
  6
CONTINUOUS
 62
    90
 48
3.0
100
AcDbLine
 10
1160.276645
 20
-562.018939
 30
0.0
 11
1135.061789
 21
-562.018939
 31
0.0
  0
LINE
  5
1FFE
100
AcDbEntity
  8
V0-OBRYS
  6
CONTINUOUS
 62
    90
 48
3.0
100
AcDbLine
 10
1160.276645
 20
-610.247598
 30
0.0
 11
1160.276645
 21
-579.294876
 31
0.0
  0
LINE
  5
1FFF
100
AcDbEntity
  8
V0-OBRYS
  6
CONTINUOUS
 62
    90
 48
3.0
100
AcDbLine
 10
1165.319613
 20
-557.699955
 30
0.0
 11
1165.319613
 21
-586.493181
 31
0.0
  0
LINE
  5
2000
100
AcDbEntity
  8
V0-OBRYS
  6
CONTINUOUS
 62
    90
 48
3.0
100
AcDbLine
 10
1160.276645
 20
-536.105034
 30
0.0
 11
1160.276645
 21
-562.018939
 31
0.0
  0
LINE
  5
2001
100
AcDbEntity
  8
V0-OBRYS
  6
CONTINUOUS
 62
    90
 48
3.0
100
AcDbLine
 10
1165.319613
 20
-586.493181
 30
0.0
 11
1160.997068
 21
-586.493181
 31
0.0
  0
LINE
  5
2002
100
AcDbEntity
  8
V0-OBRYS
  6
CONTINUOUS
 62
    90
 48
3.0
100
AcDbLine
 10
1135.061789
 20
-579.294876
 30
0.0
 11
1135.061789
 21
-610.247598
 31
0.0
  0
LINE
  5
2003
100
AcDbEntity
  8
V0-OBRYS
  6
CONTINUOUS
 62
    90
 48
3.0
100
AcDbLine
 10
1130.739245
 20
-557.699955
 30
0.0
 11
1130.739245
 21
-586.493181
 31
0.0
  0
LINE
  5
2004
100
AcDbEntity
  8
V0-OBRYS
  6
CONTINUOUS
 62
    90
 48
3.0
100
AcDbLine
 10
1135.061789
 20
-562.018939
 30
0.0
 11
1135.061789
 21
-536.105034
 31
0.0
  0
LINE
  5
2005
100
AcDbEntity
  8
V0-OBRYS
  6
CONTINUOUS
 62
    90
 48
3.0
100
AcDbLine
 10
1130.739245
 20
-586.493181
 30
0.0
 11
1135.061789
 21
-586.493181
 31
0.0
  0
LINE
  5
2006
100
AcDbEntity
  8
V0-OBRYS
  6
CONTINUOUS
 62
    90
 48
3.0
100
AcDbLine
 10
1160.393721
 20
-551.836202
 30
0.0
 11
1200.518337
 21
-551.836202
 31
0.0
  0
LINE
  5
2007
100
AcDbEntity
  8
V0-OBRYS
  6
CONTINUOUS
 62
    90
 48
3.0
100
AcDbLine
 10
876.525877
 20
-536.105034
 30
0.0
 11
901.740733
 21
-536.105034
 31
0.0
  0
LINE
  5
2008
100
AcDbEntity
  8
V0-OBRYS
  6
CONTINUOUS
 62
    90
 48
3.0
100
AcDbLine
 10
1160.276645
 20
-536.105034
 30
0.0
 11
1135.061789
 21
-536.105034
 31
0.0
  0
LINE
  5
2009
100
AcDbEntity
  8
V0-OBRYS
  6
CONTINUOUS
 62
    90
 48
3.0
100
AcDbLine
 10
288.683213
 20
-1017.568518
 30
0.0
 11
609.683213
 21
-1017.568518
 31
0.0
  0
LINE
  5
200A
100
AcDbEntity
  8
V0-OBRYS
  6
CONTINUOUS
 62
    90
 48
3.0
100
AcDbLine
 10
609.683213
 20
-1017.568518
 30
0.0
 11
609.683213
 21
-1381.568518
 31
0.0
  0
LINE
  5
200B
100
AcDbEntity
  8
V0-OBRYS
  6
CONTINUOUS
 62
    90
 48
3.0
100
AcDbLine
 10
288.683213
 20
-1017.568518
 30
0.0
 11
288.683213
 21
-1381.568518
 31
0.0
  0
LINE
  5
200C
100
AcDbEntity
  8
V0-OBRYS
  6
CONTINUOUS
 62
    90
 48
3.0
100
AcDbLine
 10
288.683213
 20
-1381.568518
 30
0.0
 11
609.683213
 21
-1381.568518
 31
0.0
  0
LINE
  5
200D
100
AcDbEntity
  8
V0-OBRYS
  6
CONTINUOUS
 62
    90
 48
3.0
100
AcDbLine
 10
611.883979
 20
-1088.260806
 30
0.0
 11
611.883979
 21
-1058.958823
 31
0.0
  0
LINE
  5
200E
100
AcDbEntity
  8
V0-OBRYS
  6
CONTINUOUS
 62
    90
 48
3.0
100
AcDbLine
 10
616.202963
 20
-1084.075808
 30
0.0
 11
616.202963
 21
-1058.860953
 31
0.0
  0
LINE
  5
200F
100
AcDbEntity
  8
V0-OBRYS
  6
CONTINUOUS
 62
    90
 48
3.0
100
AcDbLine
 10
609.683213
 20
-1084.075808
 30
0.0
 11
611.875125
 21
-1084.075808
 31
0.0
  0
LINE
  5
2010
100
AcDbEntity
  8
V0-OBRYS
  6
CONTINUOUS
 62
    90
 48
3.0
100
AcDbLine
 10
616.202963
 20
-1058.860953
 30
0.0
 11
613.510297
 21
-1058.860953
 31
0.0
  0
LINE
  5
2011
100
AcDbEntity
  8
V0-OBRYS
  6
CONTINUOUS
 62
    90
 48
3.0
100
AcDbLine
 10
613.510297
 20
-1054.480355
 30
0.0
 11
613.510297
 21
-1088.260806
 31
0.0
  0
ARC
  5
2012
100
AcDbEntity
  8
V0-OBRYS
  6
CONTINUOUS
 62
    90
 48
3.0
100
AcDbCircle
 10
612.697138
 20
-1054.480355
 30
0.0
 40
0.813159
100
AcDbArc
 50
0.0
 51
180.0
  0
ARC
  5
2013
100
AcDbEntity
  8
V0-OBRYS
  6
CONTINUOUS
 62
    90
 48
3.0
100
AcDbCircle
 10
612.697138
 20
-1088.260806
 30
0.0
 40
0.813159
100
AcDbArc
 50
180.0
 51
0.0
  0
LINE
  5
2014
100
AcDbEntity
  8
V0-OBRYS
  6
CONTINUOUS
 62
    90
 48
3.0
100
AcDbLine
 10
611.883979
 20
-1058.958823
 30
0.0
 11
611.883979
 21
-1054.480355
 31
0.0
  0
LINE
  5
2015
100
AcDbEntity
  8
V0-OBRYS
  6
CONTINUOUS
 62
    90
 48
3.0
100
AcDbLine
 10
611.875125
 20
-1058.860953
 30
0.0
 11
609.683213
 21
-1058.860953
 31
0.0
  0
LINE
  5
2016
100
AcDbEntity
  8
V0-OBRYS
  6
CONTINUOUS
 62
    90
 48
3.0
100
AcDbLine
 10
613.510297
 20
-1084.075808
 30
0.0
 11
616.202963
 21
-1084.075808
 31
0.0
  0
LINE
  5
2017
100
AcDbEntity
  8
V0-OBRYS
  6
CONTINUOUS
 62
    90
 48
3.0
100
AcDbLine
 10
286.482446
 20
-1088.260806
 30
0.0
 11
286.482446
 21
-1058.958823
 31
0.0
  0
LINE
  5
2018
100
AcDbEntity
  8
V0-OBRYS
  6
CONTINUOUS
 62
    90
 48
3.0
100
AcDbLine
 10
284.856128
 20
-1054.480355
 30
0.0
 11
284.856128
 21
-1088.260806
 31
0.0
  0
ARC
  5
2019
100
AcDbEntity
  8
V0-OBRYS
  6
CONTINUOUS
 62
    90
 48
3.0
100
AcDbCircle
 10
285.669287
 20
-1088.260806
 30
0.0
 40
0.813159
100
AcDbArc
 50
180.0
 51
0.0
  0
LINE
  5
201A
100
AcDbEntity
  8
V0-OBRYS
  6
CONTINUOUS
 62
    90
 48
3.0
100
AcDbLine
 10
284.856128
 20
-1084.075808
 30
0.0
 11
282.163462
 21
-1084.075808
 31
0.0
  0
LINE
  5
201B
100
AcDbEntity
  8
V0-OBRYS
  6
CONTINUOUS
 62
    90
 48
3.0
100
AcDbLine
 10
282.163462
 20
-1058.860953
 30
0.0
 11
284.856128
 21
-1058.860953
 31
0.0
  0
LINE
  5
201C
100
AcDbEntity
  8
V0-OBRYS
  6
CONTINUOUS
 62
    90
 48
3.0
100
AcDbLine
 10
288.683213
 20
-1084.075808
 30
0.0
 11
286.491301
 21
-1084.075808
 31
0.0
  0
LINE
  5
201D
100
AcDbEntity
  8
V0-OBRYS
  6
CONTINUOUS
 62
    90
 48
3.0
100
AcDbLine
 10
286.491301
 20
-1058.860953
 30
0.0
 11
288.683213
 21
-1058.860953
 31
0.0
  0
LINE
  5
201E
100
AcDbEntity
  8
V0-OBRYS
  6
CONTINUOUS
 62
    90
 48
3.0
100
AcDbLine
 10
286.482446
 20
-1058.958823
 30
0.0
 11
286.482446
 21
-1054.480355
 31
0.0
  0
ARC
  5
201F
100
AcDbEntity
  8
V0-OBRYS
  6
CONTINUOUS
 62
    90
 48
3.0
100
AcDbCircle
 10
285.669287
 20
-1054.480355
 30
0.0
 40
0.813159
100
AcDbArc
 50
0.0
 51
180.0
  0
LINE
  5
2020
100
AcDbEntity
  8
V0-OBRYS
  6
CONTINUOUS
 62
    90
 48
3.0
100
AcDbLine
 10
282.163462
 20
-1084.075808
 30
0.0
 11
282.163462
 21
-1058.860953
 31
0.0
  0
LINE
  5
2021
100
AcDbEntity
  8
V0-OBRYS
  6
CONTINUOUS
 62
    90
 48
3.0
100
AcDbLine
 10
284.856128
 20
-1344.656682
 30
0.0
 11
284.856128
 21
-1310.87623
 31
0.0
  0
LINE
  5
2022
100
AcDbEntity
  8
V0-OBRYS
  6
CONTINUOUS
 62
    90
 48
3.0
100
AcDbLine
 10
286.482446
 20
-1310.87623
 30
0.0
 11
286.482446
 21
-1340.178214
 31
0.0
  0
ARC
  5
2023
100
AcDbEntity
  8
V0-OBRYS
  6
CONTINUOUS
 62
    90
 48
3.0
100
AcDbCircle
 10
285.669287
 20
-1310.87623
 30
0.0
 40
0.813159
100
AcDbArc
 50
0.0
 51
180.0
  0
LINE
  5
2024
100
AcDbEntity
  8
V0-OBRYS
  6
CONTINUOUS
 62
    90
 48
3.0
100
AcDbLine
 10
282.163462
 20
-1340.276084
 30
0.0
 11
284.856128
 21
-1340.276084
 31
0.0
  0
LINE
  5
2025
100
AcDbEntity
  8
V0-OBRYS
  6
CONTINUOUS
 62
    90
 48
3.0
100
AcDbLine
 10
284.856128
 20
-1315.061228
 30
0.0
 11
282.163462
 21
-1315.061228
 31
0.0
  0
LINE
  5
2026
100
AcDbEntity
  8
V0-OBRYS
  6
CONTINUOUS
 62
    90
 48
3.0
100
AcDbLine
 10
282.163462
 20
-1315.061228
 30
0.0
 11
282.163462
 21
-1340.276084
 31
0.0
  0
ARC
  5
2027
100
AcDbEntity
  8
V0-OBRYS
  6
CONTINUOUS
 62
    90
 48
3.0
100
AcDbCircle
 10
285.669287
 20
-1344.656682
 30
0.0
 40
0.813159
100
AcDbArc
 50
180.0
 51
0.0
  0
LINE
  5
2028
100
AcDbEntity
  8
V0-OBRYS
  6
CONTINUOUS
 62
    90
 48
3.0
100
AcDbLine
 10
286.482446
 20
-1340.178214
 30
0.0
 11
286.482446
 21
-1344.656682
 31
0.0
  0
LINE
  5
2029
100
AcDbEntity
  8
V0-OBRYS
  6
CONTINUOUS
 62
    90
 48
3.0
100
AcDbLine
 10
286.491301
 20
-1340.276084
 30
0.0
 11
288.683213
 21
-1340.276084
 31
0.0
  0
LINE
  5
202A
100
AcDbEntity
  8
V0-OBRYS
  6
CONTINUOUS
 62
    90
 48
3.0
100
AcDbLine
 10
288.683213
 20
-1315.061228
 30
0.0
 11
286.491301
 21
-1315.061228
 31
0.0
  0
LINE
  5
202B
100
AcDbEntity
  8
V0-OBRYS
  6
CONTINUOUS
 62
    90
 48
3.0
100
AcDbLine
 10
611.883979
 20
-1310.87623
 30
0.0
 11
611.883979
 21
-1340.178214
 31
0.0
  0
LINE
  5
202C
100
AcDbEntity
  8
V0-OBRYS
  6
CONTINUOUS
 62
    90
 48
3.0
100
AcDbLine
 10
613.510297
 20
-1344.656682
 30
0.0
 11
613.510297
 21
-1310.87623
 31
0.0
  0
ARC
  5
202D
100
AcDbEntity
  8
V0-OBRYS
  6
CONTINUOUS
 62
    90
 48
3.0
100
AcDbCircle
 10
612.697138
 20
-1310.87623
 30
0.0
 40
0.813159
100
AcDbArc
 50
0.0
 51
180.0
  0
LINE
  5
202E
100
AcDbEntity
  8
V0-OBRYS
  6
CONTINUOUS
 62
    90
 48
3.0
100
AcDbLine
 10
613.510297
 20
-1315.061228
 30
0.0
 11
616.202963
 21
-1315.061228
 31
0.0
  0
LINE
  5
202F
100
AcDbEntity
  8
V0-OBRYS
  6
CONTINUOUS
 62
    90
 48
3.0
100
AcDbLine
 10
616.202963
 20
-1340.276084
 30
0.0
 11
613.510297
 21
-1340.276084
 31
0.0
  0
LINE
  5
2030
100
AcDbEntity
  8
V0-OBRYS
  6
CONTINUOUS
 62
    90
 48
3.0
100
AcDbLine
 10
609.683213
 20
-1315.061228
 30
0.0
 11
611.875125
 21
-1315.061228
 31
0.0
  0
LINE
  5
2031
100
AcDbEntity
  8
V0-OBRYS
  6
CONTINUOUS
 62
    90
 48
3.0
100
AcDbLine
 10
611.875125
 20
-1340.276084
 30
0.0
 11
609.683213
 21
-1340.276084
 31
0.0
  0
LINE
  5
2032
100
AcDbEntity
  8
V0-OBRYS
  6
CONTINUOUS
 62
    90
 48
3.0
100
AcDbLine
 10
611.883979
 20
-1340.178214
 30
0.0
 11
611.883979
 21
-1344.656682
 31
0.0
  0
ARC
  5
2033
100
AcDbEntity
  8
V0-OBRYS
  6
CONTINUOUS
 62
    90
 48
3.0
100
AcDbCircle
 10
612.697138
 20
-1344.656682
 30
0.0
 40
0.813159
100
AcDbArc
 50
180.0
 51
0.0
  0
LINE
  5
2034
100
AcDbEntity
  8
V0-OBRYS
  6
CONTINUOUS
 62
    90
 48
3.0
100
AcDbLine
 10
616.202963
 20
-1315.061228
 30
0.0
 11
616.202963
 21
-1340.276084
 31
0.0
  0
LINE
  5
2035
100
AcDbEntity
  8
V0-OBRYS
  6
CONTINUOUS
 62
    90
 48
3.0
100
AcDbLine
 10
287.683213
 20
-531.836202
 30
0.0
 11
287.683213
 21
-558.050034
 31
0.0
  0
LINE
  5
2036
100
AcDbEntity
  8
V0-OBRYS
  6
CONTINUOUS
 62
    90
 48
3.0
100
AcDbLine
 10
287.683213
 20
-558.050034
 30
0.0
 11
281.239413
 21
-558.050034
 31
0.0
  0
LINE
  5
2037
100
AcDbEntity
  8
V0-OBRYS
  6
CONTINUOUS
 62
    90
 48
3.0
100
AcDbLine
 10
281.239413
 20
-558.050034
 30
0.0
 11
281.239413
 21
-552.07144
 31
0.0
  0
LINE
  5
2038
100
AcDbEntity
  8
V0-OBRYS
  6
CONTINUOUS
 62
    90
 48
3.0
100
AcDbLine
 10
287.683213
 20
-586.563329
 30
0.0
 11
287.683213
 21
-575.066031
 31
0.0
  0
LINE
  5
2039
100
AcDbEntity
  8
V0-OBRYS
  6
CONTINUOUS
 62
    90
 48
3.0
100
AcDbLine
 10
287.683213
 20
-575.066031
 30
0.0
 11
281.699686
 21
-575.066031
 31
0.0
  0
LINE
  5
203A
100
AcDbEntity
  8
V0-OBRYS
  6
CONTINUOUS
 62
    90
 48
3.0
100
AcDbLine
 10
281.699686
 20
-575.066031
 30
0.0
 11
281.699686
 21
-593.001813
 31
0.0
  0
LINE
  5
203B
100
AcDbEntity
  8
V0-OBRYS
  6
CONTINUOUS
 62
    90
 48
3.0
100
AcDbLine
 10
281.699686
 20
-593.001813
 30
0.0
 11
281.699686
 21
-605.878786
 31
0.0
  0
LINE
  5
203C
100
AcDbEntity
  8
V0-OBRYS
  6
CONTINUOUS
 62
    90
 48
3.0
100
AcDbLine
 10
283.540772
 20
-553.451118
 30
0.0
 11
283.540772
 21
-582.424301
 31
0.0
  0
LINE
  5
203D
100
AcDbEntity
  8
V0-OBRYS
  6
CONTINUOUS
 62
    90
 48
3.0
100
AcDbLine
 10
283.540772
 20
-582.424301
 30
0.0
 11
285.842126
 21
-582.424301
 31
0.0
  0
LINE
  5
203E
100
AcDbEntity
  8
V0-OBRYS
  6
CONTINUOUS
 62
    90
 48
3.0
100
AcDbLine
 10
285.842126
 20
-582.424301
 30
0.0
 11
285.842126
 21
-553.451118
 31
0.0
  0
LINE
  5
203F
100
AcDbEntity
  8
V0-OBRYS
  6
CONTINUOUS
 62
    90
 48
3.0
100
AcDbLine
 10
285.842126
 20
-553.451118
 30
0.0
 11
283.540772
 21
-553.451118
 31
0.0
  0
INSERT
  5
2040
100
AcDbEntity
  8
V0-OBRYS
  6
CONTINUOUS
 62
    90
 48
3.0
100
AcDbBlockReference
  2
AZAVER-B
 10
609.448939
 20
-532.231567
 30
0.0
 41
-1.0
  0
LINE
  5
2041
100
AcDbEntity
  8
V0-VYPLNE
  6
CONTINUOUS
 62
    41
 48
3.0
100
AcDbLine
 10
976.628257
 20
-647.166777
 30
0.0
 11
1018.67568
 21
-647.166777
 31
0.0
  0
LINE
  5
2042
100
AcDbEntity
  8
V0-VYPLNE
  6
CONTINUOUS
 62
    41
 48
3.0
100
AcDbLine
 10
976.4859
 20
-650.836202
 30
0.0
 11
1019.132717
 21
-650.836202
 31
0.0
  0
LINE
  5
2043
100
AcDbEntity
  8
V0-VYPLNE
  6
CONTINUOUS
 62
    41
 48
3.0
100
AcDbLine
 10
976.628257
 20
-656.299989
 30
0.0
 11
1018.67568
 21
-656.299989
 31
0.0
  0
LINE
  5
2044
100
AcDbEntity
  8
V0-VYPLNE
  6
CONTINUOUS
 62
    41
 48
3.0
100
AcDbLine
 10
976.628257
 20
-664.519879
 30
0.0
 11
1018.67568
 21
-664.519879
 31
0.0
  0
LINE
  5
2045
100
AcDbEntity
  8
V0-VYPLNE
  6
CONTINUOUS
 62
    41
 48
3.0
100
AcDbLine
 10
976.628257
 20
-675.023073
 30
0.0
 11
1018.67568
 21
-675.023073
 31
0.0
  0
LINE
  5
2046
100
AcDbEntity
  8
V0-OBRYS
  6
CONTINUOUS
 62
    90
 48
3.0
100
AcDbLine
 10
965.499025
 20
-683.7408
 30
0.0
 11
1018.518337
 21
-683.7408
 31
0.0
  0
LINE
  5
2047
100
AcDbEntity
  8
V0-OBRYS
  6
CONTINUOUS
 62
    90
 48
3.0
100
AcDbLine
 10
1071.537648
 20
-683.7408
 30
0.0
 11
1018.518337
 21
-683.7408
 31
0.0
  0
LINE
  5
2048
100
AcDbEntity
  8
V0-VYPLNE
  6
CONTINUOUS
 62
    41
 48
3.0
100
AcDbLine
 10
1060.408417
 20
-675.023073
 30
0.0
 11
1018.360993
 21
-675.023073
 31
0.0
  0
LINE
  5
2049
100
AcDbEntity
  8
V0-VYPLNE
  6
CONTINUOUS
 62
    41
 48
3.0
100
AcDbLine
 10
1060.408417
 20
-664.519879
 30
0.0
 11
1018.360993
 21
-664.519879
 31
0.0
  0
LINE
  5
204A
100
AcDbEntity
  8
V0-VYPLNE
  6
CONTINUOUS
 62
    41
 48
3.0
100
AcDbLine
 10
1060.408417
 20
-656.299989
 30
0.0
 11
1018.360993
 21
-656.299989
 31
0.0
  0
LINE
  5
204B
100
AcDbEntity
  8
V0-VYPLNE
  6
CONTINUOUS
 62
    41
 48
3.0
100
AcDbLine
 10
1060.550774
 20
-650.836202
 30
0.0
 11
1017.903957
 21
-650.836202
 31
0.0
  0
LINE
  5
204C
100
AcDbEntity
  8
V0-VYPLNE
  6
CONTINUOUS
 62
    41
 48
3.0
100
AcDbLine
 10
1060.408417
 20
-647.166777
 30
0.0
 11
1018.360993
 21
-647.166777
 31
0.0
  0
LINE
  5
204D
100
AcDbEntity
  8
V0-OBRYS
  6
CONTINUOUS
 62
    90
 48
3.0
100
AcDbLine
 10
1060.550774
 20
-645.194154
 30
0.0
 11
1018.518337
 21
-645.194154
 31
0.0
  0
LINE
  5
204E
100
AcDbEntity
  8
V0-OBRYS
  6
CONTINUOUS
 62
    90
 48
3.0
100
AcDbLine
 10
1060.550774
 20
-683.7408
 30
0.0
 11
1060.550774
 21
-645.194154
 31
0.0
  0
LINE
  5
204F
100
AcDbEntity
  8
V0-OBRYS
  6
CONTINUOUS
 62
    90
 48
3.0
100
AcDbLine
 10
1074.561587
 20
-624.831584
 30
0.0
 11
1018.518337
 21
-624.831584
 31
0.0
  0
LINE
  5
2050
100
AcDbEntity
  8
V0-VYPLNE
  6
DASHED
 62
    52
 48
2.0
100
AcDbLine
 10
482.890558
 20
-724.021723
 30
0.0
 11
533.395802
 21
-753.180939
 31
0.0
  0
ARC
  5
2051
100
AcDbEntity
  8
V0-VYPLNE
  6
DASHED
 62
    52
 48
2.0
100
AcDbCircle
 10
469.310615
 20
-718.193289
 30
0.0
 40
60.80917
100
AcDbArc
 50
331.719358
 51
88.362917
  0
ARC
  5
2052
100
AcDbEntity
  8
V0-VYPLNE
  6
DASHED
 62
    52
 48
2.0
100
AcDbCircle
 10
469.310615
 20
-718.193289
 30
0.0
 40
63.531659
100
AcDbArc
 50
331.519954
 51
88.371211
  0
ARC
  5
2053
100
AcDbEntity
  8
V0-VYPLNE
  6
DASHED
 62
    52
 48
2.0
100
AcDbCircle
 10
463.186034
 20
-716.346522
 30
0.0
 40
88.758469
100
AcDbArc
 50
269.220247
 51
347.662182
  0
LINE
  5
2054
100
AcDbEntity
  8
V0-VYPLNE
  6
DASHED
 62
    52
 48
2.0
100
AcDbLine
 10
469.886615
 20
-804.639071
 30
0.0
 11
469.310615
 21
-645.200064
 31
0.0
  0
LINE
  5
2055
100
AcDbEntity
  8
V0-VYPLNE
  6
DASHED
 62
    52
 48
2.0
100
AcDbLine
 10
481.148158
 20
-727.039648
 30
0.0
 11
531.653402
 21
-756.198864
 31
0.0
  0
ARC
  5
2056
100
AcDbEntity
  8
V0-VYPLNE
  6
DASHED
 62
    52
 48
2.0
100
AcDbCircle
 10
456.701898
 20
-705.314164
 30
0.0
 40
99.922007
100
AcDbArc
 50
177.519815
 51
273.026828
  0
ARC
  5
2057
100
AcDbEntity
  8
V0-VYPLNE
  6
DASHED
 62
    52
 48
2.0
100
AcDbCircle
 10
469.310615
 20
-718.193289
 30
0.0
 40
60.80917
100
AcDbArc
 50
91.714912
 51
208.344087
  0
ARC
  5
2058
100
AcDbEntity
  8
V0-VYPLNE
  6
DASHED
 62
    52
 48
2.0
100
AcDbCircle
 10
469.310615
 20
-718.193289
 30
0.0
 40
63.531659
100
AcDbArc
 50
91.581613
 51
208.441599
  0
LINE
  5
2059
100
AcDbEntity
  8
V0-VYPLNE
  6
DASHED
 62
    52
 48
2.0
100
AcDbLine
 10
457.473071
 20
-727.039648
 30
0.0
 11
406.967828
 21
-756.198864
 31
0.0
  0
LINE
  5
205A
100
AcDbEntity
  8
V0-VYPLNE
  6
DASHED
 62
    52
 48
2.0
100
AcDbLine
 10
455.730671
 20
-724.021723
 30
0.0
 11
405.225428
 21
-753.180939
 31
0.0
  0
ARC
  5
205B
100
AcDbEntity
  8
V0-VYPLNE
  6
DASHED
 62
    52
 48
2.0
100
AcDbCircle
 10
469.310615
 20
-718.193289
 30
0.0
 40
38.830753
100
AcDbArc
 50
212.575428
 51
327.315954
  0
CIRCLE
  5
205C
100
AcDbEntity
  8
V0-VYPLNE
  6
DASHED
 62
    52
 48
2.0
100
AcDbCircle
 10
469.310615
 20
-718.193289
 30
0.0
 40
14.674793
  0
ARC
  5
205D
100
AcDbEntity
  8
V0-VYPLNE
  6
DASHED
 62
    52
 48
2.0
100
AcDbCircle
 10
469.310615
 20
-718.193289
 30
0.0
 40
38.830753
100
AcDbArc
 50
92.399561
 51
207.385177
  0
LINE
  5
205E
100
AcDbEntity
  8
V0-VYPLNE
  6
DASHED
 62
    52
 48
2.0
100
AcDbLine
 10
537.285449
 20
-718.193289
 30
0.0
 11
404.998138
 21
-718.193289
 31
0.0
  0
ARC
  5
205F
100
AcDbEntity
  8
V0-VYPLNE
  6
DASHED
 62
    52
 48
2.0
100
AcDbCircle
 10
477.311255
 20
-706.344969
 30
0.0
 40
120.57408
100
AcDbArc
 50
90.0
 51
177.373515
  0
ARC
  5
2060
100
AcDbEntity
  8
V0-VYPLNE
  6
DASHED
 62
    52
 48
2.0
100
AcDbCircle
 10
477.311255
 20
-706.344969
 30
0.0
 40
120.57408
100
AcDbArc
 50
180.0
 51
180.271524
  0
LINE
  5
2061
100
AcDbEntity
  8
V0-VYPLNE
  6
DASHED
 62
    52
 48
2.0
100
AcDbLine
 10
455.730671
 20
-724.021723
 30
0.0
 11
457.473071
 21
-727.039648
 31
0.0
  0
LINE
  5
2062
100
AcDbEntity
  8
V0-VYPLNE
  6
DASHED
 62
    52
 48
2.0
100
AcDbLine
 10
477.311255
 20
-585.770889
 30
0.0
 11
575.553815
 21
-585.770889
 31
0.0
  0
LINE
  5
2063
100
AcDbEntity
  8
V0-VYPLNE
  6
DASHED
 62
    52
 48
2.0
100
AcDbLine
 10
471.053015
 20
-703.518496
 30
0.0
 11
471.053015
 21
-645.200064
 31
0.0
  0
LINE
  5
2064
100
AcDbEntity
  8
V0-VYPLNE
  6
DASHED
 62
    52
 48
2.0
100
AcDbLine
 10
467.568215
 20
-703.518496
 30
0.0
 11
467.568215
 21
-645.200064
 31
0.0
  0
LINE
  5
2065
100
AcDbEntity
  8
V0-VYPLNE
  6
DASHED
 62
    52
 48
2.0
100
AcDbLine
 10
471.038615
 20
-645.200064
 30
0.0
 11
471.038615
 21
-624.383414
 31
0.0
  0
ARC
  5
2066
100
AcDbEntity
  8
V0-VYPLNE
  6
DASHED
 62
    52
 48
2.0
100
AcDbCircle
 10
471.038615
 20
-645.200064
 30
0.0
 40
1.7424
100
AcDbArc
 50
0.0
 51
180.0
  0
ARC
  5
2067
100
AcDbEntity
  8
V0-VYPLNE
  6
DASHED
 62
    52
 48
2.0
100
AcDbCircle
 10
469.310615
 20
-718.193289
 30
0.0
 40
38.830753
100
AcDbArc
 50
332.562264
 51
87.434764
  0
LINE
  5
2068
100
AcDbEntity
  8
V0-VYPLNE
  6
DASHED
 62
    52
 48
2.0
100
AcDbLine
 10
471.053015
 20
-703.518496
 30
0.0
 11
467.568215
 21
-703.518496
 31
0.0
  0
LINE
  5
2069
100
AcDbEntity
  8
V0-VYPLNE
  6
DASHED
 62
    52
 48
2.0
100
AcDbLine
 10
481.148158
 20
-727.039648
 30
0.0
 11
482.890558
 21
-724.021723
 31
0.0
  0
LINE
  5
206A
100
AcDbEntity
  8
V0-VYPLNE
  6
DASHED
 62
    52
 48
2.0
100
AcDbLine
 10
575.553815
 20
-585.770889
 30
0.0
 11
575.553815
 21
-735.312009
 31
0.0
  0
LINE
  5
206B
100
AcDbEntity
  8
V0-VYPLNE
  6
DASHED
 62
    52
 48
2.0
100
AcDbLine
 10
549.894604
 20
-735.312009
 30
0.0
 11
549.894604
 21
-722.782813
 31
0.0
  0
LINE
  5
206C
100
AcDbEntity
  8
V0-VYPLNE
  6
DASHED
 62
    52
 48
2.0
100
AcDbLine
 10
549.894604
 20
-735.312009
 30
0.0
 11
575.553815
 21
-735.312009
 31
0.0
  0
ARC
  5
206D
100
AcDbEntity
  8
V0-VYPLNE
  6
DASHED
 62
    52
 48
2.0
100
AcDbCircle
 10
469.310615
 20
-718.193289
 30
0.0
 40
63.531659
100
AcDbArc
 50
211.485726
 51
328.390343
  0
ARC
  5
206E
100
AcDbEntity
  8
V0-VYPLNE
  6
DASHED
 62
    52
 48
2.0
100
AcDbCircle
 10
469.310615
 20
-718.193289
 30
0.0
 40
60.80917
100
AcDbArc
 50
211.549963
 51
328.272969
  0
ARC
  5
206F
100
AcDbEntity
  8
V0-VYPLNE
  6
DASHED
 62
    52
 48
2.0
100
AcDbCircle
 10
406.096628
 20
-754.689901
 30
0.0
 40
1.7424
100
AcDbArc
 50
120.0
 51
300.0
  0
ARC
  5
2070
100
AcDbEntity
  8
V0-VYPLNE
  6
DASHED
 62
    52
 48
2.0
100
AcDbCircle
 10
532.524602
 20
-754.689901
 30
0.0
 40
1.7424
100
AcDbArc
 50
240.0
 51
60.0
  0
LINE
  5
2071
100
AcDbEntity
  8
V0-VYPLNE
  6
DASHED
 62
    52
 48
2.0
100
AcDbLine
 10
549.894604
 20
-716.908222
 30
0.0
 11
549.894604
 21
-586.084772
 31
0.0
  0
LINE
  5
2072
100
AcDbEntity
  8
V0-VYPLNE
  6
DASHED
 62
    52
 48
3.0
100
AcDbLine
 10
288.683213
 20
-531.836202
 30
0.0
 11
288.683213
 21
-231.836202
 31
0.0
  0
LINE
  5
2073
100
AcDbEntity
  8
V0-VYPLNE
  6
DASHED
 62
    52
 48
3.0
100
AcDbLine
 10
288.683213
 20
-231.836202
 30
0.0
 11
609.683213
 21
-231.836202
 31
0.0
  0
LINE
  5
2074
100
AcDbEntity
  8
V0-VYPLNE
  6
DASHED
 62
    52
 48
3.0
100
AcDbLine
 10
609.683213
 20
-531.836202
 30
0.0
 11
609.683213
 21
-231.836202
 31
0.0
  0
LINE
  5
2075
100
AcDbEntity
  8
V0-VYPLNE
  6
DASHED
 62
    52
 48
3.0
100
AcDbLine
 10
1200.518337
 20
-531.836202
 30
0.0
 11
1200.518337
 21
-231.836202
 31
0.0
  0
LINE
  5
2076
100
AcDbEntity
  8
V0-VYPLNE
  6
DASHED
 62
    52
 48
3.0
100
AcDbLine
 10
836.518337
 20
-531.836202
 30
0.0
 11
836.518337
 21
-231.836202
 31
0.0
  0
LINE
  5
2077
100
AcDbEntity
  8
V0-VYPLNE
  6
DASHED
 62
    52
 48
3.0
100
AcDbLine
 10
836.518337
 20
-231.836202
 30
0.0
 11
1200.518337
 21
-231.836202
 31
0.0
  0
LINE
  5
2078
100
AcDbEntity
  8
V0-VYPLNE
 48
3.0
100
AcDbLine
 10
592.412845
 20
-637.050618
 30
0.0
 11
628.742333
 21
-637.050618
 31
0.0
  0
DIMENSION
  5
2079
100
AcDbEntity
  8
V0-VYPLNE
  6
CONTINUOUS
 62
    41
 48
3.0
100
AcDbDimension
  2
*D29
 10
288.683213
 20
-498.292351
 30
0.0
 11
449.183213
 21
-498.292351
 31
0.0
 70
   160
  3
ED20
100
AcDbAlignedDimension
 13
609.683213
 23
-531.836202
 33
0.0
 14
288.683213
 24
-531.836202
 34
0.0
100
AcDbRotatedDimension
1001
ACAD
1000
DSTYLE
1002
{
1070
    40
1040
1.0
1002
}
  0
DIMENSION
  5
207A
100
AcDbEntity
  8
V0-VYPLNE
  6
CONTINUOUS
 62
    41
 48
3.0
100
AcDbDimension
  2
*D30
 10
1200.518337
 20
-476.648395
 30
0.0
 11
1008.763695
 21
-476.648395
 31
0.0
 70
   160
  3
ED20
100
AcDbAlignedDimension
 13
836.518337
 23
-531.836202
 33
0.0
 14
1200.518337
 24
-531.836202
 34
0.0
100
AcDbRotatedDimension
1001
ACAD
1000
DSTYLE
1002
{
1070
    40
1040
1.0
1002
}
  0
DIMENSION
  5
207B
100
AcDbEntity
  8
V0-VYPLNE
  6
CONTINUOUS
 62
    41
 48
3.0
100
AcDbDimension
  2
*D31
 10
240.789558
 20
-531.836202
 30
0.0
 11
240.789558
 21
-381.836202
 31
0.0
 70
   160
  3
ED20
100
AcDbAlignedDimension
 13
288.683213
 23
-231.836202
 33
0.0
 14
288.683213
 24
-531.836202
 34
0.0
 50
90.0
100
AcDbRotatedDimension
1001
ACAD
1000
DSTYLE
1002
{
1070
    40
1040
1.0
1002
}
  0
POINT
  5
207C
100
AcDbEntity
  8
V0-VYPLNE
  6
CONTINUOUS
 62
    41
 48
3.0
100
AcDbPoint
 10
1018.518337
 20
-650.836202
 30
0.0
  0
ENDBLK
  5
207E
100
AcDbEntity
  8
0
 62
    41
 48
3.0
100
AcDbBlockEnd
  0
BLOCK
  5
21E5
100
AcDbEntity
  8
0
 48
3.0
100
AcDbBlockBegin
  2
*D33
 70
     1
 10
0.0
 20
0.0
 30
0.0
  3
*D33
  1

  0
LINE
  5
21E6
100
AcDbEntity
  8
0
  6
BYBLOCK
 62
     0
 48
3.0
100
AcDbLine
 10
453.992867
 20
-493.085318
 30
0.0
 11
453.992867
 21
-699.423574
 31
0.0
  0
LINE
  5
21E7
100
AcDbEntity
  8
0
  6
BYBLOCK
 62
     0
 48
3.0
100
AcDbLine
 10
844.992867
 20
-493.085318
 30
0.0
 11
844.992867
 21
-699.423574
 31
0.0
  0
LINE
  5
21E8
100
AcDbEntity
  8
0
  6
BYBLOCK
 62
     0
 48
3.0
100
AcDbLine
 10
473.992867
 20
-698.173574
 30
0.0
 11
824.992867
 21
-698.173574
 31
0.0
  0
INSERT
  5
21E9
100
AcDbEntity
  8
0
  6
BYBLOCK
 62
     0
 48
3.0
100
AcDbBlockReference
  2
_OPEN
 10
453.992867
 20
-698.173574
 30
0.0
 41
20.0
 42
20.0
 43
20.0
 50
180.0
  0
INSERT
  5
21EA
100
AcDbEntity
  8
0
  6
BYBLOCK
 62
     0
 48
3.0
100
AcDbBlockReference
  2
_OPEN
 10
844.992867
 20
-698.173574
 30
0.0
 41
20.0
 42
20.0
 43
20.0
  0
MTEXT
  5
21EB
100
AcDbEntity
  8
0
  6
BYBLOCK
 62
     0
 48
3.0
100
AcDbMText
 10
646.614557
 20
-686.173574
 30
0.0
 40
20.0
 41
0.0
 71
     5
 72
     1
  1
\A1;391
  7
ED20
  0
POINT
  5
21EC
100
AcDbEntity
  8
DEFPOINTS
  6
BYBLOCK
 62
     0
 48
3.0
100
AcDbPoint
 10
453.992867
 20
-492.085318
 30
0.0
  0
POINT
  5
21ED
100
AcDbEntity
  8
DEFPOINTS
  6
BYBLOCK
 62
     0
 48
3.0
100
AcDbPoint
 10
844.992867
 20
-492.085318
 30
0.0
  0
POINT
  5
21EE
100
AcDbEntity
  8
DEFPOINTS
  6
BYBLOCK
 62
     0
 48
3.0
100
AcDbPoint
 10
844.992867
 20
-698.173574
 30
0.0
  0
ENDBLK
  5
21EF
100
AcDbEntity
  8
0
 48
3.0
100
AcDbBlockEnd
  0
BLOCK
  5
21F0
100
AcDbEntity
  8
0
 48
3.0
100
AcDbBlockBegin
  2
*D34
 70
     1
 10
0.0
 20
0.0
 30
0.0
  3
*D34
  1

  0
LINE
  5
21F1
100
AcDbEntity
  8
0
  6
BYBLOCK
 62
     0
 48
3.0
100
AcDbLine
 10
808.992867
 20
-310.585318
 30
0.0
 11
942.136298
 21
-310.585318
 31
0.0
  0
LINE
  5
21F2
100
AcDbEntity
  8
0
  6
BYBLOCK
 62
     0
 48
3.0
100
AcDbLine
 10
808.992867
 20
-602.585318
 30
0.0
 11
942.136298
 21
-602.585318
 31
0.0
  0
LINE
  5
21F3
100
AcDbEntity
  8
0
  6
BYBLOCK
 62
     0
 48
3.0
100
AcDbLine
 10
940.886298
 20
-330.585318
 30
0.0
 11
940.886298
 21
-582.585318
 31
0.0
  0
INSERT
  5
21F4
100
AcDbEntity
  8
0
  6
BYBLOCK
 62
     0
 48
3.0
100
AcDbBlockReference
  2
_OPEN
 10
940.886298
 20
-310.585318
 30
0.0
 41
20.0
 42
20.0
 43
20.0
 50
90.0
  0
INSERT
  5
21F5
100
AcDbEntity
  8
0
  6
BYBLOCK
 62
     0
 48
3.0
100
AcDbBlockReference
  2
_OPEN
 10
940.886298
 20
-602.585318
 30
0.0
 41
20.0
 42
20.0
 43
20.0
 50
270.0
  0
MTEXT
  5
21F6
100
AcDbEntity
  8
0
  6
BYBLOCK
 62
     0
 48
3.0
100
AcDbMText
 10
928.879496
 20
-465.745472
 30
0.0
 40
20.0
 41
0.0
 71
     5
 72
     1
  1
\A1;292
  7
ED20
 11
0.0
 21
1.0
 31
0.0
  0
POINT
  5
21F7
100
AcDbEntity
  8
DEFPOINTS
  6
BYBLOCK
 62
     0
 48
3.0
100
AcDbPoint
 10
807.992867
 20
-310.585318
 30
0.0
  0
POINT
  5
21F8
100
AcDbEntity
  8
DEFPOINTS
  6
BYBLOCK
 62
     0
 48
3.0
100
AcDbPoint
 10
807.992867
 20
-602.585318
 30
0.0
  0
POINT
  5
21F9
100
AcDbEntity
  8
DEFPOINTS
  6
BYBLOCK
 62
     0
 48
3.0
100
AcDbPoint
 10
940.886298
 20
-602.585318
 30
0.0
  0
ENDBLK
  5
21FA
100
AcDbEntity
  8
0
 48
3.0
100
AcDbBlockEnd
  0
BLOCK
  5
21FB
100
AcDbEntity
  8
0
 48
3.0
100
AcDbBlockBegin
  2
*D35
 70
     1
 10
0.0
 20
0.0
 30
0.0
  3
*D35
  1

  0
LINE
  5
21FC
100
AcDbEntity
  8
0
  6
BYBLOCK
 62
     0
 48
3.0
100
AcDbLine
 10
1038.827992
 20
-606.585318
 30
0.0
 11
1038.827992
 21
-658.000742
 31
0.0
  0
LINE
  5
21FD
100
AcDbEntity
  8
0
  6
BYBLOCK
 62
     0
 48
3.0
100
AcDbLine
 10
1398.827992
 20
-606.585318
 30
0.0
 11
1398.827992
 21
-658.000742
 31
0.0
  0
LINE
  5
21FE
100
AcDbEntity
  8
0
  6
BYBLOCK
 62
     0
 48
3.0
100
AcDbLine
 10
1058.827992
 20
-656.750742
 30
0.0
 11
1378.827992
 21
-656.750742
 31
0.0
  0
INSERT
  5
21FF
100
AcDbEntity
  8
0
  6
BYBLOCK
 62
     0
 48
3.0
100
AcDbBlockReference
  2
_OPEN
 10
1038.827992
 20
-656.750742
 30
0.0
 41
20.0
 42
20.0
 43
20.0
 50
180.0
  0
INSERT
  5
2200
100
AcDbEntity
  8
0
  6
BYBLOCK
 62
     0
 48
3.0
100
AcDbBlockReference
  2
_OPEN
 10
1398.827992
 20
-656.750742
 30
0.0
 41
20.0
 42
20.0
 43
20.0
  0
MTEXT
  5
2201
100
AcDbEntity
  8
0
  6
BYBLOCK
 62
     0
 48
3.0
100
AcDbMText
 10
1218.827992
 20
-644.750742
 30
0.0
 40
20.0
 41
0.0
 71
     5
 72
     1
  1
\A1;360
  7
ED20
  0
POINT
  5
2202
100
AcDbEntity
  8
DEFPOINTS
  6
BYBLOCK
 62
     0
 48
3.0
100
AcDbPoint
 10
1038.827992
 20
-605.585318
 30
0.0
  0
POINT
  5
2203
100
AcDbEntity
  8
DEFPOINTS
  6
BYBLOCK
 62
     0
 48
3.0
100
AcDbPoint
 10
1398.827992
 20
-605.585318
 30
0.0
  0
POINT
  5
2204
100
AcDbEntity
  8
DEFPOINTS
  6
BYBLOCK
 62
     0
 48
3.0
100
AcDbPoint
 10
1398.827992
 20
-656.750742
 30
0.0
  0
ENDBLK
  5
2205
100
AcDbEntity
  8
0
 48
3.0
100
AcDbBlockEnd
  0
BLOCK
  5
2206
100
AcDbEntity
  8
0
 48
3.0
100
AcDbBlockBegin
  2
*D36
 70
     1
 10
0.0
 20
0.0
 30
0.0
  3
*D36
  1

  0
LINE
  5
2207
100
AcDbEntity
  8
0
  6
BYBLOCK
 62
     0
 48
3.0
100
AcDbLine
 10
845.992867
 20
-367.085318
 30
0.0
 11
903.508434
 21
-367.085318
 31
0.0
  0
LINE
  5
2208
100
AcDbEntity
  8
0
  6
BYBLOCK
 62
     0
 48
3.0
100
AcDbLine
 10
845.992867
 20
-492.085318
 30
0.0
 11
903.508434
 21
-492.085318
 31
0.0
  0
LINE
  5
2209
100
AcDbEntity
  8
0
  6
BYBLOCK
 62
     0
 48
3.0
100
AcDbLine
 10
902.258434
 20
-387.085318
 30
0.0
 11
902.258434
 21
-472.085318
 31
0.0
  0
INSERT
  5
220A
100
AcDbEntity
  8
0
  6
BYBLOCK
 62
     0
 48
3.0
100
AcDbBlockReference
  2
_OPEN
 10
902.258434
 20
-367.085318
 30
0.0
 41
20.0
 42
20.0
 43
20.0
 50
90.0
  0
INSERT
  5
220B
100
AcDbEntity
  8
0
  6
BYBLOCK
 62
     0
 48
3.0
100
AcDbBlockReference
  2
_OPEN
 10
902.258434
 20
-492.085318
 30
0.0
 41
20.0
 42
20.0
 43
20.0
 50
270.0
  0
MTEXT
  5
220C
100
AcDbEntity
  8
0
  6
BYBLOCK
 62
     0
 48
3.0
100
AcDbMText
 10
890.256466
 20
-429.585318
 30
0.0
 40
20.0
 41
0.0
 71
     5
 72
     1
  1
\A1;\U+2205125
  7
ED20
 11
0.0
 21
1.0
 31
0.0
  0
POINT
  5
220D
100
AcDbEntity
  8
DEFPOINTS
  6
BYBLOCK
 62
     0
 48
3.0
100
AcDbPoint
 10
844.992867
 20
-367.085318
 30
0.0
  0
POINT
  5
220E
100
AcDbEntity
  8
DEFPOINTS
  6
BYBLOCK
 62
     0
 48
3.0
100
AcDbPoint
 10
844.992867
 20
-492.085318
 30
0.0
  0
POINT
  5
220F
100
AcDbEntity
  8
DEFPOINTS
  6
BYBLOCK
 62
     0
 48
3.0
100
AcDbPoint
 10
902.258434
 20
-492.085318
 30
0.0
  0
ENDBLK
  5
2210
100
AcDbEntity
  8
0
 48
3.0
100
AcDbBlockEnd
  0
BLOCK
  5
2211
100
AcDbEntity
  8
0
 48
3.0
100
AcDbBlockBegin
  2
*D37
 70
     1
 10
0.0
 20
0.0
 30
0.0
  3
*D37
  1

  0
LINE
  5
2212
100
AcDbEntity
  8
0
  6
BYBLOCK
 62
     0
 48
3.0
100
AcDbLine
 10
452.992867
 20
-429.585318
 30
0.0
 11
409.908053
 21
-429.585318
 31
0.0
  0
LINE
  5
2213
100
AcDbEntity
  8
0
  6
BYBLOCK
 62
     0
 48
3.0
100
AcDbLine
 10
489.992867
 20
-602.585318
 30
0.0
 11
409.908053
 21
-602.585318
 31
0.0
  0
LINE
  5
2214
100
AcDbEntity
  8
0
  6
BYBLOCK
 62
     0
 48
3.0
100
AcDbLine
 10
411.158053
 20
-449.585318
 30
0.0
 11
411.158053
 21
-582.585318
 31
0.0
  0
INSERT
  5
2215
100
AcDbEntity
  8
0
  6
BYBLOCK
 62
     0
 48
3.0
100
AcDbBlockReference
  2
_OPEN
 10
411.158053
 20
-429.585318
 30
0.0
 41
20.0
 42
20.0
 43
20.0
 50
90.0
  0
INSERT
  5
2216
100
AcDbEntity
  8
0
  6
BYBLOCK
 62
     0
 48
3.0
100
AcDbBlockReference
  2
_OPEN
 10
411.158053
 20
-602.585318
 30
0.0
 41
20.0
 42
20.0
 43
20.0
 50
270.0
  0
MTEXT
  5
2217
100
AcDbEntity
  8
0
  6
BYBLOCK
 62
     0
 48
3.0
100
AcDbMText
 10
399.158053
 20
-516.085318
 30
0.0
 40
20.0
 41
0.0
 71
     5
 72
     1
  1
\A1;173
  7
ED20
 11
0.0
 21
1.0
 31
0.0
  0
POINT
  5
2218
100
AcDbEntity
  8
DEFPOINTS
  6
BYBLOCK
 62
     0
 48
3.0
100
AcDbPoint
 10
453.992867
 20
-429.585318
 30
0.0
  0
POINT
  5
2219
100
AcDbEntity
  8
DEFPOINTS
  6
BYBLOCK
 62
     0
 48
3.0
100
AcDbPoint
 10
490.992867
 20
-602.585318
 30
0.0
  0
POINT
  5
221A
100
AcDbEntity
  8
DEFPOINTS
  6
BYBLOCK
 62
     0
 48
3.0
100
AcDbPoint
 10
411.158053
 20
-602.585318
 30
0.0
  0
ENDBLK
  5
221B
100
AcDbEntity
  8
0
 48
3.0
100
AcDbBlockEnd
  0
BLOCK
  5
221C
100
AcDbEntity
  8
0
 48
3.0
100
AcDbBlockBegin
  2
*D38
 70
     1
 10
0.0
 20
0.0
 30
0.0
  3
*D38
  1

  0
LINE
  5
221D
100
AcDbEntity
  8
0
  6
BYBLOCK
 62
     0
 48
3.0
100
AcDbLine
 10
490.992867
 20
-603.585318
 30
0.0
 11
490.992867
 21
-653.398206
 31
0.0
  0
LINE
  5
221E
100
AcDbEntity
  8
0
  6
BYBLOCK
 62
     0
 48
3.0
100
AcDbLine
 10
807.992867
 20
-603.585318
 30
0.0
 11
807.992867
 21
-653.398206
 31
0.0
  0
LINE
  5
221F
100
AcDbEntity
  8
0
  6
BYBLOCK
 62
     0
 48
3.0
100
AcDbLine
 10
510.992867
 20
-652.148206
 30
0.0
 11
787.992867
 21
-652.148206
 31
0.0
  0
INSERT
  5
2220
100
AcDbEntity
  8
0
  6
BYBLOCK
 62
     0
 48
3.0
100
AcDbBlockReference
  2
_OPEN
 10
490.992867
 20
-652.148206
 30
0.0
 41
20.0
 42
20.0
 43
20.0
 50
180.0
  0
INSERT
  5
2221
100
AcDbEntity
  8
0
  6
BYBLOCK
 62
     0
 48
3.0
100
AcDbBlockReference
  2
_OPEN
 10
807.992867
 20
-652.148206
 30
0.0
 41
20.0
 42
20.0
 43
20.0
  0
MTEXT
  5
2222
100
AcDbEntity
  8
0
  6
BYBLOCK
 62
     0
 48
3.0
100
AcDbMText
 10
649.492867
 20
-640.148206
 30
0.0
 40
20.0
 41
0.0
 71
     5
 72
     1
  1
\A1;317
  7
ED20
  0
POINT
  5
2223
100
AcDbEntity
  8
DEFPOINTS
  6
BYBLOCK
 62
     0
 48
3.0
100
AcDbPoint
 10
490.992867
 20
-602.585318
 30
0.0
  0
POINT
  5
2224
100
AcDbEntity
  8
DEFPOINTS
  6
BYBLOCK
 62
     0
 48
3.0
100
AcDbPoint
 10
807.992867
 20
-602.585318
 30
0.0
  0
POINT
  5
2225
100
AcDbEntity
  8
DEFPOINTS
  6
BYBLOCK
 62
     0
 48
3.0
100
AcDbPoint
 10
807.992867
 20
-652.148206
 30
0.0
  0
ENDBLK
  5
2226
100
AcDbEntity
  8
0
 48
3.0
100
AcDbBlockEnd
  0
BLOCK
  5
2227
100
AcDbEntity
  8
0
 48
3.0
100
AcDbBlockBegin
  2
*D39
 70
     1
 10
0.0
 20
0.0
 30
0.0
  3
*D39
  1

  0
LINE
  5
2228
100
AcDbEntity
  8
0
  6
BYBLOCK
 62
     0
 48
3.0
100
AcDbLine
 10
453.992867
 20
-493.085318
 30
0.0
 11
453.992867
 21
-653.398206
 31
0.0
  0
LINE
  5
2229
100
AcDbEntity
  8
0
  6
BYBLOCK
 62
     0
 48
3.0
100
AcDbLine
 10
490.992867
 20
-493.085318
 30
0.0
 11
490.992867
 21
-653.398206
 31
0.0
  0
LINE
  5
222A
100
AcDbEntity
  8
0
  6
BYBLOCK
 62
     0
 48
3.0
100
AcDbLine
 10
433.992867
 20
-652.148206
 30
0.0
 11
413.992867
 21
-652.148206
 31
0.0
  0
LINE
  5
222B
100
AcDbEntity
  8
0
  6
BYBLOCK
 62
     0
 48
3.0
100
AcDbLine
 10
510.992867
 20
-652.148206
 30
0.0
 11
530.992867
 21
-652.148206
 31
0.0
  0
LINE
  5
222C
100
AcDbEntity
  8
0
  6
BYBLOCK
 62
     0
 48
3.0
100
AcDbLine
 10
453.992867
 20
-652.148206
 30
0.0
 11
490.992867
 21
-652.148206
 31
0.0
  0
INSERT
  5
222D
100
AcDbEntity
  8
0
  6
BYBLOCK
 62
     0
 48
3.0
100
AcDbBlockReference
  2
_OPEN
 10
453.992867
 20
-652.148206
 30
0.0
 41
20.0
 42
20.0
 43
20.0
  0
INSERT
  5
222E
100
AcDbEntity
  8
0
  6
BYBLOCK
 62
     0
 48
3.0
100
AcDbBlockReference
  2
_OPEN
 10
490.992867
 20
-652.148206
 30
0.0
 41
20.0
 42
20.0
 43
20.0
 50
180.0
  0
MTEXT
  5
222F
100
AcDbEntity
  8
0
  6
BYBLOCK
 62
     0
 48
3.0
100
AcDbMText
 10
472.492867
 20
-640.148206
 30
0.0
 40
20.0
 41
0.0
 71
     5
 72
     1
  1
\A1;37
  7
ED20
  0
POINT
  5
2230
100
AcDbEntity
  8
DEFPOINTS
  6
BYBLOCK
 62
     0
 48
3.0
100
AcDbPoint
 10
453.992867
 20
-492.085318
 30
0.0
  0
POINT
  5
2231
100
AcDbEntity
  8
DEFPOINTS
  6
BYBLOCK
 62
     0
 48
3.0
100
AcDbPoint
 10
490.992867
 20
-492.085318
 30
0.0
  0
POINT
  5
2232
100
AcDbEntity
  8
DEFPOINTS
  6
BYBLOCK
 62
     0
 48
3.0
100
AcDbPoint
 10
490.992867
 20
-652.148206
 30
0.0
  0
ENDBLK
  5
2233
100
AcDbEntity
  8
0
 48
3.0
100
AcDbBlockEnd
  0
BLOCK
  5
2234
100
AcDbEntity
  8
0
 48
3.0
100
AcDbBlockBegin
  2
*D40
 70
     1
 10
0.0
 20
0.0
 30
0.0
  3
*D40
  1

  0
LINE
  5
2235
100
AcDbEntity
  8
0
  6
BYBLOCK
 62
     0
 48
3.0
100
AcDbLine
 10
807.992867
 20
-603.585318
 30
0.0
 11
807.992867
 21
-653.398206
 31
0.0
  0
LINE
  5
2236
100
AcDbEntity
  8
0
  6
BYBLOCK
 62
     0
 48
3.0
100
AcDbLine
 10
844.992867
 20
-493.085318
 30
0.0
 11
844.992867
 21
-653.398206
 31
0.0
  0
LINE
  5
2237
100
AcDbEntity
  8
0
  6
BYBLOCK
 62
     0
 48
3.0
100
AcDbLine
 10
787.992867
 20
-652.148206
 30
0.0
 11
767.992867
 21
-652.148206
 31
0.0
  0
LINE
  5
2238
100
AcDbEntity
  8
0
  6
BYBLOCK
 62
     0
 48
3.0
100
AcDbLine
 10
864.992867
 20
-652.148206
 30
0.0
 11
884.992867
 21
-652.148206
 31
0.0
  0
LINE
  5
2239
100
AcDbEntity
  8
0
  6
BYBLOCK
 62
     0
 48
3.0
100
AcDbLine
 10
807.992867
 20
-652.148206
 30
0.0
 11
844.992867
 21
-652.148206
 31
0.0
  0
INSERT
  5
223A
100
AcDbEntity
  8
0
  6
BYBLOCK
 62
     0
 48
3.0
100
AcDbBlockReference
  2
_OPEN
 10
807.992867
 20
-652.148206
 30
0.0
 41
20.0
 42
20.0
 43
20.0
  0
INSERT
  5
223B
100
AcDbEntity
  8
0
  6
BYBLOCK
 62
     0
 48
3.0
100
AcDbBlockReference
  2
_OPEN
 10
844.992867
 20
-652.148206
 30
0.0
 41
20.0
 42
20.0
 43
20.0
 50
180.0
  0
MTEXT
  5
223C
100
AcDbEntity
  8
0
  6
BYBLOCK
 62
     0
 48
3.0
100
AcDbMText
 10
826.492867
 20
-640.148206
 30
0.0
 40
20.0
 41
0.0
 71
     5
 72
     1
  1
\A1;37
  7
ED20
  0
POINT
  5
223D
100
AcDbEntity
  8
DEFPOINTS
  6
BYBLOCK
 62
     0
 48
3.0
100
AcDbPoint
 10
807.992867
 20
-602.585318
 30
0.0
  0
POINT
  5
223E
100
AcDbEntity
  8
DEFPOINTS
  6
BYBLOCK
 62
     0
 48
3.0
100
AcDbPoint
 10
844.992867
 20
-492.085318
 30
0.0
  0
POINT
  5
223F
100
AcDbEntity
  8
DEFPOINTS
  6
BYBLOCK
 62
     0
 48
3.0
100
AcDbPoint
 10
844.992867
 20
-652.148206
 30
0.0
  0
ENDBLK
  5
2240
100
AcDbEntity
  8
0
 48
3.0
100
AcDbBlockEnd
  0
BLOCK
  5
2241
100
AcDbEntity
  8
0
 48
3.0
100
AcDbBlockBegin
  2
*D41
 70
     1
 10
0.0
 20
0.0
 30
0.0
  3
*D41
  1

  0
LINE
  5
2242
100
AcDbEntity
  8
0
  6
BYBLOCK
 62
     0
 48
3.0
100
AcDbLine
 10
809.992867
 20
-309.585318
 30
0.0
 11
809.992867
 21
-275.791467
 31
0.0
  0
LINE
  5
2243
100
AcDbEntity
  8
0
  6
BYBLOCK
 62
     0
 48
3.0
100
AcDbLine
 10
488.992867
 20
-309.585318
 30
0.0
 11
488.992867
 21
-275.791467
 31
0.0
  0
LINE
  5
2244
100
AcDbEntity
  8
0
  6
BYBLOCK
 62
     0
 48
3.0
100
AcDbLine
 10
789.992867
 20
-277.041467
 30
0.0
 11
508.992867
 21
-277.041467
 31
0.0
  0
INSERT
  5
2245
100
AcDbEntity
  8
0
  6
BYBLOCK
 62
     0
 48
3.0
100
AcDbBlockReference
  2
_OPEN
 10
809.992867
 20
-277.041467
 30
0.0
 41
20.0
 42
20.0
 43
20.0
  0
INSERT
  5
2246
100
AcDbEntity
  8
0
  6
BYBLOCK
 62
     0
 48
3.0
100
AcDbBlockReference
  2
_OPEN
 10
488.992867
 20
-277.041467
 30
0.0
 41
20.0
 42
20.0
 43
20.0
 50
180.0
  0
MTEXT
  5
2247
100
AcDbEntity
  8
0
  6
BYBLOCK
 62
     0
 48
3.0
100
AcDbMText
 10
649.492867
 20
-265.039499
 30
0.0
 40
20.0
 41
0.0
 71
     5
 72
     1
  1
\A1;321
  7
ED20
  0
POINT
  5
2248
100
AcDbEntity
  8
DEFPOINTS
  6
BYBLOCK
 62
     0
 48
3.0
100
AcDbPoint
 10
809.992867
 20
-310.585318
 30
0.0
  0
POINT
  5
2249
100
AcDbEntity
  8
DEFPOINTS
  6
BYBLOCK
 62
     0
 48
3.0
100
AcDbPoint
 10
488.992867
 20
-310.585318
 30
0.0
  0
POINT
  5
224A
100
AcDbEntity
  8
DEFPOINTS
  6
BYBLOCK
 62
     0
 48
3.0
100
AcDbPoint
 10
488.992867
 20
-277.041467
 30
0.0
  0
ENDBLK
  5
224B
100
AcDbEntity
  8
0
 48
3.0
100
AcDbBlockEnd
  0
BLOCK
  5
224C
100
AcDbEntity
  8
0
 48
3.0
100
AcDbBlockBegin
  2
*D42
 70
     1
 10
0.0
 20
0.0
 30
0.0
  3
*D42
  1

  0
LINE
  5
224D
100
AcDbEntity
  8
0
  6
BYBLOCK
 62
     0
 48
3.0
100
AcDbLine
 10
1036.827992
 20
-309.585318
 30
0.0
 11
1036.827992
 21
-254.147511
 31
0.0
  0
LINE
  5
224E
100
AcDbEntity
  8
0
  6
BYBLOCK
 62
     0
 48
3.0
100
AcDbLine
 10
1400.827992
 20
-309.585318
 30
0.0
 11
1400.827992
 21
-254.147511
 31
0.0
  0
LINE
  5
224F
100
AcDbEntity
  8
0
  6
BYBLOCK
 62
     0
 48
3.0
100
AcDbLine
 10
1056.827992
 20
-255.397511
 30
0.0
 11
1380.827992
 21
-255.397511
 31
0.0
  0
INSERT
  5
2250
100
AcDbEntity
  8
0
  6
BYBLOCK
 62
     0
 48
3.0
100
AcDbBlockReference
  2
_OPEN
 10
1036.827992
 20
-255.397511
 30
0.0
 41
20.0
 42
20.0
 43
20.0
 50
180.0
  0
INSERT
  5
2251
100
AcDbEntity
  8
0
  6
BYBLOCK
 62
     0
 48
3.0
100
AcDbBlockReference
  2
_OPEN
 10
1400.827992
 20
-255.397511
 30
0.0
 41
20.0
 42
20.0
 43
20.0
  0
MTEXT
  5
2252
100
AcDbEntity
  8
0
  6
BYBLOCK
 62
     0
 48
3.0
100
AcDbMText
 10
1209.07335
 20
-243.397511
 30
0.0
 40
20.0
 41
0.0
 71
     5
 72
     1
  1
\A1;364
  7
ED20
  0
POINT
  5
2253
100
AcDbEntity
  8
DEFPOINTS
  6
BYBLOCK
 62
     0
 48
3.0
100
AcDbPoint
 10
1036.827992
 20
-310.585318
 30
0.0
  0
POINT
  5
2254
100
AcDbEntity
  8
DEFPOINTS
  6
BYBLOCK
 62
     0
 48
3.0
100
AcDbPoint
 10
1400.827992
 20
-310.585318
 30
0.0
  0
POINT
  5
2255
100
AcDbEntity
  8
DEFPOINTS
  6
BYBLOCK
 62
     0
 48
3.0
100
AcDbPoint
 10
1400.827992
 20
-255.397511
 30
0.0
  0
ENDBLK
  5
2256
100
AcDbEntity
  8
0
 48
3.0
100
AcDbBlockEnd
  0
BLOCK
  5
2257
100
AcDbEntity
  8
0
 48
3.0
100
AcDbBlockBegin
  2
*D43
 70
     1
 10
0.0
 20
0.0
 30
0.0
  3
*D43
  1

  0
LINE
  5
2258
100
AcDbEntity
  8
0
  6
BYBLOCK
 62
     0
 48
3.0
100
AcDbLine
 10
487.992867
 20
-10.585318
 30
0.0
 11
439.849212
 21
-10.585318
 31
0.0
  0
LINE
  5
2259
100
AcDbEntity
  8
0
  6
BYBLOCK
 62
     0
 48
3.0
100
AcDbLine
 10
487.992867
 20
-310.585318
 30
0.0
 11
439.849212
 21
-310.585318
 31
0.0
  0
LINE
  5
225A
100
AcDbEntity
  8
0
  6
BYBLOCK
 62
     0
 48
3.0
100
AcDbLine
 10
441.099212
 20
-30.585318
 30
0.0
 11
441.099212
 21
-290.585318
 31
0.0
  0
INSERT
  5
225B
100
AcDbEntity
  8
0
  6
BYBLOCK
 62
     0
 48
3.0
100
AcDbBlockReference
  2
_OPEN
 10
441.099212
 20
-10.585318
 30
0.0
 41
20.0
 42
20.0
 43
20.0
 50
90.0
  0
INSERT
  5
225C
100
AcDbEntity
  8
0
  6
BYBLOCK
 62
     0
 48
3.0
100
AcDbBlockReference
  2
_OPEN
 10
441.099212
 20
-310.585318
 30
0.0
 41
20.0
 42
20.0
 43
20.0
 50
270.0
  0
MTEXT
  5
225D
100
AcDbEntity
  8
0
  6
BYBLOCK
 62
     0
 48
3.0
100
AcDbMText
 10
429.099212
 20
-160.585318
 30
0.0
 40
20.0
 41
0.0
 71
     5
 72
     1
  1
\A1;300
  7
ED20
 11
0.0
 21
1.0
 31
0.0
  0
POINT
  5
225E
100
AcDbEntity
  8
DEFPOINTS
  6
BYBLOCK
 62
     0
 48
3.0
100
AcDbPoint
 10
488.992867
 20
-10.585318
 30
0.0
  0
POINT
  5
225F
100
AcDbEntity
  8
DEFPOINTS
  6
BYBLOCK
 62
     0
 48
3.0
100
AcDbPoint
 10
488.992867
 20
-310.585318
 30
0.0
  0
POINT
  5
2260
100
AcDbEntity
  8
DEFPOINTS
  6
BYBLOCK
 62
     0
 48
3.0
100
AcDbPoint
 10
441.099212
 20
-310.585318
 30
0.0
  0
ENDBLK
  5
2261
100
AcDbEntity
  8
0
 48
3.0
100
AcDbBlockEnd
  0
BLOCK
  5
246F
100
AcDbEntity
  8
0
 48
3.0
100
AcDbBlockBegin
  2
*D44
 70
     1
 10
0.0
 20
0.0
 30
0.0
  3
*D44
  1

  0
LINE
  5
2470
100
AcDbEntity
  8
0
  6
BYBLOCK
 62
     0
 48
3.0
100
AcDbLine
 10
66.0
 20
74.5
 30
0.0
 11
107.945246
 21
74.5
 31
0.0
  0
LINE
  5
2471
100
AcDbEntity
  8
0
  6
BYBLOCK
 62
     0
 48
3.0
100
AcDbLine
 10
66.0
 20
-74.858737
 30
0.0
 11
107.945246
 21
-74.858737
 31
0.0
  0
LINE
  5
2472
100
AcDbEntity
  8
0
  6
BYBLOCK
 62
     0
 48
3.0
100
AcDbLine
 10
106.695246
 20
54.5
 30
0.0
 11
106.695246
 21
-54.858737
 31
0.0
  0
INSERT
  5
2473
100
AcDbEntity
  8
0
  6
BYBLOCK
 62
     0
 48
3.0
100
AcDbBlockReference
  2
_OPEN
 10
106.695246
 20
74.5
 30
0.0
 41
20.0
 42
20.0
 43
20.0
 50
90.0
  0
INSERT
  5
2474
100
AcDbEntity
  8
0
  6
BYBLOCK
 62
     0
 48
3.0
100
AcDbBlockReference
  2
_OPEN
 10
106.695246
 20
-74.858737
 30
0.0
 41
20.0
 42
20.0
 43
20.0
 50
270.0
  0
MTEXT
  5
2475
100
AcDbEntity
  8
0
  6
BYBLOCK
 62
     0
 48
3.0
100
AcDbMText
 10
94.695246
 20
-0.179369
 30
0.0
 40
20.0
 41
0.0
 71
     5
 72
     1
  1
\A1;\U+2205149
  7
ED20
 11
0.0
 21
1.0
 31
0.0
  0
POINT
  5
2476
100
AcDbEntity
  8
DEFPOINTS
  6
BYBLOCK
 62
     0
 48
3.0
100
AcDbPoint
 10
65.0
 20
74.5
 30
0.0
  0
POINT
  5
2477
100
AcDbEntity
  8
DEFPOINTS
  6
BYBLOCK
 62
     0
 48
3.0
100
AcDbPoint
 10
65.0
 20
-74.858737
 30
0.0
  0
POINT
  5
2478
100
AcDbEntity
  8
DEFPOINTS
  6
BYBLOCK
 62
     0
 48
3.0
100
AcDbPoint
 10
106.695246
 20
-74.858737
 30
0.0
  0
ENDBLK
  5
2479
100
AcDbEntity
  8
0
 48
3.0
100
AcDbBlockEnd
  0
BLOCK
  5
22AB
100
AcDbEntity
  8
0
 48
3.0
100
AcDbBlockBegin
  2
*D45
 70
     1
 10
0.0
 20
0.0
 30
0.0
  3
*D45
  1

  0
LINE
  5
22AC
100
AcDbEntity
  8
0
  6
BYBLOCK
 62
     0
 48
3.0
100
AcDbLine
 10
-282.280771
 20
48.810584
 30
0.0
 11
-212.988677
 21
23.242336
 31
0.0
  0
LINE
  5
22AD
100
AcDbEntity
  8
0
  6
BYBLOCK
 62
     0
 48
3.0
100
AcDbLine
 10
-87.011323
 20
-23.242336
 30
0.0
 11
-72.938786
 21
-28.434994
 31
0.0
  0
MTEXT
  5
22AE
100
AcDbEntity
  8
0
  6
BYBLOCK
 62
     0
 48
3.0
100
AcDbMText
 10
-266.427167
 20
49.889115
 30
0.0
 40
10.0
 41
0.0
 71
     5
 72
     1
  1
\A1;\U+2205104
  7
ED10
 11
0.938169
 21
-0.346177
 31
0.0
  0
LINE
  5
22AF
100
AcDbEntity
  8
0
  6
BYBLOCK
 62
     0
 48
3.0
100
AcDbLine
 10
-101.08386
 20
-18.049678
 30
0.0
 11
-198.91614
 21
18.049678
 31
0.0
  0
INSERT
  5
22B0
100
AcDbEntity
  8
0
  6
BYBLOCK
 62
     0
 48
3.0
100
AcDbBlockReference
  2
_OPEN
 10
-101.08386
 20
-18.049678
 30
0.0
 41
15.0
 42
15.0
 43
15.0
 50
159.746328
  0
INSERT
  5
22B1
100
AcDbEntity
  8
0
  6
BYBLOCK
 62
     0
 48
3.0
100
AcDbBlockReference
  2
_OPEN
 10
-198.91614
 20
18.049678
 30
0.0
 41
15.0
 42
15.0
 43
15.0
 50
339.746328
  0
POINT
  5
22B2
100
AcDbEntity
  8
DEFPOINTS
  6
BYBLOCK
 62
     0
 48
3.0
100
AcDbPoint
 10
-198.91614
 20
18.049678
 30
0.0
  0
POINT
  5
22B3
100
AcDbEntity
  8
DEFPOINTS
  6
BYBLOCK
 62
     0
 48
3.0
100
AcDbPoint
 10
-101.08386
 20
-18.049678
 30
0.0
  0
ENDBLK
  5
22B4
100
AcDbEntity
  8
0
 48
3.0
100
AcDbBlockEnd
  0
BLOCK
  5
2311
100
AcDbEntity
  8
0
 48
3.0
100
AcDbBlockBegin
  2
*D46
 70
     1
 10
0.0
 20
0.0
 30
0.0
  3
*D46
  1

  0
LINE
  5
2312
100
AcDbEntity
  8
0
  6
BYBLOCK
 62
     0
 48
3.0
100
AcDbLine
 10
-239.90323
 20
69.138681
 30
0.0
 11
-201.23792
 21
39.403725
 31
0.0
  0
LINE
  5
2313
100
AcDbEntity
  8
0
  6
BYBLOCK
 62
     0
 48
3.0
100
AcDbLine
 10
-98.76208
 20
-39.403725
 30
0.0
 11
-86.871592
 21
-48.54792
 31
0.0
  0
MTEXT
  5
2314
100
AcDbEntity
  8
0
  6
BYBLOCK
 62
     0
 48
3.0
100
AcDbMText
 10
-226.527095
 20
67.051803
 30
0.0
 40
10.0
 41
0.0
 71
     5
 72
     1
  1
\A1;\U+220599
  7
ED10
 11
0.792699
 21
-0.609613
 31
0.0
  0
LINE
  5
2315
100
AcDbEntity
  8
0
  6
BYBLOCK
 62
     0
 48
3.0
100
AcDbLine
 10
-110.652568
 20
-30.25953
 30
0.0
 11
-189.347432
 21
30.25953
 31
0.0
  0
INSERT
  5
2316
100
AcDbEntity
  8
0
  6
BYBLOCK
 62
     0
 48
3.0
100
AcDbBlockReference
  2
_OPEN
 10
-110.652568
 20
-30.25953
 30
0.0
 41
15.0
 42
15.0
 43
15.0
 50
142.438476
  0
INSERT
  5
2317
100
AcDbEntity
  8
0
  6
BYBLOCK
 62
     0
 48
3.0
100
AcDbBlockReference
  2
_OPEN
 10
-189.347432
 20
30.25953
 30
0.0
 41
15.0
 42
15.0
 43
15.0
 50
322.438476
  0
POINT
  5
2318
100
AcDbEntity
  8
DEFPOINTS
  6
BYBLOCK
 62
     0
 48
3.0
100
AcDbPoint
 10
-189.347432
 20
30.25953
 30
0.0
  0
POINT
  5
2319
100
AcDbEntity
  8
DEFPOINTS
  6
BYBLOCK
 62
     0
 48
3.0
100
AcDbPoint
 10
-110.652568
 20
-30.25953
 30
0.0
  0
ENDBLK
  5
231A
100
AcDbEntity
  8
0
 48
3.0
100
AcDbBlockEnd
  0
BLOCK
  5
231F
100
AcDbEntity
  8
0
 48
3.0
100
AcDbBlockBegin
  2
*D47
 70
     1
 10
0.0
 20
0.0
 30
0.0
  3
*D47
  1

  0
LINE
  5
2320
100
AcDbEntity
  8
0
  6
BYBLOCK
 62
     0
 48
3.0
100
AcDbLine
 10
-334.031959
 20
86.06535
 30
0.0
 11
-297.526835
 21
63.326547
 31
0.0
  0
LINE
  5
2321
100
AcDbEntity
  8
0
  6
BYBLOCK
 62
     0
 48
3.0
100
AcDbLine
 10
-94.196571
 20
-63.326547
 30
0.0
 11
-81.464557
 21
-71.257236
 31
0.0
  0
MTEXT
  5
2322
100
AcDbEntity
  8
0
  6
BYBLOCK
 62
     0
 48
3.0
100
AcDbMText
 10
-318.708252
 20
84.179334
 30
0.0
 40
10.0
 41
0.0
 71
     5
 72
     1
  1
\A1;\U+2205210
  7
ED10
 11
0.848801
 21
-0.528713
 31
0.0
  0
LINE
  5
2323
100
AcDbEntity
  8
0
  6
BYBLOCK
 62
     0
 48
3.0
100
AcDbLine
 10
-106.928586
 20
-55.395859
 30
0.0
 11
-284.794821
 21
55.395859
 31
0.0
  0
INSERT
  5
2324
100
AcDbEntity
  8
0
  6
BYBLOCK
 62
     0
 48
3.0
100
AcDbBlockReference
  2
_OPEN
 10
-106.928586
 20
-55.395859
 30
0.0
 41
15.0
 42
15.0
 43
15.0
 50
148.081491
  0
INSERT
  5
2325
100
AcDbEntity
  8
0
  6
BYBLOCK
 62
     0
 48
3.0
100
AcDbBlockReference
  2
_OPEN
 10
-284.794821
 20
55.395859
 30
0.0
 41
15.0
 42
15.0
 43
15.0
 50
328.081491
  0
POINT
  5
2326
100
AcDbEntity
  8
DEFPOINTS
  6
BYBLOCK
 62
     0
 48
3.0
100
AcDbPoint
 10
-284.794821
 20
55.395859
 30
0.0
  0
POINT
  5
2327
100
AcDbEntity
  8
DEFPOINTS
  6
BYBLOCK
 62
     0
 48
3.0
100
AcDbPoint
 10
-106.928586
 20
-55.395859
 30
0.0
  0
ENDBLK
  5
2328
100
AcDbEntity
  8
0
 48
3.0
100
AcDbBlockEnd
  0
BLOCK
  5
239B
100
AcDbEntity
  8
0
 48
3.0
100
AcDbBlockBegin
  2
*D48
 70
     1
 10
0.0
 20
0.0
 30
0.0
  3
*D48
  1

  0
LINE
  5
239C
100
AcDbEntity
  8
0
  6
BYBLOCK
 62
     0
 48
3.0
100
AcDbLine
 10
-392.702608
 20
87.406668
 30
0.0
 11
-267.185468
 21
31.671123
 31
0.0
  0
LINE
  5
239D
100
AcDbEntity
  8
0
  6
BYBLOCK
 62
     0
 48
3.0
100
AcDbLine
 10
-124.537939
 20
-31.671123
 30
0.0
 11
-110.828746
 21
-37.758653
 31
0.0
  0
MTEXT
  5
239E
100
AcDbEntity
  8
0
  6
BYBLOCK
 62
     0
 48
3.0
100
AcDbMText
 10
-377.042344
 20
87.565863
 30
0.0
 40
10.0
 41
0.0
 71
     5
 72
     1
  1
\A1;\U+2205126
  7
ED10
 11
0.913946
 21
-0.405835
 31
0.0
  0
LINE
  5
239F
100
AcDbEntity
  8
0
  6
BYBLOCK
 62
     0
 48
3.0
100
AcDbLine
 10
-138.247132
 20
-25.583594
 30
0.0
 11
-253.476275
 21
25.583594
 31
0.0
  0
INSERT
  5
23A0
100
AcDbEntity
  8
0
  6
BYBLOCK
 62
     0
 48
3.0
100
AcDbBlockReference
  2
_OPEN
 10
-138.247132
 20
-25.583594
 30
0.0
 41
15.0
 42
15.0
 43
15.0
 50
156.056516
  0
INSERT
  5
23A1
100
AcDbEntity
  8
0
  6
BYBLOCK
 62
     0
 48
3.0
100
AcDbBlockReference
  2
_OPEN
 10
-253.476275
 20
25.583594
 30
0.0
 41
15.0
 42
15.0
 43
15.0
 50
336.056516
  0
POINT
  5
23A2
100
AcDbEntity
  8
DEFPOINTS
  6
BYBLOCK
 62
     0
 48
3.0
100
AcDbPoint
 10
-253.476275
 20
25.583594
 30
0.0
  0
POINT
  5
23A3
100
AcDbEntity
  8
DEFPOINTS
  6
BYBLOCK
 62
     0
 48
3.0
100
AcDbPoint
 10
-138.247132
 20
-25.583594
 30
0.0
  0
ENDBLK
  5
23A4
100
AcDbEntity
  8
0
 48
3.0
100
AcDbBlockEnd
  0
BLOCK
  5
244D
100
AcDbEntity
  8
0
 48
3.0
100
AcDbBlockBegin
  2
*D49
 70
     1
 10
0.0
 20
0.0
 30
0.0
  3
*D49
  1

  0
LINE
  5
244E
100
AcDbEntity
  8
0
  6
BYBLOCK
 62
     0
 48
3.0
100
AcDbLine
 10
-444.693914
 20
82.815512
 30
0.0
 11
-372.831839
 21
52.446135
 31
0.0
  0
LINE
  5
244F
100
AcDbEntity
  8
0
  6
BYBLOCK
 62
     0
 48
3.0
100
AcDbLine
 10
-124.628653
 20
-52.446135
 30
0.0
 11
-106.206199
 21
-60.231583
 31
0.0
  0
MTEXT
  5
2450
100
AcDbEntity
  8
0
  6
BYBLOCK
 62
     0
 48
3.0
100
AcDbMText
 10
-413.302068
 20
82.578833
 30
0.0
 40
20.0
 41
0.0
 71
     5
 72
     1
  1
\A1;\U+2205230
  7
ED20
 11
0.921123
 21
-0.389272
 31
0.0
  0
LINE
  5
2451
100
AcDbEntity
  8
0
  6
BYBLOCK
 62
     0
 48
3.0
100
AcDbLine
 10
-143.051107
 20
-44.660687
 30
0.0
 11
-354.409385
 21
44.660687
 31
0.0
  0
INSERT
  5
2452
100
AcDbEntity
  8
0
  6
BYBLOCK
 62
     0
 48
3.0
100
AcDbBlockReference
  2
_OPEN
 10
-143.051107
 20
-44.660687
 30
0.0
 41
20.0
 42
20.0
 43
20.0
 50
157.090767
  0
INSERT
  5
2453
100
AcDbEntity
  8
0
  6
BYBLOCK
 62
     0
 48
3.0
100
AcDbBlockReference
  2
_OPEN
 10
-354.409385
 20
44.660687
 30
0.0
 41
20.0
 42
20.0
 43
20.0
 50
337.090767
  0
POINT
  5
2454
100
AcDbEntity
  8
DEFPOINTS
  6
BYBLOCK
 62
     0
 48
3.0
100
AcDbPoint
 10
-354.409385
 20
44.660687
 30
0.0
  0
POINT
  5
2455
100
AcDbEntity
  8
DEFPOINTS
  6
BYBLOCK
 62
     0
 48
3.0
100
AcDbPoint
 10
-143.051107
 20
-44.660687
 30
0.0
  0
ENDBLK
  5
2456
100
AcDbEntity
  8
0
 48
3.0
100
AcDbBlockEnd
  0
BLOCK
  5
249D
100
AcDbEntity
  8
0
 48
3.0
100
AcDbBlockBegin
  2
*D50
 70
     1
 10
0.0
 20
0.0
 30
0.0
  3
*D50
  1

  0
LINE
  5
249E
100
AcDbEntity
  8
0
  6
BYBLOCK
 62
     0
 48
3.0
100
AcDbLine
 10
0.0
 20
-116.358737
 30
0.0
 11
0.0
 21
-167.387417
 31
0.0
  0
LINE
  5
249F
100
AcDbEntity
  8
0
  6
BYBLOCK
 62
     0
 48
3.0
100
AcDbLine
 10
80.0
 20
-75.858737
 30
0.0
 11
80.0
 21
-167.387417
 31
0.0
  0
LINE
  5
24A0
100
AcDbEntity
  8
0
  6
BYBLOCK
 62
     0
 48
3.0
100
AcDbLine
 10
20.0
 20
-166.137417
 30
0.0
 11
60.0
 21
-166.137417
 31
0.0
  0
INSERT
  5
24A1
100
AcDbEntity
  8
0
  6
BYBLOCK
 62
     0
 48
3.0
100
AcDbBlockReference
  2
_OPEN
 10
0.0
 20
-166.137417
 30
0.0
 41
20.0
 42
20.0
 43
20.0
 50
180.0
  0
INSERT
  5
24A2
100
AcDbEntity
  8
0
  6
BYBLOCK
 62
     0
 48
3.0
100
AcDbBlockReference
  2
_OPEN
 10
80.0
 20
-166.137417
 30
0.0
 41
20.0
 42
20.0
 43
20.0
  0
MTEXT
  5
24A3
100
AcDbEntity
  8
0
  6
BYBLOCK
 62
     0
 48
3.0
100
AcDbMText
 10
40.0
 20
-154.137417
 30
0.0
 40
20.0
 41
0.0
 71
     5
 72
     1
  1
\A1;80
  7
ED20
  0
POINT
  5
24A4
100
AcDbEntity
  8
DEFPOINTS
  6
BYBLOCK
 62
     0
 48
3.0
100
AcDbPoint
 10
0.0
 20
-115.358737
 30
0.0
  0
POINT
  5
24A5
100
AcDbEntity
  8
DEFPOINTS
  6
BYBLOCK
 62
     0
 48
3.0
100
AcDbPoint
 10
80.0
 20
-74.858737
 30
0.0
  0
POINT
  5
24A6
100
AcDbEntity
  8
DEFPOINTS
  6
BYBLOCK
 62
     0
 48
3.0
100
AcDbPoint
 10
80.0
 20
-166.137417
 30
0.0
  0
ENDBLK
  5
24A7
100
AcDbEntity
  8
0
 48
3.0
100
AcDbBlockEnd
  0
BLOCK
  5
24F0
100
AcDbEntity
  8
0
 48
3.0
100
AcDbBlockBegin
  2
*D51
 70
     1
 10
0.0
 20
0.0
 30
0.0
  3
*D51
  1

  0
LINE
  5
24F1
100
AcDbEntity
  8
0
  6
BYBLOCK
 62
     0
 48
3.0
100
AcDbLine
 10
-44.342422
 20
75.5
 30
0.0
 11
-44.342422
 21
134.709669
 31
0.0
  0
LINE
  5
24F2
100
AcDbEntity
  8
0
  6
BYBLOCK
 62
     0
 48
3.0
100
AcDbLine
 10
-4.342422
 20
77.0
 30
0.0
 11
-4.342422
 21
134.709669
 31
0.0
  0
LINE
  5
24F3
100
AcDbEntity
  8
0
  6
BYBLOCK
 62
     0
 48
3.0
100
AcDbLine
 10
-64.342422
 20
133.459669
 30
0.0
 11
-84.342422
 21
133.459669
 31
0.0
  0
LINE
  5
24F4
100
AcDbEntity
  8
0
  6
BYBLOCK
 62
     0
 48
3.0
100
AcDbLine
 10
15.657578
 20
133.459669
 30
0.0
 11
35.657578
 21
133.459669
 31
0.0
  0
LINE
  5
24F5
100
AcDbEntity
  8
0
  6
BYBLOCK
 62
     0
 48
3.0
100
AcDbLine
 10
-44.342422
 20
133.459669
 30
0.0
 11
-4.342422
 21
133.459669
 31
0.0
  0
INSERT
  5
24F6
100
AcDbEntity
  8
0
  6
BYBLOCK
 62
     0
 48
3.0
100
AcDbBlockReference
  2
_OPEN
 10
-44.342422
 20
133.459669
 30
0.0
 41
20.0
 42
20.0
 43
20.0
  0
INSERT
  5
24F7
100
AcDbEntity
  8
0
  6
BYBLOCK
 62
     0
 48
3.0
100
AcDbBlockReference
  2
_OPEN
 10
-4.342422
 20
133.459669
 30
0.0
 41
20.0
 42
20.0
 43
20.0
 50
180.0
  0
MTEXT
  5
24F8
100
AcDbEntity
  8
0
  6
BYBLOCK
 62
     0
 48
3.0
100
AcDbMText
 10
-24.342422
 20
145.459669
 30
0.0
 40
20.0
 41
0.0
 71
     5
 72
     1
  1
\A1;40
  7
ED20
  0
POINT
  5
24F9
100
AcDbEntity
  8
DEFPOINTS
  6
BYBLOCK
 62
     0
 48
3.0
100
AcDbPoint
 10
-44.342422
 20
74.5
 30
0.0
  0
POINT
  5
24FA
100
AcDbEntity
  8
DEFPOINTS
  6
BYBLOCK
 62
     0
 48
3.0
100
AcDbPoint
 10
-4.342422
 20
76.0
 30
0.0
  0
POINT
  5
24FB
100
AcDbEntity
  8
DEFPOINTS
  6
BYBLOCK
 62
     0
 48
3.0
100
AcDbPoint
 10
-4.342422
 20
133.459669
 30
0.0
  0
ENDBLK
  5
24FC
100
AcDbEntity
  8
0
 48
3.0
100
AcDbBlockEnd
  0
BLOCK
  5
24FD
100
AcDbEntity
  8
0
 48
3.0
100
AcDbBlockBegin
  2
*D52
 70
     1
 10
0.0
 20
0.0
 30
0.0
  3
*D52
  1

  0
LINE
  5
24FE
100
AcDbEntity
  8
0
  6
BYBLOCK
 62
     0
 48
3.0
100
AcDbLine
 10
29.657578
 20
115.0
 30
0.0
 11
-113.177657
 21
115.0
 31
0.0
  0
LINE
  5
24FF
100
AcDbEntity
  8
0
  6
BYBLOCK
 62
     0
 48
3.0
100
AcDbLine
 10
29.657578
 20
-115.358737
 30
0.0
 11
-113.177657
 21
-115.358737
 31
0.0
  0
LINE
  5
2500
100
AcDbEntity
  8
0
  6
BYBLOCK
 62
     0
 48
3.0
100
AcDbLine
 10
-111.927657
 20
95.0
 30
0.0
 11
-111.927657
 21
-95.358737
 31
0.0
  0
INSERT
  5
2501
100
AcDbEntity
  8
0
  6
BYBLOCK
 62
     0
 48
3.0
100
AcDbBlockReference
  2
_OPEN
 10
-111.927657
 20
115.0
 30
0.0
 41
20.0
 42
20.0
 43
20.0
 50
90.0
  0
INSERT
  5
2502
100
AcDbEntity
  8
0
  6
BYBLOCK
 62
     0
 48
3.0
100
AcDbBlockReference
  2
_OPEN
 10
-111.927657
 20
-115.358737
 30
0.0
 41
20.0
 42
20.0
 43
20.0
 50
270.0
  0
MTEXT
  5
2503
100
AcDbEntity
  8
0
  6
BYBLOCK
 62
     0
 48
3.0
100
AcDbMText
 10
-123.929625
 20
-0.179369
 30
0.0
 40
20.0
 41
0.0
 71
     5
 72
     1
  1
\A1;\U+2205230
  7
ED20
 11
0.0
 21
1.0
 31
0.0
  0
POINT
  5
2504
100
AcDbEntity
  8
DEFPOINTS
  6
BYBLOCK
 62
     0
 48
3.0
100
AcDbPoint
 10
30.657578
 20
115.0
 30
0.0
  0
POINT
  5
2505
100
AcDbEntity
  8
DEFPOINTS
  6
BYBLOCK
 62
     0
 48
3.0
100
AcDbPoint
 10
30.657578
 20
-115.358737
 30
0.0
  0
POINT
  5
2506
100
AcDbEntity
  8
DEFPOINTS
  6
BYBLOCK
 62
     0
 48
3.0
100
AcDbPoint
 10
-111.927657
 20
-115.358737
 30
0.0
  0
ENDBLK
  5
2507
100
AcDbEntity
  8
0
 48
3.0
100
AcDbBlockEnd
  0
BLOCK
  5
2508
100
AcDbEntity
  8
0
 48
3.0
100
AcDbBlockBegin
  2
*D53
 70
     1
 10
0.0
 20
0.0
 30
0.0
  3
*D53
  1

  0
LINE
  5
2509
100
AcDbEntity
  8
0
  6
BYBLOCK
 62
     0
 48
3.0
100
AcDbLine
 10
-45.342422
 20
74.5
 30
0.0
 11
-87.287667
 21
74.5
 31
0.0
  0
LINE
  5
250A
100
AcDbEntity
  8
0
  6
BYBLOCK
 62
     0
 48
3.0
100
AcDbLine
 10
-45.342422
 20
-74.858737
 30
0.0
 11
-87.287667
 21
-74.858737
 31
0.0
  0
LINE
  5
250B
100
AcDbEntity
  8
0
  6
BYBLOCK
 62
     0
 48
3.0
100
AcDbLine
 10
-86.037667
 20
54.5
 30
0.0
 11
-86.037667
 21
-54.858737
 31
0.0
  0
INSERT
  5
250C
100
AcDbEntity
  8
0
  6
BYBLOCK
 62
     0
 48
3.0
100
AcDbBlockReference
  2
_OPEN
 10
-86.037667
 20
74.5
 30
0.0
 41
20.0
 42
20.0
 43
20.0
 50
90.0
  0
INSERT
  5
250D
100
AcDbEntity
  8
0
  6
BYBLOCK
 62
     0
 48
3.0
100
AcDbBlockReference
  2
_OPEN
 10
-86.037667
 20
-74.858737
 30
0.0
 41
20.0
 42
20.0
 43
20.0
 50
270.0
  0
MTEXT
  5
250E
100
AcDbEntity
  8
0
  6
BYBLOCK
 62
     0
 48
3.0
100
AcDbMText
 10
-98.037667
 20
-0.179369
 30
0.0
 40
20.0
 41
0.0
 71
     5
 72
     1
  1
\A1;\U+2205149
  7
ED20
 11
0.0
 21
1.0
 31
0.0
  0
POINT
  5
250F
100
AcDbEntity
  8
DEFPOINTS
  6
BYBLOCK
 62
     0
 48
3.0
100
AcDbPoint
 10
-44.342422
 20
74.5
 30
0.0
  0
POINT
  5
2510
100
AcDbEntity
  8
DEFPOINTS
  6
BYBLOCK
 62
     0
 48
3.0
100
AcDbPoint
 10
-44.342422
 20
-74.858737
 30
0.0
  0
POINT
  5
2511
100
AcDbEntity
  8
DEFPOINTS
  6
BYBLOCK
 62
     0
 48
3.0
100
AcDbPoint
 10
-86.037667
 20
-74.858737
 30
0.0
  0
ENDBLK
  5
2512
100
AcDbEntity
  8
0
 48
3.0
100
AcDbBlockEnd
  0
BLOCK
  5
2520
100
AcDbEntity
  8
0
 48
3.0
100
AcDbBlockBegin
  2
*D54
 70
     1
 10
0.0
 20
0.0
 30
0.0
  3
*D54
  1

  0
LINE
  5
2521
100
AcDbEntity
  8
0
  6
BYBLOCK
 62
     0
 48
3.0
100
AcDbLine
 10
-43.342422
 20
-75.858737
 30
0.0
 11
-43.342422
 21
-156.051053
 31
0.0
  0
LINE
  5
2522
100
AcDbEntity
  8
0
  6
BYBLOCK
 62
     0
 48
3.0
100
AcDbLine
 10
116.657578
 20
-75.858737
 30
0.0
 11
116.657578
 21
-156.051053
 31
0.0
  0
LINE
  5
2523
100
AcDbEntity
  8
0
  6
BYBLOCK
 62
     0
 48
3.0
100
AcDbLine
 10
-23.342422
 20
-154.801053
 30
0.0
 11
96.657578
 21
-154.801053
 31
0.0
  0
INSERT
  5
2524
100
AcDbEntity
  8
0
  6
BYBLOCK
 62
     0
 48
3.0
100
AcDbBlockReference
  2
_OPEN
 10
-43.342422
 20
-154.801053
 30
0.0
 41
20.0
 42
20.0
 43
20.0
 50
180.0
  0
INSERT
  5
2525
100
AcDbEntity
  8
0
  6
BYBLOCK
 62
     0
 48
3.0
100
AcDbBlockReference
  2
_OPEN
 10
116.657578
 20
-154.801053
 30
0.0
 41
20.0
 42
20.0
 43
20.0
  0
MTEXT
  5
2526
100
AcDbEntity
  8
0
  6
BYBLOCK
 62
     0
 48
3.0
100
AcDbMText
 10
36.657578
 20
-142.801053
 30
0.0
 40
20.0
 41
0.0
 71
     5
 72
     1
  1
\A1;160
  7
ED20
  0
POINT
  5
2527
100
AcDbEntity
  8
DEFPOINTS
  6
BYBLOCK
 62
     0
 48
3.0
100
AcDbPoint
 10
-43.342422
 20
-74.858737
 30
0.0
  0
POINT
  5
2528
100
AcDbEntity
  8
DEFPOINTS
  6
BYBLOCK
 62
     0
 48
3.0
100
AcDbPoint
 10
116.657578
 20
-74.858737
 30
0.0
  0
POINT
  5
2529
100
AcDbEntity
  8
DEFPOINTS
  6
BYBLOCK
 62
     0
 48
3.0
100
AcDbPoint
 10
116.657578
 20
-154.801053
 30
0.0
  0
ENDBLK
  5
252A
100
AcDbEntity
  8
0
 48
3.0
100
AcDbBlockEnd
  0
ENDSEC
  0
SECTION
  2
ENTITIES
  0
LINE
  5
1A88
100
AcDbEntity
  8
V0-ZBYTEK
  6
DASHDOT
100
AcDbLine
 10
-388.850997
 20
0.0
 30
0.0
 11
125.674388
 21
0.0
 31
0.0
  0
LINE
  5
1A8B
100
AcDbEntity
  8
V0-OBRYS
  6
CONTINUOUS
 48
3.0
100
AcDbLine
 10
115.657578
 20
0.0
 30
0.0
 11
115.657578
 21
74.5
 31
0.0
  0
LINE
  5
1A8C
100
AcDbEntity
  8
V0-OBRYS
  6
CONTINUOUS
 48
3.0
100
AcDbLine
 10
115.657578
 20
74.5
 30
0.0
 11
104.657578
 21
74.5
 31
0.0
  0
LINE
  5
1A8D
100
AcDbEntity
  8
V0-OBRYS
  6
CONTINUOUS
 48
3.0
100
AcDbLine
 10
40.657578
 20
74.5
 30
0.0
 11
40.657578
 21
0.0
 31
0.0
  0
LINE
  5
1A8E
100
AcDbEntity
  8
V0-OBRYS
  6
CONTINUOUS
 48
3.0
100
AcDbLine
 10
35.657578
 20
115.0
 30
0.0
 11
40.657578
 21
115.0
 31
0.0
  0
LINE
  5
1A8F
100
AcDbEntity
  8
V0-OBRYS
  6
CONTINUOUS
 48
3.0
100
AcDbLine
 10
40.657578
 20
115.0
 30
0.0
 11
40.657578
 21
74.5
 31
0.0
  0
LINE
  5
1A90
100
AcDbEntity
  8
V0-OBRYS
  6
CONTINUOUS
 48
3.0
100
AcDbLine
 10
75.657578
 20
0.0
 30
0.0
 11
75.657578
 21
77.0
 31
0.0
  0
LINE
  5
1A91
100
AcDbEntity
  8
V0-OBRYS
  6
CONTINUOUS
 48
3.0
100
AcDbLine
 10
75.657578
 20
77.0
 30
0.0
 11
72.657578
 21
77.0
 31
0.0
  0
LINE
  5
1A92
100
AcDbEntity
  8
V0-OBRYS
  6
CONTINUOUS
 48
3.0
100
AcDbLine
 10
72.657578
 20
77.0
 30
0.0
 11
72.657578
 21
0.0
 31
0.0
  0
LINE
  5
1A93
100
AcDbEntity
  8
V0-OBRYS
  6
CONTINUOUS
 48
3.0
100
AcDbLine
 10
104.657578
 20
0.0
 30
0.0
 11
104.657578
 21
80.0
 31
0.0
  0
LINE
  5
1A94
100
AcDbEntity
  8
V0-OBRYS
  6
CONTINUOUS
 48
3.0
100
AcDbLine
 10
104.657578
 20
80.0
 30
0.0
 11
104.157578
 21
80.0
 31
0.0
  0
LINE
  5
1A95
100
AcDbEntity
  8
V0-OBRYS
  6
CONTINUOUS
 48
3.0
100
AcDbLine
 10
104.157578
 20
80.0
 30
0.0
 11
104.157578
 21
0.0
 31
0.0
  0
LINE
  5
1A96
100
AcDbEntity
  8
V0-OBRYS
  6
CONTINUOUS
 48
3.0
100
AcDbLine
 10
95.657578
 20
0.0
 30
0.0
 11
95.657578
 21
76.0
 31
0.0
  0
LINE
  5
1A98
100
AcDbEntity
  8
V0-OBRYS
  6
CONTINUOUS
 48
3.0
100
AcDbLine
 10
40.657578
 20
76.0
 30
0.0
 11
72.657578
 21
76.0
 31
0.0
  0
LINE
  5
1A9A
100
AcDbEntity
  8
V0-OBRYS
  6
CONTINUOUS
 48
3.0
100
AcDbLine
 10
75.657578
 20
76.0
 30
0.0
 11
95.657578
 21
76.0
 31
0.0
  0
LINE
  5
1A9C
100
AcDbEntity
  8
V0-OBRYS
  6
CONTINUOUS
 48
3.0
100
AcDbLine
 10
104.157578
 20
74.5
 30
0.0
 11
95.657578
 21
74.5
 31
0.0
  0
LINE
  5
1A9E
100
AcDbEntity
  8
V0-ZBYTEK
  6
DASHDOT
100
AcDbLine
 10
-248.730246
 20
-136.530486
 30
0.0
 11
-248.730246
 21
135.946082
 31
0.0
  0
ARC
  5
1AA0
100
AcDbEntity
  8
V0-OBRYS
  6
CONTINUOUS
 48
3.0
100
AcDbCircle
 10
-248.730246
 20
0.0
 30
0.0
 40
114.728625
100
AcDbArc
 50
46.833778
 51
43.166222
  0
CIRCLE
  5
1AA3
100
AcDbEntity
  8
V0-OBRYS
  6
CONTINUOUS
 48
3.0
100
AcDbCircle
 10
-249.800246
 20
0.0
 30
0.0
 40
69.028083
  0
CIRCLE
  5
1AA6
100
AcDbEntity
  8
V0-OBRYS
  6
CONTINUOUS
 48
3.0
100
AcDbCircle
 10
-249.800246
 20
0.0
 30
0.0
 40
82.60461
  0
CIRCLE
  5
1AA7
100
AcDbEntity
  8
V0-OBRYS
  6
CONTINUOUS
 48
3.0
100
AcDbCircle
 10
-249.800246
 20
0.0
 30
0.0
 40
33.414143
  0
ARC
  5
1AA8
100
AcDbEntity
  8
V0-OBRYS
  6
CONTINUOUS
 48
3.0
100
AcDbCircle
 10
-235.116202
 20
-11.757236
 30
0.0
 40
47.152792
100
AcDbArc
 50
49.956287
 51
108.15298
  0
LINE
  5
1AA9
100
AcDbEntity
  8
V0-OBRYS
  6
CONTINUOUS
 48
3.0
100
AcDbLine
 10
-204.779423
 20
24.340764
 30
0.0
 11
-190.254421
 21
31.59735
 31
0.0
  0
ARC
  5
1AAA
100
AcDbEntity
  8
V0-OBRYS
  6
CONTINUOUS
 48
3.0
100
AcDbCircle
 10
-231.452717
 20
4.149931
 30
0.0
 40
47.152792
100
AcDbArc
 50
101.384859
 51
159.581552
  0
LINE
  5
1AAB
100
AcDbEntity
  8
V0-OBRYS
  6
CONTINUOUS
 48
3.0
100
AcDbLine
 10
-240.760597
 20
50.374915
 30
0.0
 11
-237.377835
 21
66.255426
 31
0.0
  0
ARC
  5
1AAC
100
AcDbEntity
  8
V0-OBRYS
  6
CONTINUOUS
 48
3.0
100
AcDbCircle
 10
-241.605295
 20
16.932115
 30
0.0
 40
47.152792
100
AcDbArc
 50
152.81343
 51
211.010123
  0
LINE
  5
1AAD
100
AcDbEntity
  8
V0-OBRYS
  6
CONTINUOUS
 48
3.0
100
AcDbLine
 10
-283.548812
 20
38.475728
 30
0.0
 11
-293.855577
 21
51.021815
 31
0.0
  0
ARC
  5
1AAE
100
AcDbEntity
  8
V0-OBRYS
  6
CONTINUOUS
 48
3.0
100
AcDbCircle
 10
-257.928838
 20
16.964071
 30
0.0
 40
47.152792
100
AcDbArc
 50
204.242001
 51
262.438694
  0
LINE
  5
1AAF
100
AcDbEntity
  8
V0-OBRYS
  6
CONTINUOUS
 48
3.0
100
AcDbLine
 10
-300.923668
 20
-2.396467
 30
0.0
 11
-317.158757
 21
-2.632264
 31
0.0
  0
ARC
  5
1AB0
100
AcDbEntity
  8
V0-OBRYS
  6
CONTINUOUS
 48
3.0
100
AcDbCircle
 10
-268.131386
 20
4.221736
 30
0.0
 40
47.152792
100
AcDbArc
 50
255.670573
 51
313.867266
  0
LINE
  5
1AB1
100
AcDbEntity
  8
V0-OBRYS
  6
CONTINUOUS
 48
3.0
100
AcDbLine
 10
-279.801544
 20
-41.464074
 30
0.0
 11
-289.739604
 21
-54.304194
 31
0.0
  0
ARC
  5
1AB2
100
AcDbEntity
  8
V0-OBRYS
  6
CONTINUOUS
 48
3.0
100
AcDbCircle
 10
-264.530211
 20
-11.699653
 30
0.0
 40
47.152792
100
AcDbArc
 50
307.099144
 51
5.295837
  0
LINE
  5
1AB3
100
AcDbEntity
  8
V0-OBRYS
  6
CONTINUOUS
 48
3.0
100
AcDbLine
 10
-236.087831
 20
-49.308387
 30
0.0
 11
-232.2453
 21
-65.083958
 31
0.0
  0
ARC
  5
1AB4
100
AcDbEntity
  8
V0-OBRYS
  6
CONTINUOUS
 48
3.0
100
AcDbCircle
 10
-249.837072
 20
-18.810964
 30
0.0
 40
47.152792
100
AcDbArc
 50
358.527716
 51
56.724409
  0
LINE
  5
1AB5
100
AcDbEntity
  8
V0-OBRYS
  6
CONTINUOUS
 48
3.0
100
AcDbLine
 10
-202.699846
 20
-20.022479
 30
0.0
 11
-187.970228
 21
-26.854175
 31
0.0
  0
LINE
  5
1ABB
100
AcDbEntity
  8
V0-OBRYS
  6
CONTINUOUS
 48
3.0
100
AcDbLine
 10
-192.973696
 20
60.948575
 30
0.0
 11
-153.975792
 21
99.946479
 31
0.0
  0
LINE
  5
1ABC
100
AcDbEntity
  8
V0-OBRYS
  6
CONTINUOUS
 48
3.0
100
AcDbLine
 10
-153.975792
 20
99.946479
 30
0.0
 11
-151.379779
 21
97.350466
 31
0.0
  0
LINE
  5
1ABD
100
AcDbEntity
  8
V0-OBRYS
  6
CONTINUOUS
 48
3.0
100
AcDbLine
 10
-187.781671
 20
55.75655
 30
0.0
 11
-148.783767
 21
94.754454
 31
0.0
  0
LINE
  5
1ABE
100
AcDbEntity
  8
V0-OBRYS
  6
CONTINUOUS
 48
3.0
100
AcDbLine
 10
-148.783767
 20
94.754454
 30
0.0
 11
-151.379779
 21
97.350466
 31
0.0
  0
LINE
  5
1E3A
100
AcDbEntity
  8
V0-OBRYS
  6
CONTINUOUS
 48
3.0
100
AcDbLine
 10
104.657578
 20
-0.358737
 30
0.0
 11
104.657578
 21
-80.358737
 31
0.0
  0
LINE
  5
1E3B
100
AcDbEntity
  8
V0-OBRYS
  6
CONTINUOUS
 48
3.0
100
AcDbLine
 10
104.157578
 20
-80.358737
 30
0.0
 11
104.157578
 21
-0.358737
 31
0.0
  0
LINE
  5
1E3C
100
AcDbEntity
  8
V0-OBRYS
  6
CONTINUOUS
 48
3.0
100
AcDbLine
 10
115.657578
 20
-0.358737
 30
0.0
 11
115.657578
 21
-74.858737
 31
0.0
  0
LINE
  5
1E3D
100
AcDbEntity
  8
V0-OBRYS
  6
CONTINUOUS
 48
3.0
100
AcDbLine
 10
95.657578
 20
-0.358737
 30
0.0
 11
95.657578
 21
-76.358737
 31
0.0
  0
LINE
  5
1E3E
100
AcDbEntity
  8
V0-OBRYS
  6
CONTINUOUS
 48
3.0
100
AcDbLine
 10
72.657578
 20
-77.358737
 30
0.0
 11
72.657578
 21
-0.358737
 31
0.0
  0
LINE
  5
1E3F
100
AcDbEntity
  8
V0-OBRYS
  6
CONTINUOUS
 48
3.0
100
AcDbLine
 10
75.657578
 20
-0.358737
 30
0.0
 11
75.657578
 21
-77.358737
 31
0.0
  0
LINE
  5
1E40
100
AcDbEntity
  8
V0-OBRYS
  6
CONTINUOUS
 48
3.0
100
AcDbLine
 10
40.657578
 20
-74.858737
 30
0.0
 11
40.657578
 21
-0.358737
 31
0.0
  0
LINE
  5
1E48
100
AcDbEntity
  8
V0-OBRYS
  6
CONTINUOUS
 48
3.0
100
AcDbLine
 10
104.157578
 20
-74.858737
 30
0.0
 11
95.657578
 21
-74.858737
 31
0.0
  0
LINE
  5
1E4A
100
AcDbEntity
  8
V0-OBRYS
  6
CONTINUOUS
 48
3.0
100
AcDbLine
 10
40.657578
 20
-115.358737
 30
0.0
 11
40.657578
 21
-74.858737
 31
0.0
  0
LINE
  5
1E4B
100
AcDbEntity
  8
V0-OBRYS
  6
CONTINUOUS
 48
3.0
100
AcDbLine
 10
40.657578
 20
-76.358737
 30
0.0
 11
72.657578
 21
-76.358737
 31
0.0
  0
LINE
  5
1E4C
100
AcDbEntity
  8
V0-OBRYS
  6
CONTINUOUS
 48
3.0
100
AcDbLine
 10
75.657578
 20
-76.358737
 30
0.0
 11
95.657578
 21
-76.358737
 31
0.0
  0
LINE
  5
1E4D
100
AcDbEntity
  8
V0-OBRYS
  6
CONTINUOUS
 48
3.0
100
AcDbLine
 10
75.657578
 20
-77.358737
 30
0.0
 11
72.657578
 21
-77.358737
 31
0.0
  0
LINE
  5
1E4E
100
AcDbEntity
  8
V0-OBRYS
  6
CONTINUOUS
 48
3.0
100
AcDbLine
 10
35.657578
 20
-115.358737
 30
0.0
 11
40.657578
 21
-115.358737
 31
0.0
  0
LINE
  5
1E50
100
AcDbEntity
  8
V0-OBRYS
  6
CONTINUOUS
 48
3.0
100
AcDbLine
 10
115.657578
 20
-74.858737
 30
0.0
 11
104.657578
 21
-74.858737
 31
0.0
  0
LINE
  5
1E51
100
AcDbEntity
  8
V0-OBRYS
  6
CONTINUOUS
 48
3.0
100
AcDbLine
 10
104.657578
 20
-80.358737
 30
0.0
 11
104.157578
 21
-80.358737
 31
0.0
  0
DIMENSION
  5
1E6E
100
AcDbEntity
  8
V0-ZBYTEK
  6
CONTINUOUS
 62
    41
 48
3.0
100
AcDbDimension
  2
*D17
 10
75.657578
 20
162.617017
 30
0.0
 11
95.657578
 21
162.617017
 31
0.0
 70
   160
  3
ED20
100
AcDbAlignedDimension
 13
115.657578
 23
74.5
 33
0.0
 14
75.657578
 24
76.0
 34
0.0
100
AcDbRotatedDimension
1001
ACAD
1000
DSTYLE
1002
{
1070
    40
1040
1.0
1002
}
  0
DIMENSION
  5
1EF5
100
AcDbEntity
  8
V0-ZBYTEK
  6
CONTINUOUS
 62
    41
 48
3.0
100
AcDbDimension
  2
*D20
 10
192.127154
 20
-115.358737
 30
0.0
 11
192.127154
 21
-0.179369
 31
0.0
 70
   160
  1
%%c<>
  3
ED20
100
AcDbAlignedDimension
 13
40.657578
 23
115.0
 33
0.0
 14
40.657578
 24
-115.358737
 34
0.0
 50
90.0
100
AcDbRotatedDimension
1001
ACAD
1000
DSTYLE
1002
{
1070
    40
1040
1.0
1002
}
  0
MTEXT
  5
20B2
100
AcDbEntity
  8
V0-ZBYTEK
 62
    51
100
AcDbMText
 10
-65.388886
 20
-260.346113
 30
0.0
 40
17.71875
 41
501.937188
 71
     5
 72
     5
  1
REGULACNI CLONA
  7
ED10
  0
MTEXT
  5
20B3
100
AcDbEntity
  8
V0-NAZVY
100
AcDbMText
 10
-65.708815
 20
-215.91518
 30
0.0
 40
31.640625
 41
260.2638
 71
     5
 72
     5
  1
IRIS - 150
  7
ED10
  0
DIMENSION
  5
229E
100
AcDbEntity
  8
V0-ZBYTEK
  6
CONTINUOUS
 62
    41
 48
3.0
100
AcDbDimension
  2
*D44
 10
157.352824
 20
-74.858737
 30
0.0
 11
157.352824
 21
-0.179369
 31
0.0
 12
50.657578
 22
0.0
 32
0.0
 70
   160
  1
%%c<>
  3
ED20
100
AcDbAlignedDimension
 13
115.657578
 23
74.5
 33
0.0
 14
115.657578
 24
-74.858737
 34
0.0
 50
90.0
100
AcDbRotatedDimension
1001
ACAD
1000
DSTYLE
1002
{
1070
    40
1040
1.0
1002
}
  0
LINE
  5
24A8
100
AcDbEntity
  8
V0-OBRYS
  6
CONTINUOUS
 48
3.0
100
AcDbLine
 10
-3.342422
 20
76.0
 30
0.0
 11
-23.342422
 21
76.0
 31
0.0
  0
LINE
  5
24A9
100
AcDbEntity
  8
V0-OBRYS
  6
CONTINUOUS
 48
3.0
100
AcDbLine
 10
-3.342422
 20
-76.358737
 30
0.0
 11
-23.342422
 21
-76.358737
 31
0.0
  0
LINE
  5
24AD
100
AcDbEntity
  8
V0-OBRYS
  6
CONTINUOUS
 48
3.0
100
AcDbLine
 10
30.657578
 20
74.5
 30
0.0
 11
30.657578
 21
0.0
 31
0.0
  0
LINE
  5
24AE
100
AcDbEntity
  8
V0-OBRYS
  6
CONTINUOUS
 48
3.0
100
AcDbLine
 10
-3.342422
 20
0.0
 30
0.0
 11
-3.342422
 21
77.0
 31
0.0
  0
LINE
  5
24AF
100
AcDbEntity
  8
V0-OBRYS
  6
CONTINUOUS
 48
3.0
100
AcDbLine
 10
-0.342422
 20
77.0
 30
0.0
 11
-0.342422
 21
0.0
 31
0.0
  0
LINE
  5
24B0
100
AcDbEntity
  8
V0-OBRYS
  6
CONTINUOUS
 48
3.0
100
AcDbLine
 10
30.657578
 20
-74.858737
 30
0.0
 11
30.657578
 21
-0.358737
 31
0.0
  0
LINE
  5
24B1
100
AcDbEntity
  8
V0-OBRYS
  6
CONTINUOUS
 48
3.0
100
AcDbLine
 10
-0.342422
 20
-77.358737
 30
0.0
 11
-0.342422
 21
-0.358737
 31
0.0
  0
LINE
  5
24B2
100
AcDbEntity
  8
V0-OBRYS
  6
CONTINUOUS
 48
3.0
100
AcDbLine
 10
-3.342422
 20
-0.358737
 30
0.0
 11
-3.342422
 21
-77.358737
 31
0.0
  0
LINE
  5
24B3
100
AcDbEntity
  8
V0-OBRYS
  6
CONTINUOUS
 48
3.0
100
AcDbLine
 10
35.657578
 20
-115.358737
 30
0.0
 11
30.657578
 21
-115.358737
 31
0.0
  0
LINE
  5
24B4
100
AcDbEntity
  8
V0-OBRYS
  6
CONTINUOUS
 48
3.0
100
AcDbLine
 10
30.657578
 20
-115.358737
 30
0.0
 11
30.657578
 21
-74.858737
 31
0.0
  0
LINE
  5
24B5
100
AcDbEntity
  8
V0-OBRYS
  6
CONTINUOUS
 48
3.0
100
AcDbLine
 10
30.657578
 20
-76.358737
 30
0.0
 11
-0.342422
 21
-76.358737
 31
0.0
  0
LINE
  5
24B6
100
AcDbEntity
  8
V0-OBRYS
  6
CONTINUOUS
 48
3.0
100
AcDbLine
 10
-3.342422
 20
-77.358737
 30
0.0
 11
-0.342422
 21
-77.358737
 31
0.0
  0
LINE
  5
24B7
100
AcDbEntity
  8
V0-OBRYS
  6
CONTINUOUS
 48
3.0
100
AcDbLine
 10
30.657578
 20
115.0
 30
0.0
 11
30.657578
 21
74.5
 31
0.0
  0
LINE
  5
24B8
100
AcDbEntity
  8
V0-OBRYS
  6
CONTINUOUS
 48
3.0
100
AcDbLine
 10
30.657578
 20
76.0
 30
0.0
 11
-0.342422
 21
76.0
 31
0.0
  0
LINE
  5
24B9
100
AcDbEntity
  8
V0-OBRYS
  6
CONTINUOUS
 48
3.0
100
AcDbLine
 10
-3.342422
 20
77.0
 30
0.0
 11
-0.342422
 21
77.0
 31
0.0
  0
LINE
  5
24BA
100
AcDbEntity
  8
V0-OBRYS
  6
CONTINUOUS
 48
3.0
100
AcDbLine
 10
35.657578
 20
115.0
 30
0.0
 11
30.657578
 21
115.0
 31
0.0
  0
LINE
  5
24BB
100
AcDbEntity
  8
V0-OBRYS
  6
CONTINUOUS
 48
3.0
100
AcDbLine
 10
-23.342422
 20
0.0
 30
0.0
 11
-23.342422
 21
76.0
 31
0.0
  0
LINE
  5
24BC
100
AcDbEntity
  8
V0-OBRYS
  6
CONTINUOUS
 48
3.0
100
AcDbLine
 10
-31.842422
 20
80.0
 30
0.0
 11
-31.842422
 21
0.0
 31
0.0
  0
LINE
  5
24BD
100
AcDbEntity
  8
V0-OBRYS
  6
CONTINUOUS
 48
3.0
100
AcDbLine
 10
-32.342422
 20
0.0
 30
0.0
 11
-32.342422
 21
80.0
 31
0.0
  0
LINE
  5
24BE
100
AcDbEntity
  8
V0-OBRYS
  6
CONTINUOUS
 48
3.0
100
AcDbLine
 10
-43.342422
 20
0.0
 30
0.0
 11
-43.342422
 21
74.5
 31
0.0
  0
LINE
  5
24C0
100
AcDbEntity
  8
V0-OBRYS
  6
CONTINUOUS
 48
3.0
100
AcDbLine
 10
-23.342422
 20
-0.358737
 30
0.0
 11
-23.342422
 21
-76.358737
 31
0.0
  0
LINE
  5
24C1
100
AcDbEntity
  8
V0-OBRYS
  6
CONTINUOUS
 48
3.0
100
AcDbLine
 10
-43.342422
 20
-0.358737
 30
0.0
 11
-43.342422
 21
-74.858737
 31
0.0
  0
LINE
  5
24C2
100
AcDbEntity
  8
V0-OBRYS
  6
CONTINUOUS
 48
3.0
100
AcDbLine
 10
-31.842422
 20
-80.358737
 30
0.0
 11
-31.842422
 21
-0.358737
 31
0.0
  0
LINE
  5
24C3
100
AcDbEntity
  8
V0-OBRYS
  6
CONTINUOUS
 48
3.0
100
AcDbLine
 10
-32.342422
 20
-0.358737
 30
0.0
 11
-32.342422
 21
-80.358737
 31
0.0
  0
LINE
  5
24C4
100
AcDbEntity
  8
V0-OBRYS
  6
CONTINUOUS
 48
3.0
100
AcDbLine
 10
-32.342422
 20
-80.358737
 30
0.0
 11
-31.842422
 21
-80.358737
 31
0.0
  0
LINE
  5
24C5
100
AcDbEntity
  8
V0-OBRYS
  6
CONTINUOUS
 48
3.0
100
AcDbLine
 10
-31.842422
 20
-74.858737
 30
0.0
 11
-23.342422
 21
-74.858737
 31
0.0
  0
LINE
  5
24C6
100
AcDbEntity
  8
V0-OBRYS
  6
CONTINUOUS
 48
3.0
100
AcDbLine
 10
-43.342422
 20
-74.858737
 30
0.0
 11
-32.342422
 21
-74.858737
 31
0.0
  0
LINE
  5
24C7
100
AcDbEntity
  8
V0-OBRYS
  6
CONTINUOUS
 48
3.0
100
AcDbLine
 10
-32.342422
 20
80.0
 30
0.0
 11
-31.842422
 21
80.0
 31
0.0
  0
LINE
  5
24C8
100
AcDbEntity
  8
V0-OBRYS
  6
CONTINUOUS
 48
3.0
100
AcDbLine
 10
-31.842422
 20
74.5
 30
0.0
 11
-23.342422
 21
74.5
 31
0.0
  0
LINE
  5
24C9
100
AcDbEntity
  8
V0-OBRYS
  6
CONTINUOUS
 48
3.0
100
AcDbLine
 10
-43.342422
 20
74.5
 30
0.0
 11
-32.342422
 21
74.5
 31
0.0
  0
DIMENSION
  5
251F
100
AcDbEntity
  8
V0-ZBYTEK
  6
CONTINUOUS
 62
    41
 48
3.0
100
AcDbDimension
  2
*D54
 10
116.657578
 20
-154.801053
 30
0.0
 11
36.657578
 21
-142.801053
 31
0.0
 70
    32
  3
ED20
100
AcDbAlignedDimension
 13
-43.342422
 23
-74.858737
 33
0.0
 14
116.657578
 24
-74.858737
 34
0.0
100
AcDbRotatedDimension
1001
ACAD
1000
DSTYLE
1002
{
1070
    40
1040
1.0
1002
}
  0
VIEWPORT
  5
22
100
AcDbEntity
 67
     1
  8
0
100
AcDbViewport
 10
261.517699
 20
148.5
 30
0.0
 40
523.035398
 41
297.0
 68
    -1
 69
     1
1001
ACAD
1000
MVIEW
1002
{
1070
    16
1010
0.0
1020
0.0
1030
0.0
1010
0.0
1020
0.0
1030
1.0
1040
0.0
1040
297.0
1040
261.517699
1040
148.5
1040
50.0
1040
0.0
1040
0.0
1070
     0
1070
   100
1070
     1
1070
     1
1070
     0
1070
     0
1070
     0
1070
     0
1040
0.0
1040
0.0
1040
0.0
1040
1.0
1040
1.0
1040
10.0
1040
10.0
1070
     0
1002
{
1002
}
1002
}
  0
ENDSEC
  0
SECTION
  2
OBJECTS
  0
DICTIONARY
  5
C
100
AcDbDictionary
  3
ACAD_GROUP
350
D
  3
ACAD_MLINESTYLE
350
E
  3
ACDBVARIABLEDICTIONARY
350
5D
  0
DICTIONARY
  5
D
102
{ACAD_REACTORS
330
C
102
}
100
AcDbDictionary
  0
DICTIONARY
  5
E
102
{ACAD_REACTORS
330
C
102
}
100
AcDbDictionary
  3
STANDARD
350
13
  0
DICTIONARY
  5
5D
102
{ACAD_REACTORS
330
C
102
}
100
AcDbDictionary
  3
DIMADEC
350
5E
  3
SORTENTS
350
3D8
  0
MLINESTYLE
  5
13
102
{ACAD_REACTORS
330
E
102
}
100
AcDbMlineStyle
  2
STANDARD
 70
     0
  3

 62
     0
 51
90.0
 52
90.0
 71
     2
 49
0.5
 62
   256
  6
BYLAYER
 49
-0.5
 62
   256
  6
BYLAYER
  0
DICTIONARYVAR
  5
5E
102
{ACAD_REACTORS
330
5D
102
}
100
DictionaryVariables
280
     0
  1
0
  0
DICTIONARYVAR
  5
3D8
102
{ACAD_REACTORS
330
5D
102
}
100
DictionaryVariables
280
     0
  1
96
  0
ENDSEC
  0
EOF
