  0
SECTION
  2
HEADER
  9
$ACADVER
  1
AC1014
  9
$ACADMAINTVER
 70
     0
  9
$DWGCODEPAGE
  3
ANSI_1250
  9
$INSBASE
 10
0.0
 20
0.0
 30
0.0
  9
$EXTMIN
 10
0.399435
 20
-200.520258
 30
-203.876989
  9
$EXTMAX
 10
135.399435
 20
205.0
 30
203.876989
  9
$LIMMIN
 10
0.0
 20
0.0
  9
$LIMMAX
 10
420.0
 20
297.0
  9
$ORTHOMODE
 70
     1
  9
$REGENMODE
 70
     1
  9
$FILLMODE
 70
     1
  9
$QTEXTMODE
 70
     0
  9
$MIRRTEXT
 70
     1
  9
$DRAGMODE
 70
     2
  9
$LTSCALE
 40
1.0
  9
$OSMODE
 70
    36
  9
$ATTMODE
 70
     1
  9
$TEXTSIZE
 40
20.0
  9
$TRACEWID
 40
1.0
  9
$TEXTSTYLE
  7
ED5
  9
$CLAYER
  8
V0-OBRYS
  9
$CELTYPE
  6
CONTINUOUS
  9
$CECOLOR
 62
   256
  9
$CELTSCALE
 40
3.0
  9
$DELOBJ
 70
     1
  9
$DISPSILH
 70
     0
  9
$DIMSCALE
 40
0.0
  9
$DIMASZ
 40
20.0
  9
$DIMEXO
 40
1.0
  9
$DIMDLI
 40
3.75
  9
$DIMRND
 40
0.0
  9
$DIMDLE
 40
0.0
  9
$DIMEXE
 40
1.25
  9
$DIMTP
 40
0.0
  9
$DIMTM
 40
0.0
  9
$DIMTXT
 40
20.0
  9
$DIMCEN
 40
3.0
  9
$DIMTSZ
 40
0.0
  9
$DIMTOL
 70
     0
  9
$DIMLIM
 70
     0
  9
$DIMTIH
 70
     0
  9
$DIMTOH
 70
     0
  9
$DIMSE1
 70
     0
  9
$DIMSE2
 70
     0
  9
$DIMTAD
 70
     1
  9
$DIMZIN
 70
     8
  9
$DIMBLK
  1

  9
$DIMASO
 70
     1
  9
$DIMSHO
 70
     1
  9
$DIMPOST
  1

  9
$DIMAPOST
  1

  9
$DIMALT
 70
     0
  9
$DIMALTD
 70
     4
  9
$DIMALTF
 40
0.0394
  9
$DIMLFAC
 40
1.0
  9
$DIMTOFL
 70
     1
  9
$DIMTVP
 40
0.0
  9
$DIMTIX
 70
     0
  9
$DIMSOXD
 70
     0
  9
$DIMSAH
 70
     1
  9
$DIMBLK1
  1
_OPEN
  9
$DIMBLK2
  1
_OPEN
  9
$DIMSTYLE
  2
ED20
  9
$DIMCLRD
 70
     0
  9
$DIMCLRE
 70
     0
  9
$DIMCLRT
 70
     0
  9
$DIMTFAC
 40
1.0
  9
$DIMGAP
 40
2.0
  9
$DIMJUST
 70
     0
  9
$DIMSD1
 70
     0
  9
$DIMSD2
 70
     0
  9
$DIMTOLJ
 70
     1
  9
$DIMTZIN
 70
     8
  9
$DIMALTZ
 70
     0
  9
$DIMALTTZ
 70
     0
  9
$DIMFIT
 70
     3
  9
$DIMUPT
 70
     0
  9
$DIMUNIT
 70
     2
  9
$DIMDEC
 70
     0
  9
$DIMTDEC
 70
     1
  9
$DIMALTU
 70
     8
  9
$DIMALTTD
 70
     4
  9
$DIMTXSTY
  7
ED20
  9
$DIMAUNIT
 70
     0
  9
$LUNITS
 70
     2
  9
$LUPREC
 70
     4
  9
$SKETCHINC
 40
1.0
  9
$FILLETRAD
 40
0.0
  9
$AUNITS
 70
     0
  9
$AUPREC
 70
     0
  9
$MENU
  1
.
  9
$ELEVATION
 40
0.0
  9
$PELEVATION
 40
0.0
  9
$THICKNESS
 40
0.0
  9
$LIMCHECK
 70
     0
  9
$BLIPMODE
 70
     0
  9
$CHAMFERA
 40
0.0
  9
$CHAMFERB
 40
0.0
  9
$CHAMFERC
 40
20.0
  9
$CHAMFERD
 40
0.0
  9
$SKPOLY
 70
     1
  9
$TDCREATE
 40
2451196.643769328
  9
$TDUPDATE
 40
2453310.929809166
  9
$TDINDWG
 40
0.4796472801
  9
$TDUSRTIMER
 40
0.4796472801
  9
$USRTIMER
 70
     1
  9
$ANGBASE
 50
0.0
  9
$ANGDIR
 70
     0
  9
$PDMODE
 70
     3
  9
$PDSIZE
 40
20.0
  9
$PLINEWID
 40
0.0
  9
$COORDS
 70
     1
  9
$SPLFRAME
 70
     0
  9
$SPLINETYPE
 70
     6
  9
$SPLINESEGS
 70
     8
  9
$ATTDIA
 70
     0
  9
$ATTREQ
 70
     1
  9
$HANDLING
 70
     1
  9
$HANDSEED
  5
2883
  9
$SURFTAB1
 70
    15
  9
$SURFTAB2
 70
    15
  9
$SURFTYPE
 70
     6
  9
$SURFU
 70
     6
  9
$SURFV
 70
     6
  9
$UCSNAME
  2

  9
$UCSORG
 10
0.0
 20
0.0
 30
0.0
  9
$UCSXDIR
 10
1.0
 20
0.0
 30
0.0
  9
$UCSYDIR
 10
0.0
 20
1.0
 30
0.0
  9
$PUCSNAME
  2

  9
$PUCSORG
 10
0.0
 20
0.0
 30
0.0
  9
$PUCSXDIR
 10
1.0
 20
0.0
 30
0.0
  9
$PUCSYDIR
 10
0.0
 20
1.0
 30
0.0
  9
$USERI1
 70
     0
  9
$USERI2
 70
     0
  9
$USERI3
 70
     0
  9
$USERI4
 70
     0
  9
$USERI5
 70
     0
  9
$USERR1
 40
0.0
  9
$USERR2
 40
0.0
  9
$USERR3
 40
0.0
  9
$USERR4
 40
0.0
  9
$USERR5
 40
0.0
  9
$WORLDVIEW
 70
     1
  9
$SHADEDGE
 70
     3
  9
$SHADEDIF
 70
    70
  9
$TILEMODE
 70
     1
  9
$MAXACTVP
 70
    48
  9
$PINSBASE
 10
0.0
 20
0.0
 30
0.0
  9
$PLIMCHECK
 70
     0
  9
$PEXTMIN
 10
1.000000E+20
 20
1.000000E+20
 30
1.000000E+20
  9
$PEXTMAX
 10
-1.000000E+20
 20
-1.000000E+20
 30
-1.000000E+20
  9
$PLIMMIN
 10
0.0
 20
0.0
  9
$PLIMMAX
 10
420.0
 20
297.0
  9
$UNITMODE
 70
     0
  9
$VISRETAIN
 70
     1
  9
$PLINEGEN
 70
     0
  9
$PSLTSCALE
 70
     0
  9
$TREEDEPTH
 70
  3020
  9
$PICKSTYLE
 70
     1
  9
$CMLSTYLE
  2
STANDARD
  9
$CMLJUST
 70
     0
  9
$CMLSCALE
 40
1.0
  9
$PROXYGRAPHICS
 70
     1
  9
$MEASUREMENT
 70
     1
  0
ENDSEC
  0
SECTION
  2
CLASSES
  0
CLASS
  1
DICTIONARYVAR
  2
AcDbDictionaryVar
  3
"AutoCAD"
 90
        0
280
     0
281
     0
  0
CLASS
  1
LWPOLYLINE
  2
AcDbPolyline
  3
"AutoCAD"
 90
        0
280
     0
281
     1
  0
CLASS
  1
HATCH
  2
AcDbHatch
  3
"ACAD_SEDONA"
 90
        0
280
     0
281
     1
  0
ENDSEC
  0
SECTION
  2
TABLES
  0
TABLE
  2
VPORT
  5
8
100
AcDbSymbolTable
 70
     3
  0
VPORT
  5
2882
100
AcDbSymbolTableRecord
100
AcDbViewportTableRecord
  2
*ACTIVE
 70
     0
 10
0.0
 20
0.0
 11
1.0
 21
1.0
 12
63.404113
 22
-4.706628
 13
0.0
 23
0.0
 14
10.0
 24
10.0
 15
10.0
 25
10.0
 16
1.823799
 26
-4.309917
 36
0.920082
 17
0.0
 27
0.0
 37
0.0
 40
488.266604
 41
1.650104
 42
50.0
 43
0.0
 44
0.0
 50
0.0
 51
0.0
 71
     0
 72
   100
 73
     1
 74
     1
 75
     0
 76
     0
 77
     0
 78
     0
  0
ENDTAB
  0
TABLE
  2
LTYPE
  5
5
100
AcDbSymbolTable
 70
     3
  0
LTYPE
  5
14
100
AcDbSymbolTableRecord
100
AcDbLinetypeTableRecord
  2
BYBLOCK
 70
     0
  3

 72
    65
 73
     0
 40
0.0
  0
LTYPE
  5
15
100
AcDbSymbolTableRecord
100
AcDbLinetypeTableRecord
  2
BYLAYER
 70
     0
  3

 72
    65
 73
     0
 40
0.0
  0
LTYPE
  5
16
100
AcDbSymbolTableRecord
100
AcDbLinetypeTableRecord
  2
CONTINUOUS
 70
     0
  3
Solid line
 72
    65
 73
     0
 40
0.0
  0
LTYPE
  5
7F
100
AcDbSymbolTableRecord
100
AcDbLinetypeTableRecord
  2
DASHDOT
 70
     0
  3
Dash dot __ . __ . __ . __ . __ . __ . __ . __
 72
    65
 73
     4
 40
25.4
 49
12.7
 74
     0
 49
-6.35
 74
     0
 49
0.0
 74
     0
 49
-6.35
 74
     0
  0
LTYPE
  5
80
100
AcDbSymbolTableRecord
100
AcDbLinetypeTableRecord
  2
DASHED
 70
     0
  3
Dashed __ __ __ __ __ __ __ __ __ __ __ __ __ _
 72
    65
 73
     2
 40
19.05
 49
12.7
 74
     0
 49
-6.35
 74
     0
  0
ENDTAB
  0
TABLE
  2
LAYER
  5
2
100
AcDbSymbolTable
 70
     7
  0
LAYER
  5
F
100
AcDbSymbolTableRecord
100
AcDbLayerTableRecord
  2
0
 70
     0
 62
     7
  6
CONTINUOUS
  0
LAYER
  5
9E
100
AcDbSymbolTableRecord
100
AcDbLayerTableRecord
  2
DEFPOINTS
 70
     0
 62
     7
  6
CONTINUOUS
  0
LAYER
  5
377
100
AcDbSymbolTableRecord
100
AcDbLayerTableRecord
  2
V0-OBRYS
 70
     0
 62
    90
  6
CONTINUOUS
  0
LAYER
  5
378
100
AcDbSymbolTableRecord
100
AcDbLayerTableRecord
  2
V0-VYPLNE
 70
     0
 62
    63
  6
DASHDOT
  0
LAYER
  5
37A
100
AcDbSymbolTableRecord
100
AcDbLayerTableRecord
  2
V0-NAZVY
 70
     0
 62
   210
  6
CONTINUOUS
  0
LAYER
  5
559
100
AcDbSymbolTableRecord
100
AcDbLayerTableRecord
  2
V0-ZBYTEK
 70
     0
 62
    51
  6
CONTINUOUS
  0
LAYER
  5
1B0C
100
AcDbSymbolTableRecord
100
AcDbLayerTableRecord
  2
POM
 70
     0
 62
     7
  6
CONTINUOUS
  0
ENDTAB
  0
TABLE
  2
STYLE
  5
3
100
AcDbSymbolTable
 70
     6
  0
STYLE
  5
10
100
AcDbSymbolTableRecord
100
AcDbTextStyleTableRecord
  2
STANDARD
 70
     0
 40
7.0
 41
1.0
 50
0.0
 71
     0
 42
20.0
  3
ISOCP.shx
  4

  0
STYLE
  5
331
100
AcDbSymbolTableRecord
100
AcDbTextStyleTableRecord
  2
ED30
 70
     0
 40
30.0
 41
1.0
 50
0.0
 71
     0
 42
2.5
  3
ISOCP.shx
  4

  0
STYLE
  5
5D2
100
AcDbSymbolTableRecord
100
AcDbTextStyleTableRecord
  2
ED20
 70
     0
 40
20.0
 41
1.0
 50
0.0
 71
     0
 42
20.0
  3
isocp.shx
  4

  0
STYLE
  5
64F
100
AcDbSymbolTableRecord
100
AcDbTextStyleTableRecord
  2
ED40
 70
     0
 40
40.0
 41
1.0
 50
0.0
 71
     0
 42
20.0
  3
isocp.shx
  4

  0
STYLE
  5
650
100
AcDbSymbolTableRecord
100
AcDbTextStyleTableRecord
  2
ED10
 70
     0
 40
10.0
 41
1.0
 50
0.0
 71
     0
 42
20.0
  3
isocp.shx
  4

  0
STYLE
  5
1E52
100
AcDbSymbolTableRecord
100
AcDbTextStyleTableRecord
  2
ED5
 70
     0
 40
10.0
 41
1.0
 50
0.0
 71
     0
 42
20.0
  3
isocp.shx
  4

  0
ENDTAB
  0
TABLE
  2
VIEW
  5
6
100
AcDbSymbolTable
 70
     0
  0
ENDTAB
  0
TABLE
  2
UCS
  5
7
100
AcDbSymbolTable
 70
     0
  0
ENDTAB
  0
TABLE
  2
APPID
  5
9
100
AcDbSymbolTable
 70
     3
  0
APPID
  5
11
100
AcDbSymbolTableRecord
100
AcDbRegAppTableRecord
  2
ACAD
 70
     0
  0
APPID
  5
FAA
100
AcDbSymbolTableRecord
100
AcDbRegAppTableRecord
  2
CONTENTBLOCKICON
 70
     0
  0
APPID
  5
FAB
100
AcDbSymbolTableRecord
100
AcDbRegAppTableRecord
  2
CONTENTBLOCKDESCRIPTION
 70
     0
  0
ENDTAB
  0
TABLE
  2
DIMSTYLE
  5
A
100
AcDbSymbolTable
 70
     5
  0
DIMSTYLE
105
1D
100
AcDbSymbolTableRecord
100
AcDbDimStyleTableRecord
  2
STANDARD
 70
     0
  3

  4

  5

  6
_OPEN
  7
_OPEN
 40
0.0
 41
15.0
 42
0.625
 43
3.75
 44
1.25
 45
0.0
 46
0.0
 47
0.0
 48
0.0
140
15.0
141
2.5
142
0.0
143
0.0394
144
1.0
145
0.0
146
1.0
147
3.0
 71
     0
 72
     0
 73
     0
 74
     0
 75
     0
 76
     0
 77
     1
 78
     8
170
     0
171
     4
172
     1
173
     1
174
     0
175
     0
176
     0
177
     0
178
     0
270
     2
271
     0
272
     1
273
     8
274
     4
340
331
275
     0
280
     0
281
     0
282
     0
283
     1
284
     8
285
     0
286
     0
287
     3
288
     0
  0
DIMSTYLE
105
397
100
AcDbSymbolTableRecord
100
AcDbDimStyleTableRecord
  2
ED40
 70
     0
  3

  4

  5

  6
_OPEN
  7
_OPEN
 40
0.0
 41
35.0
 42
1.0
 43
3.75
 44
1.25
 45
0.0
 46
0.0
 47
0.0
 48
0.0
140
40.0
141
3.0
142
0.0
143
0.0394
144
1.0
145
0.0
146
1.0
147
4.0
 71
     0
 72
     0
 73
     0
 74
     0
 75
     0
 76
     0
 77
     1
 78
     8
170
     0
171
     4
172
     1
173
     1
174
     0
175
     0
176
     0
177
     0
178
     0
270
     2
271
     0
272
     1
273
     8
274
     4
340
64F
275
     0
280
     0
281
     0
282
     0
283
     1
284
     8
285
     0
286
     0
287
     3
288
     0
  0
DIMSTYLE
105
656
102
{ACAD_REACTORS
330
1E6E
102
}
100
AcDbSymbolTableRecord
100
AcDbDimStyleTableRecord
  2
ED30
 70
     0
  3

  4

  5

  6
_OPEN
  7
_OPEN
 40
0.0
 41
15.0
 42
1.0
 43
3.75
 44
1.25
 45
0.0
 46
0.0
 47
0.0
 48
0.0
140
30.0
141
3.0
142
0.0
143
0.0394
144
1.0
145
0.0
146
1.0
147
4.0
 71
     0
 72
     0
 73
     0
 74
     0
 75
     0
 76
     0
 77
     1
 78
     8
170
     0
171
     4
172
     1
173
     1
174
     0
175
     0
176
     0
177
     0
178
     0
270
     2
271
     0
272
     1
273
     8
274
     4
340
650
275
     0
280
     0
281
     0
282
     0
283
     1
284
     8
285
     0
286
     0
287
     3
288
     0
  0
DIMSTYLE
105
657
102
{ACAD_REACTORS
330
1FCE
330
1FCF
330
1FD0
330
1FD8
330
1FDF
330
1FE0
330
1FE1
330
1FE2
330
2079
330
207A
330
207B
102
}
100
AcDbSymbolTableRecord
100
AcDbDimStyleTableRecord
  2
ED20
 70
     0
  3

  4

  5

  6
_OPEN
  7
_OPEN
 40
0.0
 41
20.0
 42
1.0
 43
3.75
 44
1.25
 45
0.0
 46
0.0
 47
0.0
 48
0.0
140
20.0
141
3.0
142
0.0
143
0.0394
144
1.0
145
0.0
146
1.0
147
2.0
 71
     0
 72
     0
 73
     0
 74
     0
 75
     0
 76
     0
 77
     1
 78
     8
170
     0
171
     4
172
     1
173
     1
174
     0
175
     0
176
     0
177
     0
178
     0
270
     2
271
     0
272
     1
273
     8
274
     4
340
5D2
275
     0
280
     0
281
     0
282
     0
283
     1
284
     8
285
     0
286
     0
287
     3
288
     0
  0
DIMSTYLE
105
658
102
{ACAD_REACTORS
330
1EF5
330
229E
102
}
100
AcDbSymbolTableRecord
100
AcDbDimStyleTableRecord
  2
ED10
 70
     0
  3

  4

  5

  6
_OPEN
  7
_OPEN
 40
0.0
 41
15.0
 42
1.0
 43
3.75
 44
1.25
 45
0.0
 46
0.0
 47
0.0
 48
0.0
140
10.0
141
3.0
142
0.0
143
0.0394
144
1.0
145
0.0
146
1.0
147
1.5
 71
     0
 72
     0
 73
     0
 74
     0
 75
     0
 76
     0
 77
     1
 78
     8
170
     0
171
     4
172
     1
173
     1
174
     0
175
     0
176
     0
177
     0
178
     0
270
     2
271
     0
272
     1
273
     8
274
     4
340
650
275
     0
280
     0
281
     0
282
     0
283
     1
284
     8
285
     0
286
     0
287
     3
288
     0
  0
ENDTAB
  0
TABLE
  2
BLOCK_RECORD
  5
1
100
AcDbSymbolTable
 70
    32
  0
BLOCK_RECORD
  5
1A
100
AcDbSymbolTableRecord
100
AcDbBlockTableRecord
  2
*MODEL_SPACE
  0
BLOCK_RECORD
  5
17
100
AcDbSymbolTableRecord
100
AcDbBlockTableRecord
  2
*PAPER_SPACE
  0
BLOCK_RECORD
  5
90
100
AcDbSymbolTableRecord
100
AcDbBlockTableRecord
  2
_OPEN
  0
BLOCK_RECORD
  5
17E3
100
AcDbSymbolTableRecord
100
AcDbBlockTableRecord
  2
AZAVER
1001
CONTENTBLOCKICON
1071
        0
1004
2800000020000000200000000100040000000000000200000000000000000000000000000000000000000000000080000080000000808000800000008000800080800000C0C0C000808080000000FF0000FF000000FFFF00FF000000FF00FF00FFFF0000FFFFFF00FFFFFFFFFFAAAAAAAAAAAFFFFFFFFFFF
1004
FFFFFFFFFFAFFFFFFFFFFAFFFFFFFFFFFFFFFFFFFFAFFFFFFFFFFAFFFFFFFFFFFFFFFFFFFFAFFFFFFFFFFAFFFFFFFFFFFFFFFFFFFFAFFFFFFFFFFAFFFFFFFFFFFFFFFFFFFFAFFFFFFFFFFAFFFFFFFFFFFFFFFFFFFFAFFFFFFFFFFAFFFFFFFFFFFFFFFFFFFFAFFFFFFFFFFAFFFFFFFFFFFFFFFFFFFFAFFFFF
1004
FFFFFAFFFFFFFFFFFFFFFFFFFFAFFFFFFFFFFAFFFFFFFFFFFFFFFFFFAAAFFFFFFFFFFAAFFFFFFFFFFFFFFFFFAFAFFFFFFFFFFAAFFFFFFFFFFFFFFFFFAFAFFFFFFFFFFAAFFFFFFFFFFFFFFFFFAFAAAAAAAAAAAAAFFFFFFFFFFFFFFFFFAFFFFFFFFFFFFFAFFFFFFFFFFFFFFFFFAFFFFFFFFFFFFFAFFFFFFFFF
1004
FFFFFFFFAFFFFFFFFFFFFFAFFFFFFFFFFFFFFFFFAFFFFFFFFFFFFFAFFFFFFFFFFFFFFFFFAFFFFFFFFFFFFFAFFFFFFFFFFFFFFFFFAFFFFFFFFFFFFFAFFFFFFFFFFFFFFFFFAFAAAAAAAAAAAAAFFFFFFFFFFFFFFFFFAFAFFFFFFFFFFAAFFFFFFFFFFFFFFFFFAAAAAAAAAAAAAAAFFFFFFFFFFFFFFFFFFFAFFFFF
1004
FFFFFAFFFFFFFFFFFFFFFFFFFFAFFFFFFFFFFAFFFFFFFFFFFFFFFFFFFFAFFFFFFFFFFAFFFFFFFFFFFFFFFFFFFFAFFFFFFFFFFAFFFFFFFFFFFFFFFFFFFFAFFFFFFFFFFAFFFFFFFFFFFFFFFFFFFFAFFFFFFFFFFAFFFFFFFFFFFFFFFFFFFFAFFFFFFFFFFAFFFFFFFFFFFFFFFFFFFFAFFFFFFFFFFAFFFFFFFFFF
1004
FFFFFFFFFFAAAAAAAAAAAFFFFFFFFFFF
  0
BLOCK_RECORD
  5
1877
100
AcDbSymbolTableRecord
100
AcDbBlockTableRecord
  2
AZAVER-P
1001
CONTENTBLOCKICON
1071
        0
1004
2800000020000000200000000100040000000000000200000000000000000000000000000000000000000000000080000080000000808000800000008000800080800000C0C0C000808080000000FF0000FF000000FFFF00FF000000FF00FF00FFFF0000FFFFFF00FFFFFFFFFFFFFFFFAAFFFFFFFFFFFFFF
1004
FFFFFFFFFFFFFFFAFAFFFFFFFFFFFFFFFFFFFFFFFFFFFFFAFAFFFFFFFFFFFFFFFFFFFFFFFFFFFFFAFAFFFFFFFFFFFFFFFFFFFFFFFFFFFAAAFAAAFFFFFFFFFFFFFFFFFFFFFFFFFAFAFAFFFFFFFFFFFFFFFFFFFFFFFFFFFAFAFAFFFFFFFFFFFFFFFFFFFFFFFFFFFAFAFAFFFFFFFFFFFFFFFFFFFFFFFFFFFAFA
1004
FAFFFFFFFFFFFFFFFFFFFFFFFFFFFAFAFAFFFFFFFFFFFFFFFFFFFFFFFFFFFAFAFAFFFFFFFFFFFFFFFFFFFFFFFFFFFAFAFAFFFFFFFFFFFFFFFFFFFFFFFFFFFAFAFAFFFFFFFFFFFFFFFFFFFFFFFFFFFAFAFAFFFFFFFFFFFFFFFFFFFFFFFFFFFAFAFAFFFFFFFFFFFFFFFFFFFFFFFFFFFAFAFAFFFFFFFFFFFFFF
1004
FFFFFFFFFFFFFAFAFAFFFFFFFFFFFFFFFFFFFFFFFFFFFAFAFAFFFFFFFFFFFFFFFFFFFFFFFFFFFAFAFAFFFFFFFFFFFFFFFFFFFFFFFFFFFAFAFAFFFFFFFFFFFFFFFFFFFFFFFFFFFAFAFAFFFFFFFFFFFFFFFFFFFFFFFFFFFAFAFAFFFFFFFFFFFFFFFFFFFFFFFFFFFAFAFAFFFFFFFFFFFFFFFFFFFFFFFFFFFAFA
1004
FAFFFFFFFFFFFFFFFFFFFFFFFFFFFAFAFAFFFFFFFFFFFFFFFFFFFFFFFFFFFAFAFAFFFFFFFFFFFFFFFFFFFFFFFFFFFAAAFAAFFFFFFFFFFFFFFFFFFFFFFFFFFFFAFAFFFFFFFFFFFFFFFFFFFFFFFFFFFFFAFAFFFFFFFFFFFFFFFFFFFFFFFFFFFFFAFAFFFFFFFFFFFFFFFFFFFFFFFFFFFFFAFAFFFFFFFFFFFFFF
1004
FFFFFFFFFFFFFFFFAAFFFFFFFFFFFFFF
  0
BLOCK_RECORD
  5
189E
100
AcDbSymbolTableRecord
100
AcDbBlockTableRecord
  2
AZAVER-B
1001
CONTENTBLOCKICON
1071
        0
1004
2800000020000000200000000100040000000000000200000000000000000000000000000000000000000000000080000080000000808000800000008000800080800000C0C0C000808080000000FF0000FF000000FFFF00FF000000FF00FF00FFFF0000FFFFFF00FFFFFFFFFFFFFFFFFFFFFFFFFFFFFFFF
1004
FFFFFFFFFFFFFFAFFFFFFFFFFFFFFFFFFFFFFFFFFFFFFFAFFFFFFFFFFFFFFFFFFFFFFFFFFFFFFFAFFFFFFFFFFFFFFFFFFFFFFFFFFFFFFFAFFFFFFFFFFFFFFFFFFFFFFFFFFFFFFFAFFFFFFFFFFFFFFFFFFFFFFFFFFFFFFFAFFFFFFFFFFFFFFFFFFFFFFFFFFFFFFFAFFFFFFFFFFFFFFFFFFFFFFFFFFFFFFFAF
1004
FAFFFFFFFFFFFFFFFFFFFFFFFFFFFFAFFAFFFFFFFFFFFFFFFFFFFFFFFFFFFFAAAAFFFFFFFFFFFFFFFFFFFFFFFFFFFFAAAAFFFFFFFFFFFFFFFFFFFFFFFFFFFFAAAAFFFFFFFFFFFFFFFFFFFFFFFFFFFFAAAAFFFFFFFFFFFFFFFFFFFFFFFFFFFFFAAFFFFFFFFFFFFFFFFFFFFFFFFFFFFFFAAFFFFFFFFFFFFFFF
1004
FFFFFFFFFFFFFFFAAFFFFFFFFFFFFFFFFFFFFFFFFFFFFFFAAFFFFFFFFFFFFFFFFFFFFFFFFFFFFFFAAFFFFFFFFFFFFFFFFFFFFFFFFFFFFFFAAFFFFFFFFFFFFFFFFFFFFFFFFFFFFFAAAAFFFFFFFFFFFFFFFFFFFFFFFFFFFFAAAAFFFFFFFFFFFFFFFFFFFFFFFFFFFFAAAAFFFFFFFFFFFFFFFFFFFFFFFFFFFFFF
1004
FAFFFFFFFFFFFFFFFFFFFFFFFFFFFFFFFAFFFFFFFFFFFFFFFFFFFFFFFFFFFFFFFAFFFFFFFFFFFFFFFFFFFFFFFFFFFFFFFAFFFFFFFFFFFFFFFFFFFFFFFFFFFFFFFAFFFFFFFFFFFFFFFFFFFFFFFFFFFFFFFAFFFFFFFFFFFFFFFFFFFFFFFFFFFFFFFAFFFFFFFFFFFFFFFFFFFFFFFFFFFFFFFAFFFFFFFFFFFFFF
1004
FFFFFFFFFFFFFFFFFAFFFFFFFFFFFFFF
  0
BLOCK_RECORD
  5
18D6
100
AcDbSymbolTableRecord
100
AcDbBlockTableRecord
  2
CMB-240-180-N
  0
BLOCK_RECORD
  5
1E60
100
AcDbSymbolTableRecord
100
AcDbBlockTableRecord
  2
*D6
  0
BLOCK_RECORD
  5
1EE9
100
AcDbSymbolTableRecord
100
AcDbBlockTableRecord
  2
*D7
  0
BLOCK_RECORD
  5
1F17
100
AcDbSymbolTableRecord
100
AcDbBlockTableRecord
  2
*D8
  0
BLOCK_RECORD
  5
1F23
100
AcDbSymbolTableRecord
100
AcDbBlockTableRecord
  2
*D9
  0
BLOCK_RECORD
  5
1F2F
100
AcDbSymbolTableRecord
100
AcDbBlockTableRecord
  2
*D10
  0
BLOCK_RECORD
  5
1F3B
100
AcDbSymbolTableRecord
100
AcDbBlockTableRecord
  2
*D11
  0
BLOCK_RECORD
  5
1F47
100
AcDbSymbolTableRecord
100
AcDbBlockTableRecord
  2
*D12
  0
BLOCK_RECORD
  5
1F53
100
AcDbSymbolTableRecord
100
AcDbBlockTableRecord
  2
*D13
  0
BLOCK_RECORD
  5
1F5F
100
AcDbSymbolTableRecord
100
AcDbBlockTableRecord
  2
*D14
  0
BLOCK_RECORD
  5
1F6D
100
AcDbSymbolTableRecord
100
AcDbBlockTableRecord
  2
*D15
  0
BLOCK_RECORD
  5
1F7B
100
AcDbSymbolTableRecord
100
AcDbBlockTableRecord
  2
*D16
  0
BLOCK_RECORD
  5
1F87
100
AcDbSymbolTableRecord
100
AcDbBlockTableRecord
  2
*D17
  0
BLOCK_RECORD
  5
1F93
100
AcDbSymbolTableRecord
100
AcDbBlockTableRecord
  2
*D18
  0
BLOCK_RECORD
  5
1F9F
100
AcDbSymbolTableRecord
100
AcDbBlockTableRecord
  2
EDRI-125
  0
BLOCK_RECORD
  5
2292
100
AcDbSymbolTableRecord
100
AcDbBlockTableRecord
  2
*D20
  0
BLOCK_RECORD
  5
25E9
100
AcDbSymbolTableRecord
100
AcDbBlockTableRecord
  2
*D30
  0
ENDTAB
  0
ENDSEC
  0
SECTION
  2
BLOCKS
  0
BLOCK
  5
1B
100
AcDbEntity
  8
0
100
AcDbBlockBegin
  2
*MODEL_SPACE
 70
     0
 10
0.0
 20
0.0
 30
0.0
  3
*MODEL_SPACE
  1

  0
ENDBLK
  5
1C
100
AcDbEntity
  8
0
100
AcDbBlockEnd
  0
BLOCK
  5
18
100
AcDbEntity
 67
     1
  8
0
100
AcDbBlockBegin
  2
*PAPER_SPACE
 70
     0
 10
0.0
 20
0.0
 30
0.0
  3
*PAPER_SPACE
  1

  0
ENDBLK
  5
19
100
AcDbEntity
 67
     1
  8
0
100
AcDbBlockEnd
  0
BLOCK
  5
91
100
AcDbEntity
  8
0
100
AcDbBlockBegin
  2
_OPEN
 70
     0
 10
0.0
 20
0.0
 30
0.0
  3
_OPEN
  1

  0
LINE
  5
92
100
AcDbEntity
  8
0
  6
BYBLOCK
 62
     0
100
AcDbLine
 10
-1.0
 20
0.166667
 30
0.0
 11
0.0
 21
0.0
 31
0.0
  0
LINE
  5
93
100
AcDbEntity
  8
0
  6
BYBLOCK
 62
     0
100
AcDbLine
 10
0.0
 20
0.0
 30
0.0
 11
-1.0
 21
-0.166667
 31
0.0
  0
LINE
  5
94
100
AcDbEntity
  8
0
  6
BYBLOCK
 62
     0
100
AcDbLine
 10
0.0
 20
0.0
 30
0.0
 11
-1.0
 21
0.0
 31
0.0
  0
ENDBLK
  5
95
100
AcDbEntity
  8
0
100
AcDbBlockEnd
  0
BLOCK
  5
17E4
100
AcDbEntity
  8
0
 48
3.0
100
AcDbBlockBegin
  2
AZAVER
 70
     0
 10
0.0
 20
0.0
 30
0.0
  3
AZAVER
  1

  0
LINE
  5
1817
100
AcDbEntity
  8
V0-OBRYS
  6
CONTINUOUS
 62
    90
 48
3.0
100
AcDbLine
 10
40.124616
 20
15.125763
 30
0.0
 11
65.339471
 21
15.125763
 31
0.0
  0
LINE
  5
1818
100
AcDbEntity
  8
V0-OBRYS
  6
CONTINUOUS
 62
    90
 48
3.0
100
AcDbLine
 10
35.802071
 20
-6.469158
 30
0.0
 11
69.662016
 21
-6.469158
 31
0.0
  0
LINE
  5
1819
100
AcDbEntity
  8
V0-OBRYS
  6
CONTINUOUS
 62
    90
 48
3.0
100
AcDbLine
 10
40.124616
 20
-59.016801
 30
0.0
 11
65.339471
 21
-59.016801
 31
0.0
  0
LINE
  5
181A
100
AcDbEntity
  8
V0-OBRYS
  6
CONTINUOUS
 62
    90
 48
3.0
100
AcDbLine
 10
40.124616
 20
-28.06408
 30
0.0
 11
65.339471
 21
-28.06408
 31
0.0
  0
LINE
  5
181B
100
AcDbEntity
  8
V0-OBRYS
  6
CONTINUOUS
 62
    90
 48
3.0
100
AcDbLine
 10
40.124616
 20
-10.788143
 30
0.0
 11
65.339471
 21
-10.788143
 31
0.0
  0
LINE
  5
181C
100
AcDbEntity
  8
V0-OBRYS
  6
CONTINUOUS
 62
    90
 48
3.0
100
AcDbLine
 10
40.124616
 20
-59.016801
 30
0.0
 11
40.124616
 21
-28.06408
 31
0.0
  0
LINE
  5
181D
100
AcDbEntity
  8
V0-OBRYS
  6
CONTINUOUS
 62
    90
 48
3.0
100
AcDbLine
 10
40.124616
 20
15.125763
 30
0.0
 11
40.124616
 21
-10.788143
 31
0.0
  0
LINE
  5
181E
100
AcDbEntity
  8
V0-OBRYS
  6
CONTINUOUS
 62
    90
 48
3.0
100
AcDbLine
 10
35.081648
 20
-6.469158
 30
0.0
 11
35.081648
 21
-35.262385
 31
0.0
  0
LINE
  5
181F
100
AcDbEntity
  8
V0-OBRYS
  6
CONTINUOUS
 62
    90
 48
3.0
100
AcDbLine
 10
35.081648
 20
-35.262385
 30
0.0
 11
39.404193
 21
-35.262385
 31
0.0
  0
LINE
  5
1820
100
AcDbEntity
  8
V0-OBRYS
  6
CONTINUOUS
 62
    90
 48
3.0
100
AcDbLine
 10
65.339471
 20
-28.06408
 30
0.0
 11
65.339471
 21
-59.016801
 31
0.0
  0
LINE
  5
1821
100
AcDbEntity
  8
V0-OBRYS
  6
CONTINUOUS
 62
    90
 48
3.0
100
AcDbLine
 10
65.339471
 20
-10.788143
 30
0.0
 11
65.339471
 21
15.125763
 31
0.0
  0
LINE
  5
1822
100
AcDbEntity
  8
V0-OBRYS
  6
CONTINUOUS
 62
    90
 48
3.0
100
AcDbLine
 10
69.662016
 20
-6.469158
 30
0.0
 11
69.662016
 21
-35.262385
 31
0.0
  0
LINE
  5
1823
100
AcDbEntity
  8
V0-OBRYS
  6
CONTINUOUS
 62
    90
 48
3.0
100
AcDbLine
 10
69.662016
 20
-35.262385
 30
0.0
 11
65.339471
 21
-35.262385
 31
0.0
  0
ENDBLK
  5
17F2
100
AcDbEntity
  8
0
 48
3.0
100
AcDbBlockEnd
  0
BLOCK
  5
1878
100
AcDbEntity
  8
0
 48
3.0
100
AcDbBlockBegin
  2
AZAVER-P
 70
     0
 10
0.0
 20
0.0
 30
0.0
  3
AZAVER-P
  1

  0
LINE
  5
1879
100
AcDbEntity
  8
V0-OBRYS
  6
CONTINUOUS
 62
    90
 48
3.0
100
AcDbLine
 10
-3.827085
 20
-36.911801
 30
0.0
 11
-3.827085
 21
-70.692253
 31
0.0
  0
LINE
  5
187A
100
AcDbEntity
  8
V0-OBRYS
  6
CONTINUOUS
 62
    90
 48
3.0
100
AcDbLine
 10
-2.200766
 20
-70.692253
 30
0.0
 11
-2.200766
 21
-41.390269
 31
0.0
  0
ARC
  5
187B
100
AcDbEntity
  8
V0-OBRYS
  6
CONTINUOUS
 62
    90
 48
3.0
100
AcDbCircle
 10
-3.013925
 20
-70.692253
 30
0.0
 40
0.813159
100
AcDbArc
 50
180.0
 51
0.0
  0
LINE
  5
187C
100
AcDbEntity
  8
V0-OBRYS
  6
CONTINUOUS
 62
    90
 48
3.0
100
AcDbLine
 10
-6.519751
 20
-41.292399
 30
0.0
 11
-3.827085
 21
-41.292399
 31
0.0
  0
LINE
  5
187D
100
AcDbEntity
  8
V0-OBRYS
  6
CONTINUOUS
 62
    90
 48
3.0
100
AcDbLine
 10
-3.827085
 20
-66.507255
 30
0.0
 11
-6.519751
 21
-66.507255
 31
0.0
  0
LINE
  5
187E
100
AcDbEntity
  8
V0-OBRYS
  6
CONTINUOUS
 62
    90
 48
3.0
100
AcDbLine
 10
-6.519751
 20
-66.507255
 30
0.0
 11
-6.519751
 21
-41.292399
 31
0.0
  0
ARC
  5
187F
100
AcDbEntity
  8
V0-OBRYS
  6
CONTINUOUS
 62
    90
 48
3.0
100
AcDbCircle
 10
-3.013925
 20
-36.911801
 30
0.0
 40
0.813159
100
AcDbArc
 50
0.0
 51
180.0
  0
LINE
  5
1880
100
AcDbEntity
  8
V0-OBRYS
  6
CONTINUOUS
 62
    90
 48
3.0
100
AcDbLine
 10
-2.200766
 20
-41.390269
 30
0.0
 11
-2.200766
 21
-36.911801
 31
0.0
  0
LINE
  5
1881
100
AcDbEntity
  8
V0-OBRYS
  6
CONTINUOUS
 62
    90
 48
3.0
100
AcDbLine
 10
-2.191912
 20
-41.292399
 30
0.0
 11
0.0
 21
-41.292399
 31
0.0
  0
LINE
  5
1882
100
AcDbEntity
  8
V0-OBRYS
  6
CONTINUOUS
 62
    90
 48
3.0
100
AcDbLine
 10
0.0
 20
-66.507255
 30
0.0
 11
-2.191912
 21
-66.507255
 31
0.0
  0
ENDBLK
  5
1883
100
AcDbEntity
  8
0
 48
3.0
100
AcDbBlockEnd
  0
BLOCK
  5
189F
100
AcDbEntity
  8
0
 48
3.0
100
AcDbBlockBegin
  2
AZAVER-B
 70
     0
 10
0.0
 20
0.0
 30
0.0
  3
AZAVER-B
  1

  0
LINE
  5
18AE
100
AcDbEntity
  8
V0-OBRYS
  6
CONTINUOUS
 62
    90
 48
3.0
100
AcDbLine
 10
-7.466751
 20
-65.180052
 30
0.0
 11
-7.466751
 21
-78.057025
 31
0.0
  0
LINE
  5
18AF
100
AcDbEntity
  8
V0-OBRYS
  6
CONTINUOUS
 62
    90
 48
3.0
100
AcDbLine
 10
-3.324311
 20
-54.602539
 30
0.0
 11
-3.324311
 21
-25.629357
 31
0.0
  0
LINE
  5
18B0
100
AcDbEntity
  8
V0-OBRYS
  6
CONTINUOUS
 62
    90
 48
3.0
100
AcDbLine
 10
-5.625665
 20
-25.629357
 30
0.0
 11
-5.625665
 21
-54.602539
 31
0.0
  0
LINE
  5
18B1
100
AcDbEntity
  8
V0-OBRYS
  6
CONTINUOUS
 62
    90
 48
3.0
100
AcDbLine
 10
-5.625665
 20
-54.602539
 30
0.0
 11
-3.324311
 21
-54.602539
 31
0.0
  0
LINE
  5
18B2
100
AcDbEntity
  8
V0-OBRYS
  6
CONTINUOUS
 62
    90
 48
3.0
100
AcDbLine
 10
-1.483225
 20
-47.24427
 30
0.0
 11
-7.466751
 21
-47.24427
 31
0.0
  0
LINE
  5
18B3
100
AcDbEntity
  8
V0-OBRYS
  6
CONTINUOUS
 62
    90
 48
3.0
100
AcDbLine
 10
-7.466751
 20
-47.24427
 30
0.0
 11
-7.466751
 21
-65.180052
 31
0.0
  0
LINE
  5
18B4
100
AcDbEntity
  8
V0-OBRYS
  6
CONTINUOUS
 62
    90
 48
3.0
100
AcDbLine
 10
-1.483225
 20
-58.741568
 30
0.0
 11
-1.483225
 21
-47.24427
 31
0.0
  0
LINE
  5
18B5
100
AcDbEntity
  8
V0-OBRYS
  6
CONTINUOUS
 62
    90
 48
3.0
100
AcDbLine
 10
-3.324311
 20
-25.629357
 30
0.0
 11
-5.625665
 21
-25.629357
 31
0.0
  0
LINE
  5
18B6
100
AcDbEntity
  8
V0-OBRYS
  6
CONTINUOUS
 62
    90
 48
3.0
100
AcDbLine
 10
-1.483225
 20
-30.228273
 30
0.0
 11
-7.927024
 21
-30.228273
 31
0.0
  0
LINE
  5
18B7
100
AcDbEntity
  8
V0-OBRYS
  6
CONTINUOUS
 62
    90
 48
3.0
100
AcDbLine
 10
-7.927024
 20
-30.228273
 30
0.0
 11
-7.927024
 21
-24.249679
 31
0.0
  0
LINE
  5
18B8
100
AcDbEntity
  8
V0-OBRYS
  6
CONTINUOUS
 62
    90
 48
3.0
100
AcDbLine
 10
-1.483225
 20
-4.01444
 30
0.0
 11
-1.483225
 21
-30.228273
 31
0.0
  0
ENDBLK
  5
18AB
100
AcDbEntity
  8
0
 48
3.0
100
AcDbBlockEnd
  0
BLOCK
  5
18FC
100
AcDbEntity
  8
0
 62
    41
 48
3.0
100
AcDbBlockBegin
  2
CMB-240-180-N
 70
     0
 10
0.0
 20
0.0
 30
0.0
  3
CMB-240-180-N
  1

  0
LINE
  5
18D7
100
AcDbEntity
  8
V0-VYPLNE
100
AcDbLine
 10
-181.44995
 20
-26.63432
 30
0.0
 11
-181.44995
 21
-139.133702
 31
0.0
  0
ARC
  5
18D8
100
AcDbEntity
  8
V0-OBRYS
100
AcDbCircle
 10
-170.55995
 20
79.520028
 30
0.0
 40
209.33
100
AcDbArc
 50
182.626485
 51
270.0
  0
MTEXT
  5
18D9
100
AcDbEntity
  8
V0-NAZVY
100
AcDbMText
 10
-250.860869
 20
-44.196084
 30
0.0
 40
27.225
 41
223.9425
 71
     5
 72
     5
  1
CBM-240-180
  7
ED10
  0
LINE
  5
18DA
100
AcDbEntity
  8
V0-VYPLNE
100
AcDbLine
 10
25.866213
 20
100.090028
 30
0.0
 11
-335.743575
 21
100.090028
 31
0.0
  0
LWPOLYLINE
  5
18DB
100
AcDbEntity
  8
V0-OBRYS
100
AcDbPolyline
 90
        4
 70
     1
 43
0.0
 10
-252.833381
 20
-106.848253
 10
-182.833381
 20
-106.848253
 10
-182.833381
 20
-86.848253
 10
-252.833381
 20
-86.848253
  0
ARC
  5
18DC
100
AcDbEntity
  8
V0-OBRYS
100
AcDbCircle
 10
-184.44995
 20
100.090028
 30
0.0
 40
67.414501
100
AcDbArc
 50
32.684046
 51
147.424572
  0
ARC
  5
18DD
100
AcDbEntity
  8
V0-OBRYS
100
AcDbCircle
 10
-184.44995
 20
100.090028
 30
0.0
 40
105.571475
100
AcDbArc
 50
31.727031
 51
148.450037
  0
ARC
  5
18DE
100
AcDbEntity
  8
V0-OBRYS
100
AcDbCircle
 10
-184.44995
 20
100.090028
 30
0.0
 40
110.298019
100
AcDbArc
 50
31.609657
 51
148.514274
  0
LINE
  5
18DF
100
AcDbEntity
  8
V0-OBRYS
100
AcDbLine
 10
-208.026241
 20
110.208837
 30
0.0
 11
-295.708955
 21
160.832476
 31
0.0
  0
LINE
  5
18E0
100
AcDbEntity
  8
V0-OBRYS
100
AcDbLine
 10
-205.001241
 20
115.44829
 30
0.0
 11
-292.683955
 21
166.071929
 31
0.0
  0
ARC
  5
18E1
100
AcDbEntity
  8
V0-OBRYS
100
AcDbCircle
 10
-184.44995
 20
100.090028
 30
0.0
 40
110.298019
100
AcDbArc
 50
151.558401
 51
268.418387
  0
ARC
  5
18E2
100
AcDbEntity
  8
V0-OBRYS
100
AcDbCircle
 10
-184.44995
 20
100.090028
 30
0.0
 40
105.571475
100
AcDbArc
 50
151.655913
 51
268.285088
  0
ARC
  5
18E3
100
AcDbEntity
  8
V0-OBRYS
100
AcDbCircle
 10
-184.44995
 20
100.090028
 30
0.0
 40
67.414501
100
AcDbArc
 50
152.614823
 51
267.600439
  0
ARC
  5
18E4
100
AcDbEntity
  8
V0-OBRYS
100
AcDbCircle
 10
-197.17995
 20
79.520028
 30
0.0
 40
182.71
100
AcDbArc
 50
90.0
 51
182.916555
  0
ARC
  5
18E5
100
AcDbEntity
  8
V0-OBRYS
100
AcDbCircle
 10
-294.196455
 20
163.452203
 30
0.0
 40
3.025
100
AcDbArc
 50
60.0
 51
240.0
  0
ARC
  5
18E6
100
AcDbEntity
  8
V0-OBRYS
100
AcDbCircle
 10
-170.55995
 20
79.520028
 30
0.0
 40
209.33
100
AcDbArc
 50
179.728476
 51
180.0
  0
ARC
  5
18E7
100
AcDbEntity
  8
V0-OBRYS
100
AcDbCircle
 10
-74.703445
 20
163.452203
 30
0.0
 40
3.025
100
AcDbArc
 50
300.0
 51
120.0
  0
LINE
  5
18E8
100
AcDbEntity
  8
V0-OBRYS
100
AcDbLine
 10
-163.89866
 20
115.44829
 30
0.0
 11
-76.215945
 21
166.071929
 31
0.0
  0
LINE
  5
18E9
100
AcDbEntity
  8
V0-VYPLNE
100
AcDbLine
 10
-183.44995
 20
261.435409
 30
0.0
 11
-184.44995
 21
-26.63432
 31
0.0
  0
ARC
  5
18EA
100
AcDbEntity
  8
V0-OBRYS
100
AcDbCircle
 10
-205.836025
 20
98.077269
 30
0.0
 40
164.380826
100
AcDbArc
 50
11.130492
 51
86.981485
  0
ARC
  5
18EB
100
AcDbEntity
  8
V0-OBRYS
100
AcDbCircle
 10
-184.44995
 20
100.090028
 30
0.0
 40
110.298019
100
AcDbArc
 50
271.628789
 51
28.480046
  0
ARC
  5
18EC
100
AcDbEntity
  8
V0-OBRYS
100
AcDbCircle
 10
-184.44995
 20
100.090028
 30
0.0
 40
105.571475
100
AcDbArc
 50
271.637083
 51
28.280642
  0
LINE
  5
18ED
100
AcDbEntity
  8
V0-OBRYS
100
AcDbLine
 10
-187.47495
 20
74.612957
 30
0.0
 11
-187.47495
 21
-26.63432
 31
0.0
  0
LINE
  5
18EE
100
AcDbEntity
  8
V0-OBRYS
100
AcDbLine
 10
-181.42495
 20
74.612957
 30
0.0
 11
-181.42495
 21
-26.63432
 31
0.0
  0
LINE
  5
18EF
100
AcDbEntity
  8
V0-OBRYS
100
AcDbLine
 10
-44.547191
 20
129.810028
 30
0.0
 11
-44.547191
 21
-129.265036
 31
0.0
  0
LINE
  5
18F0
100
AcDbEntity
  8
V0-OBRYS
100
AcDbLine
 10
0.00005
 20
-129.809972
 30
0.0
 11
0.00005
 21
129.810028
 31
0.0
  0
LWPOLYLINE
  5
18F1
100
AcDbEntity
  8
V0-OBRYS
100
AcDbPolyline
 90
        4
 70
     1
 43
0.0
 10
-147.266717
 20
-120.838177
 10
-87.266717
 20
-120.838177
 10
-87.266717
 20
-60.838177
 10
-147.266717
 20
-60.838177
  0
LINE
  5
18F2
100
AcDbEntity
  8
V0-OBRYS
100
AcDbLine
 10
-170.55995
 20
-129.809972
 30
0.0
 11
0.00005
 21
-129.809972
 31
0.0
  0
ARC
  5
18F3
100
AcDbEntity
  8
V0-OBRYS
100
AcDbCircle
 10
-181.44995
 20
-26.63432
 30
0.0
 40
3.025
100
AcDbArc
 50
180.0
 51
0.0
  0
POINT
  5
18F4
100
AcDbEntity
  8
0
  6
CONTINUOUS
 62
     7
100
AcDbPoint
 10
0.00005
 20
0.000028
 30
0.0
  0
ARC
  5
18F5
100
AcDbEntity
  8
V0-OBRYS
100
AcDbCircle
 10
-184.44995
 20
100.090028
 30
0.0
 40
67.414501
100
AcDbArc
 50
272.565236
 51
27.437736
  0
LINE
  5
18F6
100
AcDbEntity
  8
V0-OBRYS
100
AcDbLine
 10
-160.87366
 20
110.208837
 30
0.0
 11
-73.190945
 21
160.832476
 31
0.0
  0
CIRCLE
  5
18F7
100
AcDbEntity
  8
V0-OBRYS
100
AcDbCircle
 10
-184.44995
 20
100.090028
 30
0.0
 40
25.477071
  0
LINE
  5
18F8
100
AcDbEntity
  8
V0-OBRYS
100
AcDbLine
 10
-181.42495
 20
74.612957
 30
0.0
 11
-187.47495
 21
74.612957
 31
0.0
  0
LINE
  5
18F9
100
AcDbEntity
  8
V0-OBRYS
100
AcDbLine
 10
-208.026241
 20
110.208837
 30
0.0
 11
-205.001241
 21
115.44829
 31
0.0
  0
LINE
  5
18FA
100
AcDbEntity
  8
V0-OBRYS
100
AcDbLine
 10
-163.89866
 20
115.44829
 30
0.0
 11
-160.87366
 21
110.208837
 31
0.0
  0
LINE
  5
18FB
100
AcDbEntity
  8
V0-OBRYS
100
AcDbLine
 10
-44.547191
 20
129.810028
 30
0.0
 11
0.00005
 21
129.810028
 31
0.0
  0
ENDBLK
  5
18FD
100
AcDbEntity
  8
0
 62
    41
 48
3.0
100
AcDbBlockEnd
  0
BLOCK
  5
2695
100
AcDbEntity
  8
0
 48
3.0
100
AcDbBlockBegin
  2
*D6
 70
     1
 10
0.0
 20
0.0
 30
0.0
  3
*D6
  1

  0
LINE
  5
2696
100
AcDbEntity
  8
0
  6
BYBLOCK
 62
     0
 48
3.0
100
AcDbLine
 10
135.399435
 20
158.0
 30
0.0
 11
135.399435
 21
233.787469
 31
0.0
  0
LINE
  5
2697
100
AcDbEntity
  8
0
  6
BYBLOCK
 62
     0
 48
3.0
100
AcDbLine
 10
95.399435
 20
159.5
 30
0.0
 11
95.399435
 21
233.787469
 31
0.0
  0
LINE
  5
2698
100
AcDbEntity
  8
0
  6
BYBLOCK
 62
     0
 48
3.0
100
AcDbLine
 10
155.399435
 20
232.537469
 30
0.0
 11
175.399435
 21
232.537469
 31
0.0
  0
LINE
  5
2699
100
AcDbEntity
  8
0
  6
BYBLOCK
 62
     0
 48
3.0
100
AcDbLine
 10
75.399435
 20
232.537469
 30
0.0
 11
55.399435
 21
232.537469
 31
0.0
  0
LINE
  5
269A
100
AcDbEntity
  8
0
  6
BYBLOCK
 62
     0
 48
3.0
100
AcDbLine
 10
135.399435
 20
232.537469
 30
0.0
 11
95.399435
 21
232.537469
 31
0.0
  0
INSERT
  5
269B
100
AcDbEntity
  8
0
  6
BYBLOCK
 62
     0
 48
3.0
100
AcDbBlockReference
  2
_OPEN
 10
135.399435
 20
232.537469
 30
0.0
 41
20.0
 42
20.0
 43
20.0
 50
180.0
  0
INSERT
  5
269C
100
AcDbEntity
  8
0
  6
BYBLOCK
 62
     0
 48
3.0
100
AcDbBlockReference
  2
_OPEN
 10
95.399435
 20
232.537469
 30
0.0
 41
20.0
 42
20.0
 43
20.0
  0
MTEXT
  5
269D
100
AcDbEntity
  8
0
  6
BYBLOCK
 62
     0
 48
3.0
100
AcDbMText
 10
115.399435
 20
244.537469
 30
0.0
 40
20.0
 41
0.0
 71
     5
 72
     1
  1
\A1;40
  7
ED20
  0
POINT
  5
269E
100
AcDbEntity
  8
DEFPOINTS
  6
BYBLOCK
 62
     0
 48
3.0
100
AcDbPoint
 10
135.399435
 20
157.0
 30
0.0
  0
POINT
  5
269F
100
AcDbEntity
  8
DEFPOINTS
  6
BYBLOCK
 62
     0
 48
3.0
100
AcDbPoint
 10
95.399435
 20
158.5
 30
0.0
  0
POINT
  5
26A0
100
AcDbEntity
  8
DEFPOINTS
  6
BYBLOCK
 62
     0
 48
3.0
100
AcDbPoint
 10
95.399435
 20
232.537469
 30
0.0
  0
ENDBLK
  5
26A1
100
AcDbEntity
  8
0
 48
3.0
100
AcDbBlockEnd
  0
BLOCK
  5
2646
100
AcDbEntity
  8
0
 48
3.0
100
AcDbBlockBegin
  2
*D7
 70
     1
 10
0.0
 20
0.0
 30
0.0
  3
*D7
  1

  0
LINE
  5
2647
100
AcDbEntity
  8
0
  6
BYBLOCK
 62
     0
 48
3.0
100
AcDbLine
 10
73.899435
 20
205.0
 30
0.0
 11
217.350005
 21
205.0
 31
0.0
  0
LINE
  5
2648
100
AcDbEntity
  8
0
  6
BYBLOCK
 62
     0
 48
3.0
100
AcDbLine
 10
73.899435
 20
-205.358737
 30
0.0
 11
217.350005
 21
-205.358737
 31
0.0
  0
LINE
  5
2649
100
AcDbEntity
  8
0
  6
BYBLOCK
 62
     0
 48
3.0
100
AcDbLine
 10
216.100005
 20
185.0
 30
0.0
 11
216.100005
 21
-185.358737
 31
0.0
  0
INSERT
  5
264A
100
AcDbEntity
  8
0
  6
BYBLOCK
 62
     0
 48
3.0
100
AcDbBlockReference
  2
_OPEN
 10
216.100005
 20
205.0
 30
0.0
 41
20.0
 42
20.0
 43
20.0
 50
90.0
  0
INSERT
  5
264B
100
AcDbEntity
  8
0
  6
BYBLOCK
 62
     0
 48
3.0
100
AcDbBlockReference
  2
_OPEN
 10
216.100005
 20
-205.358737
 30
0.0
 41
20.0
 42
20.0
 43
20.0
 50
270.0
  0
MTEXT
  5
264C
100
AcDbEntity
  8
0
  6
BYBLOCK
 62
     0
 48
3.0
100
AcDbMText
 10
204.100005
 20
-0.179369
 30
0.0
 40
20.0
 41
0.0
 71
     5
 72
     1
  1
\A1;\U+2205410
  7
ED20
 11
0.0
 21
1.0
 31
0.0
  0
POINT
  5
264D
100
AcDbEntity
  8
DEFPOINTS
  6
BYBLOCK
 62
     0
 48
3.0
100
AcDbPoint
 10
72.899435
 20
205.0
 30
0.0
  0
POINT
  5
264E
100
AcDbEntity
  8
DEFPOINTS
  6
BYBLOCK
 62
     0
 48
3.0
100
AcDbPoint
 10
72.899435
 20
-205.358737
 30
0.0
  0
POINT
  5
264F
100
AcDbEntity
  8
DEFPOINTS
  6
BYBLOCK
 62
     0
 48
3.0
100
AcDbPoint
 10
216.100005
 20
-205.358737
 30
0.0
  0
ENDBLK
  5
2650
100
AcDbEntity
  8
0
 48
3.0
100
AcDbBlockEnd
  0
BLOCK
  5
1F21
100
AcDbEntity
  8
0
 48
3.0
100
AcDbBlockBegin
  2
*D8
 70
     1
 10
0.0
 20
0.0
 30
0.0
  3
*D8
  1

  0
LINE
  5
1F18
100
AcDbEntity
  8
0
  6
BYBLOCK
 62
     0
 48
3.0
100
AcDbLine
 10
253.683213
 20
-714.336202
 30
0.0
 11
253.683213
 21
-920.674458
 31
0.0
  0
LINE
  5
1F19
100
AcDbEntity
  8
0
  6
BYBLOCK
 62
     0
 48
3.0
100
AcDbLine
 10
644.683213
 20
-714.336202
 30
0.0
 11
644.683213
 21
-920.674458
 31
0.0
  0
LINE
  5
1F1A
100
AcDbEntity
  8
0
  6
BYBLOCK
 62
     0
 48
3.0
100
AcDbLine
 10
273.683213
 20
-919.424458
 30
0.0
 11
624.683213
 21
-919.424458
 31
0.0
  0
INSERT
  5
1F1B
100
AcDbEntity
  8
0
  6
BYBLOCK
 62
     0
 48
3.0
100
AcDbBlockReference
  2
_OPEN
 10
253.683213
 20
-919.424458
 30
0.0
 41
20.0
 42
20.0
 43
20.0
 50
180.0
  0
INSERT
  5
1F1C
100
AcDbEntity
  8
0
  6
BYBLOCK
 62
     0
 48
3.0
100
AcDbBlockReference
  2
_OPEN
 10
644.683213
 20
-919.424458
 30
0.0
 41
20.0
 42
20.0
 43
20.0
  0
MTEXT
  5
1F1D
100
AcDbEntity
  8
0
  6
BYBLOCK
 62
     0
 48
3.0
100
AcDbMText
 10
446.304902
 20
-907.424458
 30
0.0
 40
20.0
 41
0.0
 71
     5
 72
     1
  1
\A1;391
  7
ED20
  0
POINT
  5
1F1E
100
AcDbEntity
  8
DEFPOINTS
  6
BYBLOCK
 62
     0
 48
3.0
100
AcDbPoint
 10
253.683213
 20
-713.336202
 30
0.0
  0
POINT
  5
1F1F
100
AcDbEntity
  8
DEFPOINTS
  6
BYBLOCK
 62
     0
 48
3.0
100
AcDbPoint
 10
644.683213
 20
-713.336202
 30
0.0
  0
POINT
  5
1F20
100
AcDbEntity
  8
DEFPOINTS
  6
BYBLOCK
 62
     0
 48
3.0
100
AcDbPoint
 10
644.683213
 20
-919.424458
 30
0.0
  0
ENDBLK
  5
1F22
100
AcDbEntity
  8
0
 48
3.0
100
AcDbBlockEnd
  0
BLOCK
  5
1F2D
100
AcDbEntity
  8
0
 48
3.0
100
AcDbBlockBegin
  2
*D9
 70
     1
 10
0.0
 20
0.0
 30
0.0
  3
*D9
  1

  0
LINE
  5
1F24
100
AcDbEntity
  8
0
  6
BYBLOCK
 62
     0
 48
3.0
100
AcDbLine
 10
608.683213
 20
-531.836202
 30
0.0
 11
741.826644
 21
-531.836202
 31
0.0
  0
LINE
  5
1F25
100
AcDbEntity
  8
0
  6
BYBLOCK
 62
     0
 48
3.0
100
AcDbLine
 10
608.683213
 20
-823.836202
 30
0.0
 11
741.826644
 21
-823.836202
 31
0.0
  0
LINE
  5
1F26
100
AcDbEntity
  8
0
  6
BYBLOCK
 62
     0
 48
3.0
100
AcDbLine
 10
740.576644
 20
-551.836202
 30
0.0
 11
740.576644
 21
-803.836202
 31
0.0
  0
INSERT
  5
1F27
100
AcDbEntity
  8
0
  6
BYBLOCK
 62
     0
 48
3.0
100
AcDbBlockReference
  2
_OPEN
 10
740.576644
 20
-531.836202
 30
0.0
 41
20.0
 42
20.0
 43
20.0
 50
90.0
  0
INSERT
  5
1F28
100
AcDbEntity
  8
0
  6
BYBLOCK
 62
     0
 48
3.0
100
AcDbBlockReference
  2
_OPEN
 10
740.576644
 20
-823.836202
 30
0.0
 41
20.0
 42
20.0
 43
20.0
 50
270.0
  0
MTEXT
  5
1F29
100
AcDbEntity
  8
0
  6
BYBLOCK
 62
     0
 48
3.0
100
AcDbMText
 10
728.569842
 20
-686.996356
 30
0.0
 40
20.0
 41
0.0
 71
     5
 72
     1
  1
\A1;292
  7
ED20
 11
0.0
 21
1.0
 31
0.0
  0
POINT
  5
1F2A
100
AcDbEntity
  8
DEFPOINTS
  6
BYBLOCK
 62
     0
 48
3.0
100
AcDbPoint
 10
607.683213
 20
-531.836202
 30
0.0
  0
POINT
  5
1F2B
100
AcDbEntity
  8
DEFPOINTS
  6
BYBLOCK
 62
     0
 48
3.0
100
AcDbPoint
 10
607.683213
 20
-823.836202
 30
0.0
  0
POINT
  5
1F2C
100
AcDbEntity
  8
DEFPOINTS
  6
BYBLOCK
 62
     0
 48
3.0
100
AcDbPoint
 10
740.576644
 20
-823.836202
 30
0.0
  0
ENDBLK
  5
1F2E
100
AcDbEntity
  8
0
 48
3.0
100
AcDbBlockEnd
  0
BLOCK
  5
1F39
100
AcDbEntity
  8
0
 48
3.0
100
AcDbBlockBegin
  2
*D10
 70
     1
 10
0.0
 20
0.0
 30
0.0
  3
*D10
  1

  0
LINE
  5
1F30
100
AcDbEntity
  8
0
  6
BYBLOCK
 62
     0
 48
3.0
100
AcDbLine
 10
838.518337
 20
-827.836202
 30
0.0
 11
838.518337
 21
-879.251626
 31
0.0
  0
LINE
  5
1F31
100
AcDbEntity
  8
0
  6
BYBLOCK
 62
     0
 48
3.0
100
AcDbLine
 10
1198.518337
 20
-827.836202
 30
0.0
 11
1198.518337
 21
-879.251626
 31
0.0
  0
LINE
  5
1F32
100
AcDbEntity
  8
0
  6
BYBLOCK
 62
     0
 48
3.0
100
AcDbLine
 10
858.518337
 20
-878.001626
 30
0.0
 11
1178.518337
 21
-878.001626
 31
0.0
  0
INSERT
  5
1F33
100
AcDbEntity
  8
0
  6
BYBLOCK
 62
     0
 48
3.0
100
AcDbBlockReference
  2
_OPEN
 10
838.518337
 20
-878.001626
 30
0.0
 41
20.0
 42
20.0
 43
20.0
 50
180.0
  0
INSERT
  5
1F34
100
AcDbEntity
  8
0
  6
BYBLOCK
 62
     0
 48
3.0
100
AcDbBlockReference
  2
_OPEN
 10
1198.518337
 20
-878.001626
 30
0.0
 41
20.0
 42
20.0
 43
20.0
  0
MTEXT
  5
1F35
100
AcDbEntity
  8
0
  6
BYBLOCK
 62
     0
 48
3.0
100
AcDbMText
 10
1018.518337
 20
-866.001626
 30
0.0
 40
20.0
 41
0.0
 71
     5
 72
     1
  1
\A1;360
  7
ED20
  0
POINT
  5
1F36
100
AcDbEntity
  8
DEFPOINTS
  6
BYBLOCK
 62
     0
 48
3.0
100
AcDbPoint
 10
838.518337
 20
-826.836202
 30
0.0
  0
POINT
  5
1F37
100
AcDbEntity
  8
DEFPOINTS
  6
BYBLOCK
 62
     0
 48
3.0
100
AcDbPoint
 10
1198.518337
 20
-826.836202
 30
0.0
  0
POINT
  5
1F38
100
AcDbEntity
  8
DEFPOINTS
  6
BYBLOCK
 62
     0
 48
3.0
100
AcDbPoint
 10
1198.518337
 20
-878.001626
 30
0.0
  0
ENDBLK
  5
1F3A
100
AcDbEntity
  8
0
 48
3.0
100
AcDbBlockEnd
  0
BLOCK
  5
1F45
100
AcDbEntity
  8
0
 48
3.0
100
AcDbBlockBegin
  2
*D11
 70
     1
 10
0.0
 20
0.0
 30
0.0
  3
*D11
  1

  0
LINE
  5
1F3C
100
AcDbEntity
  8
0
  6
BYBLOCK
 62
     0
 48
3.0
100
AcDbLine
 10
645.683213
 20
-588.336202
 30
0.0
 11
703.19878
 21
-588.336202
 31
0.0
  0
LINE
  5
1F3D
100
AcDbEntity
  8
0
  6
BYBLOCK
 62
     0
 48
3.0
100
AcDbLine
 10
645.683213
 20
-713.336202
 30
0.0
 11
703.19878
 21
-713.336202
 31
0.0
  0
LINE
  5
1F3E
100
AcDbEntity
  8
0
  6
BYBLOCK
 62
     0
 48
3.0
100
AcDbLine
 10
701.94878
 20
-608.336202
 30
0.0
 11
701.94878
 21
-693.336202
 31
0.0
  0
INSERT
  5
1F3F
100
AcDbEntity
  8
0
  6
BYBLOCK
 62
     0
 48
3.0
100
AcDbBlockReference
  2
_OPEN
 10
701.94878
 20
-588.336202
 30
0.0
 41
20.0
 42
20.0
 43
20.0
 50
90.0
  0
INSERT
  5
1F40
100
AcDbEntity
  8
0
  6
BYBLOCK
 62
     0
 48
3.0
100
AcDbBlockReference
  2
_OPEN
 10
701.94878
 20
-713.336202
 30
0.0
 41
20.0
 42
20.0
 43
20.0
 50
270.0
  0
MTEXT
  5
1F41
100
AcDbEntity
  8
0
  6
BYBLOCK
 62
     0
 48
3.0
100
AcDbMText
 10
689.946811
 20
-650.836202
 30
0.0
 40
20.0
 41
0.0
 71
     5
 72
     1
  1
\A1;\U+2205125
  7
ED20
 11
0.0
 21
1.0
 31
0.0
  0
POINT
  5
1F42
100
AcDbEntity
  8
DEFPOINTS
  6
BYBLOCK
 62
     0
 48
3.0
100
AcDbPoint
 10
644.683213
 20
-588.336202
 30
0.0
  0
POINT
  5
1F43
100
AcDbEntity
  8
DEFPOINTS
  6
BYBLOCK
 62
     0
 48
3.0
100
AcDbPoint
 10
644.683213
 20
-713.336202
 30
0.0
  0
POINT
  5
1F44
100
AcDbEntity
  8
DEFPOINTS
  6
BYBLOCK
 62
     0
 48
3.0
100
AcDbPoint
 10
701.94878
 20
-713.336202
 30
0.0
  0
ENDBLK
  5
1F46
100
AcDbEntity
  8
0
 48
3.0
100
AcDbBlockEnd
  0
BLOCK
  5
1F51
100
AcDbEntity
  8
0
 48
3.0
100
AcDbBlockBegin
  2
*D12
 70
     1
 10
0.0
 20
0.0
 30
0.0
  3
*D12
  1

  0
LINE
  5
1F48
100
AcDbEntity
  8
0
  6
BYBLOCK
 62
     0
 48
3.0
100
AcDbLine
 10
252.683213
 20
-650.836202
 30
0.0
 11
209.598399
 21
-650.836202
 31
0.0
  0
LINE
  5
1F49
100
AcDbEntity
  8
0
  6
BYBLOCK
 62
     0
 48
3.0
100
AcDbLine
 10
289.683213
 20
-823.836202
 30
0.0
 11
209.598399
 21
-823.836202
 31
0.0
  0
LINE
  5
1F4A
100
AcDbEntity
  8
0
  6
BYBLOCK
 62
     0
 48
3.0
100
AcDbLine
 10
210.848399
 20
-670.836202
 30
0.0
 11
210.848399
 21
-803.836202
 31
0.0
  0
INSERT
  5
1F4B
100
AcDbEntity
  8
0
  6
BYBLOCK
 62
     0
 48
3.0
100
AcDbBlockReference
  2
_OPEN
 10
210.848399
 20
-650.836202
 30
0.0
 41
20.0
 42
20.0
 43
20.0
 50
90.0
  0
INSERT
  5
1F4C
100
AcDbEntity
  8
0
  6
BYBLOCK
 62
     0
 48
3.0
100
AcDbBlockReference
  2
_OPEN
 10
210.848399
 20
-823.836202
 30
0.0
 41
20.0
 42
20.0
 43
20.0
 50
270.0
  0
MTEXT
  5
1F4D
100
AcDbEntity
  8
0
  6
BYBLOCK
 62
     0
 48
3.0
100
AcDbMText
 10
198.848399
 20
-737.336202
 30
0.0
 40
20.0
 41
0.0
 71
     5
 72
     1
  1
\A1;173
  7
ED20
 11
0.0
 21
1.0
 31
0.0
  0
POINT
  5
1F4E
100
AcDbEntity
  8
DEFPOINTS
  6
BYBLOCK
 62
     0
 48
3.0
100
AcDbPoint
 10
253.683213
 20
-650.836202
 30
0.0
  0
POINT
  5
1F4F
100
AcDbEntity
  8
DEFPOINTS
  6
BYBLOCK
 62
     0
 48
3.0
100
AcDbPoint
 10
290.683213
 20
-823.836202
 30
0.0
  0
POINT
  5
1F50
100
AcDbEntity
  8
DEFPOINTS
  6
BYBLOCK
 62
     0
 48
3.0
100
AcDbPoint
 10
210.848399
 20
-823.836202
 30
0.0
  0
ENDBLK
  5
1F52
100
AcDbEntity
  8
0
 48
3.0
100
AcDbBlockEnd
  0
BLOCK
  5
1F5D
100
AcDbEntity
  8
0
 48
3.0
100
AcDbBlockBegin
  2
*D13
 70
     1
 10
0.0
 20
0.0
 30
0.0
  3
*D13
  1

  0
LINE
  5
1F54
100
AcDbEntity
  8
0
  6
BYBLOCK
 62
     0
 48
3.0
100
AcDbLine
 10
290.683213
 20
-824.836202
 30
0.0
 11
290.683213
 21
-874.64909
 31
0.0
  0
LINE
  5
1F55
100
AcDbEntity
  8
0
  6
BYBLOCK
 62
     0
 48
3.0
100
AcDbLine
 10
607.683213
 20
-824.836202
 30
0.0
 11
607.683213
 21
-874.64909
 31
0.0
  0
LINE
  5
1F56
100
AcDbEntity
  8
0
  6
BYBLOCK
 62
     0
 48
3.0
100
AcDbLine
 10
310.683213
 20
-873.39909
 30
0.0
 11
587.683213
 21
-873.39909
 31
0.0
  0
INSERT
  5
1F57
100
AcDbEntity
  8
0
  6
BYBLOCK
 62
     0
 48
3.0
100
AcDbBlockReference
  2
_OPEN
 10
290.683213
 20
-873.39909
 30
0.0
 41
20.0
 42
20.0
 43
20.0
 50
180.0
  0
INSERT
  5
1F58
100
AcDbEntity
  8
0
  6
BYBLOCK
 62
     0
 48
3.0
100
AcDbBlockReference
  2
_OPEN
 10
607.683213
 20
-873.39909
 30
0.0
 41
20.0
 42
20.0
 43
20.0
  0
MTEXT
  5
1F59
100
AcDbEntity
  8
0
  6
BYBLOCK
 62
     0
 48
3.0
100
AcDbMText
 10
449.183213
 20
-861.39909
 30
0.0
 40
20.0
 41
0.0
 71
     5
 72
     1
  1
\A1;317
  7
ED20
  0
POINT
  5
1F5A
100
AcDbEntity
  8
DEFPOINTS
  6
BYBLOCK
 62
     0
 48
3.0
100
AcDbPoint
 10
290.683213
 20
-823.836202
 30
0.0
  0
POINT
  5
1F5B
100
AcDbEntity
  8
DEFPOINTS
  6
BYBLOCK
 62
     0
 48
3.0
100
AcDbPoint
 10
607.683213
 20
-823.836202
 30
0.0
  0
POINT
  5
1F5C
100
AcDbEntity
  8
DEFPOINTS
  6
BYBLOCK
 62
     0
 48
3.0
100
AcDbPoint
 10
607.683213
 20
-873.39909
 30
0.0
  0
ENDBLK
  5
1F5E
100
AcDbEntity
  8
0
 48
3.0
100
AcDbBlockEnd
  0
BLOCK
  5
1F6B
100
AcDbEntity
  8
0
 48
3.0
100
AcDbBlockBegin
  2
*D14
 70
     1
 10
0.0
 20
0.0
 30
0.0
  3
*D14
  1

  0
LINE
  5
1F60
100
AcDbEntity
  8
0
  6
BYBLOCK
 62
     0
 48
3.0
100
AcDbLine
 10
253.683213
 20
-714.336202
 30
0.0
 11
253.683213
 21
-874.64909
 31
0.0
  0
LINE
  5
1F61
100
AcDbEntity
  8
0
  6
BYBLOCK
 62
     0
 48
3.0
100
AcDbLine
 10
290.683213
 20
-714.336202
 30
0.0
 11
290.683213
 21
-874.64909
 31
0.0
  0
LINE
  5
1F62
100
AcDbEntity
  8
0
  6
BYBLOCK
 62
     0
 48
3.0
100
AcDbLine
 10
233.683213
 20
-873.39909
 30
0.0
 11
213.683213
 21
-873.39909
 31
0.0
  0
LINE
  5
1F63
100
AcDbEntity
  8
0
  6
BYBLOCK
 62
     0
 48
3.0
100
AcDbLine
 10
310.683213
 20
-873.39909
 30
0.0
 11
330.683213
 21
-873.39909
 31
0.0
  0
LINE
  5
1F64
100
AcDbEntity
  8
0
  6
BYBLOCK
 62
     0
 48
3.0
100
AcDbLine
 10
253.683213
 20
-873.39909
 30
0.0
 11
290.683213
 21
-873.39909
 31
0.0
  0
INSERT
  5
1F65
100
AcDbEntity
  8
0
  6
BYBLOCK
 62
     0
 48
3.0
100
AcDbBlockReference
  2
_OPEN
 10
253.683213
 20
-873.39909
 30
0.0
 41
20.0
 42
20.0
 43
20.0
  0
INSERT
  5
1F66
100
AcDbEntity
  8
0
  6
BYBLOCK
 62
     0
 48
3.0
100
AcDbBlockReference
  2
_OPEN
 10
290.683213
 20
-873.39909
 30
0.0
 41
20.0
 42
20.0
 43
20.0
 50
180.0
  0
MTEXT
  5
1F67
100
AcDbEntity
  8
0
  6
BYBLOCK
 62
     0
 48
3.0
100
AcDbMText
 10
272.183213
 20
-861.39909
 30
0.0
 40
20.0
 41
0.0
 71
     5
 72
     1
  1
\A1;37
  7
ED20
  0
POINT
  5
1F68
100
AcDbEntity
  8
DEFPOINTS
  6
BYBLOCK
 62
     0
 48
3.0
100
AcDbPoint
 10
253.683213
 20
-713.336202
 30
0.0
  0
POINT
  5
1F69
100
AcDbEntity
  8
DEFPOINTS
  6
BYBLOCK
 62
     0
 48
3.0
100
AcDbPoint
 10
290.683213
 20
-713.336202
 30
0.0
  0
POINT
  5
1F6A
100
AcDbEntity
  8
DEFPOINTS
  6
BYBLOCK
 62
     0
 48
3.0
100
AcDbPoint
 10
290.683213
 20
-873.39909
 30
0.0
  0
ENDBLK
  5
1F6C
100
AcDbEntity
  8
0
 48
3.0
100
AcDbBlockEnd
  0
BLOCK
  5
1F79
100
AcDbEntity
  8
0
 48
3.0
100
AcDbBlockBegin
  2
*D15
 70
     1
 10
0.0
 20
0.0
 30
0.0
  3
*D15
  1

  0
LINE
  5
1F6E
100
AcDbEntity
  8
0
  6
BYBLOCK
 62
     0
 48
3.0
100
AcDbLine
 10
607.683213
 20
-824.836202
 30
0.0
 11
607.683213
 21
-874.64909
 31
0.0
  0
LINE
  5
1F6F
100
AcDbEntity
  8
0
  6
BYBLOCK
 62
     0
 48
3.0
100
AcDbLine
 10
644.683213
 20
-714.336202
 30
0.0
 11
644.683213
 21
-874.64909
 31
0.0
  0
LINE
  5
1F70
100
AcDbEntity
  8
0
  6
BYBLOCK
 62
     0
 48
3.0
100
AcDbLine
 10
587.683213
 20
-873.39909
 30
0.0
 11
567.683213
 21
-873.39909
 31
0.0
  0
LINE
  5
1F71
100
AcDbEntity
  8
0
  6
BYBLOCK
 62
     0
 48
3.0
100
AcDbLine
 10
664.683213
 20
-873.39909
 30
0.0
 11
684.683213
 21
-873.39909
 31
0.0
  0
LINE
  5
1F72
100
AcDbEntity
  8
0
  6
BYBLOCK
 62
     0
 48
3.0
100
AcDbLine
 10
607.683213
 20
-873.39909
 30
0.0
 11
644.683213
 21
-873.39909
 31
0.0
  0
INSERT
  5
1F73
100
AcDbEntity
  8
0
  6
BYBLOCK
 62
     0
 48
3.0
100
AcDbBlockReference
  2
_OPEN
 10
607.683213
 20
-873.39909
 30
0.0
 41
20.0
 42
20.0
 43
20.0
  0
INSERT
  5
1F74
100
AcDbEntity
  8
0
  6
BYBLOCK
 62
     0
 48
3.0
100
AcDbBlockReference
  2
_OPEN
 10
644.683213
 20
-873.39909
 30
0.0
 41
20.0
 42
20.0
 43
20.0
 50
180.0
  0
MTEXT
  5
1F75
100
AcDbEntity
  8
0
  6
BYBLOCK
 62
     0
 48
3.0
100
AcDbMText
 10
626.183213
 20
-861.39909
 30
0.0
 40
20.0
 41
0.0
 71
     5
 72
     1
  1
\A1;37
  7
ED20
  0
POINT
  5
1F76
100
AcDbEntity
  8
DEFPOINTS
  6
BYBLOCK
 62
     0
 48
3.0
100
AcDbPoint
 10
607.683213
 20
-823.836202
 30
0.0
  0
POINT
  5
1F77
100
AcDbEntity
  8
DEFPOINTS
  6
BYBLOCK
 62
     0
 48
3.0
100
AcDbPoint
 10
644.683213
 20
-713.336202
 30
0.0
  0
POINT
  5
1F78
100
AcDbEntity
  8
DEFPOINTS
  6
BYBLOCK
 62
     0
 48
3.0
100
AcDbPoint
 10
644.683213
 20
-873.39909
 30
0.0
  0
ENDBLK
  5
1F7A
100
AcDbEntity
  8
0
 48
3.0
100
AcDbBlockEnd
  0
BLOCK
  5
1F85
100
AcDbEntity
  8
0
 48
3.0
100
AcDbBlockBegin
  2
*D16
 70
     1
 10
0.0
 20
0.0
 30
0.0
  3
*D16
  1

  0
LINE
  5
1F7C
100
AcDbEntity
  8
0
  6
BYBLOCK
 62
     0
 48
3.0
100
AcDbLine
 10
609.683213
 20
-530.836202
 30
0.0
 11
609.683213
 21
-497.042351
 31
0.0
  0
LINE
  5
1F7D
100
AcDbEntity
  8
0
  6
BYBLOCK
 62
     0
 48
3.0
100
AcDbLine
 10
288.683213
 20
-530.836202
 30
0.0
 11
288.683213
 21
-497.042351
 31
0.0
  0
LINE
  5
1F7E
100
AcDbEntity
  8
0
  6
BYBLOCK
 62
     0
 48
3.0
100
AcDbLine
 10
589.683213
 20
-498.292351
 30
0.0
 11
308.683213
 21
-498.292351
 31
0.0
  0
INSERT
  5
1F7F
100
AcDbEntity
  8
0
  6
BYBLOCK
 62
     0
 48
3.0
100
AcDbBlockReference
  2
_OPEN
 10
609.683213
 20
-498.292351
 30
0.0
 41
20.0
 42
20.0
 43
20.0
  0
INSERT
  5
1F80
100
AcDbEntity
  8
0
  6
BYBLOCK
 62
     0
 48
3.0
100
AcDbBlockReference
  2
_OPEN
 10
288.683213
 20
-498.292351
 30
0.0
 41
20.0
 42
20.0
 43
20.0
 50
180.0
  0
MTEXT
  5
1F81
100
AcDbEntity
  8
0
  6
BYBLOCK
 62
     0
 48
3.0
100
AcDbMText
 10
449.183213
 20
-486.290383
 30
0.0
 40
20.0
 41
0.0
 71
     5
 72
     1
  1
\A1;321
  7
ED20
  0
POINT
  5
1F82
100
AcDbEntity
  8
DEFPOINTS
  6
BYBLOCK
 62
     0
 48
3.0
100
AcDbPoint
 10
609.683213
 20
-531.836202
 30
0.0
  0
POINT
  5
1F83
100
AcDbEntity
  8
DEFPOINTS
  6
BYBLOCK
 62
     0
 48
3.0
100
AcDbPoint
 10
288.683213
 20
-531.836202
 30
0.0
  0
POINT
  5
1F84
100
AcDbEntity
  8
DEFPOINTS
  6
BYBLOCK
 62
     0
 48
3.0
100
AcDbPoint
 10
288.683213
 20
-498.292351
 30
0.0
  0
ENDBLK
  5
1F86
100
AcDbEntity
  8
0
 48
3.0
100
AcDbBlockEnd
  0
BLOCK
  5
1F91
100
AcDbEntity
  8
0
 48
3.0
100
AcDbBlockBegin
  2
*D17
 70
     1
 10
0.0
 20
0.0
 30
0.0
  3
*D17
  1

  0
LINE
  5
1F88
100
AcDbEntity
  8
0
  6
BYBLOCK
 62
     0
 48
3.0
100
AcDbLine
 10
836.518337
 20
-530.836202
 30
0.0
 11
836.518337
 21
-475.398395
 31
0.0
  0
LINE
  5
1F89
100
AcDbEntity
  8
0
  6
BYBLOCK
 62
     0
 48
3.0
100
AcDbLine
 10
1200.518337
 20
-530.836202
 30
0.0
 11
1200.518337
 21
-475.398395
 31
0.0
  0
LINE
  5
1F8A
100
AcDbEntity
  8
0
  6
BYBLOCK
 62
     0
 48
3.0
100
AcDbLine
 10
856.518337
 20
-476.648395
 30
0.0
 11
1180.518337
 21
-476.648395
 31
0.0
  0
INSERT
  5
1F8B
100
AcDbEntity
  8
0
  6
BYBLOCK
 62
     0
 48
3.0
100
AcDbBlockReference
  2
_OPEN
 10
836.518337
 20
-476.648395
 30
0.0
 41
20.0
 42
20.0
 43
20.0
 50
180.0
  0
INSERT
  5
1F8C
100
AcDbEntity
  8
0
  6
BYBLOCK
 62
     0
 48
3.0
100
AcDbBlockReference
  2
_OPEN
 10
1200.518337
 20
-476.648395
 30
0.0
 41
20.0
 42
20.0
 43
20.0
  0
MTEXT
  5
1F8D
100
AcDbEntity
  8
0
  6
BYBLOCK
 62
     0
 48
3.0
100
AcDbMText
 10
1008.763695
 20
-464.648395
 30
0.0
 40
20.0
 41
0.0
 71
     5
 72
     1
  1
\A1;364
  7
ED20
  0
POINT
  5
1F8E
100
AcDbEntity
  8
DEFPOINTS
  6
BYBLOCK
 62
     0
 48
3.0
100
AcDbPoint
 10
836.518337
 20
-531.836202
 30
0.0
  0
POINT
  5
1F8F
100
AcDbEntity
  8
DEFPOINTS
  6
BYBLOCK
 62
     0
 48
3.0
100
AcDbPoint
 10
1200.518337
 20
-531.836202
 30
0.0
  0
POINT
  5
1F90
100
AcDbEntity
  8
DEFPOINTS
  6
BYBLOCK
 62
     0
 48
3.0
100
AcDbPoint
 10
1200.518337
 20
-476.648395
 30
0.0
  0
ENDBLK
  5
1F92
100
AcDbEntity
  8
0
 48
3.0
100
AcDbBlockEnd
  0
BLOCK
  5
1F9D
100
AcDbEntity
  8
0
 48
3.0
100
AcDbBlockBegin
  2
*D18
 70
     1
 10
0.0
 20
0.0
 30
0.0
  3
*D18
  1

  0
LINE
  5
1F94
100
AcDbEntity
  8
0
  6
BYBLOCK
 62
     0
 48
3.0
100
AcDbLine
 10
287.683213
 20
-231.836202
 30
0.0
 11
239.539558
 21
-231.836202
 31
0.0
  0
LINE
  5
1F95
100
AcDbEntity
  8
0
  6
BYBLOCK
 62
     0
 48
3.0
100
AcDbLine
 10
287.683213
 20
-531.836202
 30
0.0
 11
239.539558
 21
-531.836202
 31
0.0
  0
LINE
  5
1F96
100
AcDbEntity
  8
0
  6
BYBLOCK
 62
     0
 48
3.0
100
AcDbLine
 10
240.789558
 20
-251.836202
 30
0.0
 11
240.789558
 21
-511.836202
 31
0.0
  0
INSERT
  5
1F97
100
AcDbEntity
  8
0
  6
BYBLOCK
 62
     0
 48
3.0
100
AcDbBlockReference
  2
_OPEN
 10
240.789558
 20
-231.836202
 30
0.0
 41
20.0
 42
20.0
 43
20.0
 50
90.0
  0
INSERT
  5
1F98
100
AcDbEntity
  8
0
  6
BYBLOCK
 62
     0
 48
3.0
100
AcDbBlockReference
  2
_OPEN
 10
240.789558
 20
-531.836202
 30
0.0
 41
20.0
 42
20.0
 43
20.0
 50
270.0
  0
MTEXT
  5
1F99
100
AcDbEntity
  8
0
  6
BYBLOCK
 62
     0
 48
3.0
100
AcDbMText
 10
228.789558
 20
-381.836202
 30
0.0
 40
20.0
 41
0.0
 71
     5
 72
     1
  1
\A1;300
  7
ED20
 11
0.0
 21
1.0
 31
0.0
  0
POINT
  5
1F9A
100
AcDbEntity
  8
DEFPOINTS
  6
BYBLOCK
 62
     0
 48
3.0
100
AcDbPoint
 10
288.683213
 20
-231.836202
 30
0.0
  0
POINT
  5
1F9B
100
AcDbEntity
  8
DEFPOINTS
  6
BYBLOCK
 62
     0
 48
3.0
100
AcDbPoint
 10
288.683213
 20
-531.836202
 30
0.0
  0
POINT
  5
1F9C
100
AcDbEntity
  8
DEFPOINTS
  6
BYBLOCK
 62
     0
 48
3.0
100
AcDbPoint
 10
240.789558
 20
-531.836202
 30
0.0
  0
ENDBLK
  5
1F9E
100
AcDbEntity
  8
0
 48
3.0
100
AcDbBlockEnd
  0
BLOCK
  5
207D
100
AcDbEntity
  8
0
 62
    41
 48
3.0
100
AcDbBlockBegin
  2
EDRI-125
 70
     0
 10
0.0
 20
0.0
 30
0.0
  3
EDRI-125
  1

  0
LINE
  5
1FA0
100
AcDbEntity
  8
V0-VYPLNE
 48
3.0
100
AcDbLine
 10
300.875946
 20
-637.050618
 30
0.0
 11
389.97147
 21
-637.050618
 31
0.0
  0
LINE
  5
1FA1
100
AcDbEntity
  8
V0-VYPLNE
 48
3.0
100
AcDbLine
 10
908.863475
 20
-650.836202
 30
0.0
 11
1106.003044
 21
-650.836202
 31
0.0
  0
LINE
  5
1FA2
100
AcDbEntity
  8
V0-OBRYS
  6
CONTINUOUS
 62
    90
 48
3.0
100
AcDbLine
 10
290.683213
 20
-551.836202
 30
0.0
 11
290.683213
 21
-823.836202
 31
0.0
  0
LINE
  5
1FA3
100
AcDbEntity
  8
V0-OBRYS
  6
CONTINUOUS
 62
    90
 48
3.0
100
AcDbLine
 10
288.683213
 20
-531.836202
 30
0.0
 11
609.683213
 21
-531.836202
 31
0.0
  0
LINE
  5
1FA4
100
AcDbEntity
  8
V0-OBRYS
  6
CONTINUOUS
 62
    90
 48
3.0
100
AcDbLine
 10
290.683213
 20
-823.836202
 30
0.0
 11
607.683213
 21
-823.836202
 31
0.0
  0
LINE
  5
1FA5
100
AcDbEntity
  8
V0-OBRYS
  6
CONTINUOUS
 62
    90
 48
3.0
100
AcDbLine
 10
607.683213
 20
-551.836202
 30
0.0
 11
607.683213
 21
-823.836202
 31
0.0
  0
LINE
  5
1FA6
100
AcDbEntity
  8
V0-OBRYS
  6
CONTINUOUS
 62
    90
 48
3.0
100
AcDbLine
 10
838.518337
 20
-551.836202
 30
0.0
 11
838.518337
 21
-826.836202
 31
0.0
  0
LINE
  5
1FA7
100
AcDbEntity
  8
V0-OBRYS
  6
CONTINUOUS
 62
    90
 48
3.0
100
AcDbLine
 10
1198.518337
 20
-551.836202
 30
0.0
 11
1198.518337
 21
-826.836202
 31
0.0
  0
LINE
  5
1FA8
100
AcDbEntity
  8
V0-OBRYS
  6
CONTINUOUS
 62
    90
 48
3.0
100
AcDbLine
 10
836.518337
 20
-531.836202
 30
0.0
 11
1200.518337
 21
-531.836202
 31
0.0
  0
LINE
  5
1FA9
100
AcDbEntity
  8
V0-OBRYS
 48
3.0
100
AcDbLine
 10
253.683213
 20
-713.336202
 30
0.0
 11
253.683213
 21
-588.336202
 31
0.0
  0
LINE
  5
1FAA
100
AcDbEntity
  8
V0-OBRYS
 48
3.0
100
AcDbLine
 10
253.683213
 20
-713.336202
 30
0.0
 11
263.683213
 21
-713.336202
 31
0.0
  0
LINE
  5
1FAB
100
AcDbEntity
  8
V0-OBRYS
 48
3.0
100
AcDbLine
 10
253.683213
 20
-588.336202
 30
0.0
 11
263.683213
 21
-588.336202
 31
0.0
  0
LINE
  5
1FAC
100
AcDbEntity
  8
V0-OBRYS
 48
3.0
100
AcDbLine
 10
263.683213
 20
-588.336202
 30
0.0
 11
263.683213
 21
-713.336202
 31
0.0
  0
LINE
  5
1FAD
100
AcDbEntity
  8
V0-OBRYS
 48
3.0
100
AcDbLine
 10
273.683213
 20
-713.336202
 30
0.0
 11
273.683213
 21
-588.336202
 31
0.0
  0
ARC
  5
1FAE
100
AcDbEntity
  8
V0-OBRYS
 48
3.0
100
AcDbCircle
 10
268.683213
 20
-588.336202
 30
0.0
 40
5.0
100
AcDbArc
 50
0.0
 51
180.0
  0
ARC
  5
1FAF
100
AcDbEntity
  8
V0-OBRYS
 48
3.0
100
AcDbCircle
 10
268.683213
 20
-713.336202
 30
0.0
 40
5.0
100
AcDbArc
 50
180.0
 51
0.0
  0
LINE
  5
1FB0
100
AcDbEntity
  8
V0-OBRYS
 48
3.0
100
AcDbLine
 10
273.683213
 20
-588.336202
 30
0.0
 11
290.683213
 21
-588.336202
 31
0.0
  0
LINE
  5
1FB1
100
AcDbEntity
  8
V0-OBRYS
 48
3.0
100
AcDbLine
 10
273.683213
 20
-713.336202
 30
0.0
 11
290.683213
 21
-713.336202
 31
0.0
  0
LINE
  5
1FB2
100
AcDbEntity
  8
V0-OBRYS
 48
3.0
100
AcDbLine
 10
624.683213
 20
-713.336202
 30
0.0
 11
624.683213
 21
-588.336202
 31
0.0
  0
LINE
  5
1FB3
100
AcDbEntity
  8
V0-OBRYS
 48
3.0
100
AcDbLine
 10
634.683213
 20
-588.336202
 30
0.0
 11
634.683213
 21
-713.336202
 31
0.0
  0
LINE
  5
1FB4
100
AcDbEntity
  8
V0-OBRYS
 48
3.0
100
AcDbLine
 10
644.683213
 20
-713.336202
 30
0.0
 11
644.683213
 21
-588.336202
 31
0.0
  0
LINE
  5
1FB5
100
AcDbEntity
  8
V0-OBRYS
 48
3.0
100
AcDbLine
 10
624.683213
 20
-713.336202
 30
0.0
 11
607.683213
 21
-713.336202
 31
0.0
  0
LINE
  5
1FB6
100
AcDbEntity
  8
V0-OBRYS
 48
3.0
100
AcDbLine
 10
644.683213
 20
-713.336202
 30
0.0
 11
634.683213
 21
-713.336202
 31
0.0
  0
ARC
  5
1FB7
100
AcDbEntity
  8
V0-OBRYS
 48
3.0
100
AcDbCircle
 10
629.683213
 20
-713.336202
 30
0.0
 40
5.0
100
AcDbArc
 50
180.0
 51
360.0
  0
LINE
  5
1FB8
100
AcDbEntity
  8
V0-OBRYS
 48
3.0
100
AcDbLine
 10
624.683213
 20
-588.336202
 30
0.0
 11
607.683213
 21
-588.336202
 31
0.0
  0
LINE
  5
1FB9
100
AcDbEntity
  8
V0-OBRYS
 48
3.0
100
AcDbLine
 10
644.683213
 20
-588.336202
 30
0.0
 11
634.683213
 21
-588.336202
 31
0.0
  0
ARC
  5
1FBA
100
AcDbEntity
  8
V0-OBRYS
 48
3.0
100
AcDbCircle
 10
629.683213
 20
-588.336202
 30
0.0
 40
5.0
100
AcDbArc
 50
360.0
 51
180.0
  0
LINE
  5
1FBB
100
AcDbEntity
  8
V0-VYPLNE
 48
3.0
100
AcDbLine
 10
231.852871
 20
-1199.568518
 30
0.0
 11
648.935856
 21
-1199.568518
 31
0.0
  0
LINE
  5
1FBC
100
AcDbEntity
  8
V0-OBRYS
 48
3.0
100
AcDbLine
 10
273.683213
 20
-1262.068518
 30
0.0
 11
273.683213
 21
-1137.068518
 31
0.0
  0
LINE
  5
1FBD
100
AcDbEntity
  8
V0-OBRYS
 48
3.0
100
AcDbLine
 10
263.683213
 20
-1137.068518
 30
0.0
 11
263.683213
 21
-1262.068518
 31
0.0
  0
LINE
  5
1FBE
100
AcDbEntity
  8
V0-OBRYS
 48
3.0
100
AcDbLine
 10
253.683213
 20
-1262.068518
 30
0.0
 11
253.683213
 21
-1137.068518
 31
0.0
  0
LINE
  5
1FBF
100
AcDbEntity
  8
V0-OBRYS
 48
3.0
100
AcDbLine
 10
273.683213
 20
-1262.068518
 30
0.0
 11
288.683213
 21
-1262.068518
 31
0.0
  0
LINE
  5
1FC0
100
AcDbEntity
  8
V0-OBRYS
 48
3.0
100
AcDbLine
 10
253.683213
 20
-1262.068518
 30
0.0
 11
263.683213
 21
-1262.068518
 31
0.0
  0
ARC
  5
1FC1
100
AcDbEntity
  8
V0-OBRYS
 48
3.0
100
AcDbCircle
 10
268.683213
 20
-1262.068518
 30
0.0
 40
5.0
100
AcDbArc
 50
180.0
 51
0.0
  0
LINE
  5
1FC2
100
AcDbEntity
  8
V0-OBRYS
 48
3.0
100
AcDbLine
 10
273.683213
 20
-1137.068518
 30
0.0
 11
288.683213
 21
-1137.068518
 31
0.0
  0
LINE
  5
1FC3
100
AcDbEntity
  8
V0-OBRYS
 48
3.0
100
AcDbLine
 10
253.683213
 20
-1137.068518
 30
0.0
 11
263.683213
 21
-1137.068518
 31
0.0
  0
ARC
  5
1FC4
100
AcDbEntity
  8
V0-OBRYS
 48
3.0
100
AcDbCircle
 10
268.683213
 20
-1137.068518
 30
0.0
 40
5.0
100
AcDbArc
 50
0.0
 51
180.0
  0
LINE
  5
1FC5
100
AcDbEntity
  8
V0-OBRYS
 48
3.0
100
AcDbLine
 10
642.683213
 20
-1262.068518
 30
0.0
 11
642.683213
 21
-1137.068518
 31
0.0
  0
LINE
  5
1FC6
100
AcDbEntity
  8
V0-OBRYS
 48
3.0
100
AcDbLine
 10
632.683213
 20
-1137.068518
 30
0.0
 11
632.683213
 21
-1262.068518
 31
0.0
  0
LINE
  5
1FC7
100
AcDbEntity
  8
V0-OBRYS
 48
3.0
100
AcDbLine
 10
622.683213
 20
-1262.068518
 30
0.0
 11
622.683213
 21
-1137.068518
 31
0.0
  0
LINE
  5
1FC8
100
AcDbEntity
  8
V0-OBRYS
 48
3.0
100
AcDbLine
 10
622.683213
 20
-1262.068518
 30
0.0
 11
609.683213
 21
-1262.068518
 31
0.0
  0
ARC
  5
1FC9
100
AcDbEntity
  8
V0-OBRYS
 48
3.0
100
AcDbCircle
 10
627.683213
 20
-1262.068518
 30
0.0
 40
5.0
100
AcDbArc
 50
180.0
 51
360.0
  0
LINE
  5
1FCA
100
AcDbEntity
  8
V0-OBRYS
 48
3.0
100
AcDbLine
 10
642.683213
 20
-1262.068518
 30
0.0
 11
632.683213
 21
-1262.068518
 31
0.0
  0
LINE
  5
1FCB
100
AcDbEntity
  8
V0-OBRYS
 48
3.0
100
AcDbLine
 10
622.683213
 20
-1137.068518
 30
0.0
 11
609.683213
 21
-1137.068518
 31
0.0
  0
ARC
  5
1FCC
100
AcDbEntity
  8
V0-OBRYS
 48
3.0
100
AcDbCircle
 10
627.683213
 20
-1137.068518
 30
0.0
 40
5.0
100
AcDbArc
 50
360.0
 51
180.0
  0
LINE
  5
1FCD
100
AcDbEntity
  8
V0-OBRYS
 48
3.0
100
AcDbLine
 10
642.683213
 20
-1137.068518
 30
0.0
 11
632.683213
 21
-1137.068518
 31
0.0
  0
DIMENSION
  5
1FCE
100
AcDbEntity
  8
V0-VYPLNE
  6
CONTINUOUS
 62
    41
 48
3.0
100
AcDbDimension
  2
*D8
 10
644.683213
 20
-919.424458
 30
0.0
 11
446.304902
 21
-919.424458
 31
0.0
 70
   160
  3
ED20
100
AcDbAlignedDimension
 13
253.683213
 23
-713.336202
 33
0.0
 14
644.683213
 24
-713.336202
 34
0.0
100
AcDbRotatedDimension
1001
ACAD
1000
DSTYLE
1002
{
1070
    40
1040
1.0
1002
}
  0
DIMENSION
  5
1FCF
100
AcDbEntity
  8
V0-VYPLNE
  6
CONTINUOUS
 62
    41
 48
3.0
100
AcDbDimension
  2
*D9
 10
740.576644
 20
-823.836202
 30
0.0
 11
740.576644
 21
-686.996356
 31
0.0
 70
   160
  3
ED20
100
AcDbAlignedDimension
 13
607.683213
 23
-531.836202
 33
0.0
 14
607.683213
 24
-823.836202
 34
0.0
 50
90.0
100
AcDbRotatedDimension
1001
ACAD
1000
DSTYLE
1002
{
1070
    40
1040
1.0
1002
}
  0
DIMENSION
  5
1FD0
100
AcDbEntity
  8
V0-VYPLNE
  6
CONTINUOUS
 62
    41
 48
3.0
100
AcDbDimension
  2
*D10
 10
1198.518337
 20
-878.001626
 30
0.0
 11
1018.518337
 21
-878.001626
 31
0.0
 70
   160
  3
ED20
100
AcDbAlignedDimension
 13
838.518337
 23
-826.836202
 33
0.0
 14
1198.518337
 24
-826.836202
 34
0.0
100
AcDbRotatedDimension
1001
ACAD
1000
DSTYLE
1002
{
1070
    40
1040
1.0
1002
}
  0
MTEXT
  5
1FD1
100
AcDbEntity
  8
V0-ZBYTEK
100
AcDbMText
 10
1025.019765
 20
-1260.099802
 30
0.0
 40
22.5
 41
353.4649
 71
     5
 72
     5
  1
ZVUKOVE  IZOLOVANY
  7
ED10
  0
MTEXT
  5
1FD2
100
AcDbEntity
  8
V0-ZBYTEK
 62
    51
100
AcDbMText
 10
1028.606069
 20
-1191.914947
 30
0.0
 40
31.5
 41
892.3329
 71
     5
 72
     5
  1
RADIALNI VENTILATOR
  7
ED10
  0
MTEXT
  5
1FD3
100
AcDbEntity
  8
V0-NAZVY
100
AcDbMText
 10
1014.16971
 20
-1109.462536
 30
0.0
 40
56.25
 41
462.6911
 71
     5
 72
     5
  1
EDRI-125
  7
ED10
  0
MTEXT
  5
1FD4
100
AcDbEntity
  8
V0-NAZVY
100
AcDbMText
 10
1017.586292
 20
-788.312664
 30
0.0
 40
33.75
 41
277.6147
 71
     5
 72
     5
  1
EDRI-125
  7
ED10
  0
LINE
  5
1FD5
100
AcDbEntity
  8
V0-VYPLNE
  6
DASHDOT
 62
    63
 48
3.0
100
AcDbLine
 10
1018.518337
 20
-577.755941
 30
0.0
 11
1018.518337
 21
-729.094645
 31
0.0
  0
CIRCLE
  5
1FD6
100
AcDbEntity
  8
V0-OBRYS
  6
CONTINUOUS
 62
    90
 48
3.0
100
AcDbCircle
 10
1018.518337
 20
-650.836202
 30
0.0
 40
62.4
  0
CIRCLE
  5
1FD7
100
AcDbEntity
  8
V0-OBRYS
  6
CONTINUOUS
 62
    90
 48
3.0
100
AcDbCircle
 10
1018.518337
 20
-650.836202
 30
0.0
 40
67.699793
  0
DIMENSION
  5
1FD8
100
AcDbEntity
  8
V0-VYPLNE
  6
CONTINUOUS
 62
    41
 48
3.0
100
AcDbDimension
  2
*D11
 10
701.94878
 20
-713.336202
 30
0.0
 11
689.946811
 21
-650.836202
 31
0.0
 70
    32
  1
%%c<>
  3
ED20
100
AcDbAlignedDimension
 13
644.683213
 23
-588.336202
 33
0.0
 14
644.683213
 24
-713.336202
 34
0.0
 50
90.0
100
AcDbRotatedDimension
1001
ACAD
1000
DSTYLE
1002
{
1070
    40
1040
1.0
1002
}
  0
MTEXT
  5
1FD9
100
AcDbEntity
  8
V0-NAZVY
100
AcDbMText
 10
387.937105
 20
-580.035896
 30
0.0
 40
29.7
 41
244.3009
 71
     5
 72
     5
  1
EDRI-125
  7
ED10
  0
MTEXT
  5
1FDA
100
AcDbEntity
  8
V0-NAZVY
100
AcDbMText
 10
443.594288
 20
-1137.923426
 30
0.0
 40
33.75
 41
277.6147
 71
     5
 72
     5
  1
EDRI-125
  7
ED10
  0
POINT
  5
1FDB
100
AcDbEntity
  8
V0-VYPLNE
  6
CONTINUOUS
 62
    41
 48
3.0
100
AcDbPoint
 10
253.683213
 20
-650.836202
 30
0.0
  0
POINT
  5
1FDC
100
AcDbEntity
  8
V0-VYPLNE
  6
CONTINUOUS
 62
    41
 48
3.0
100
AcDbPoint
 10
644.683213
 20
-650.836202
 30
0.0
  0
POINT
  5
1FDD
100
AcDbEntity
  8
V0-VYPLNE
  6
CONTINUOUS
 62
    41
 48
3.0
100
AcDbPoint
 10
253.683213
 20
-1199.568518
 30
0.0
  0
POINT
  5
1FDE
100
AcDbEntity
  8
V0-VYPLNE
  6
CONTINUOUS
 62
    41
 48
3.0
100
AcDbPoint
 10
642.683213
 20
-1199.568518
 30
0.0
  0
DIMENSION
  5
1FDF
100
AcDbEntity
  8
V0-VYPLNE
  6
CONTINUOUS
 62
    41
 48
3.0
100
AcDbDimension
  2
*D12
 10
210.848399
 20
-823.836202
 30
0.0
 11
210.848399
 21
-737.336202
 31
0.0
 70
   160
  3
ED20
100
AcDbAlignedDimension
 13
253.683213
 23
-650.836202
 33
0.0
 14
290.683213
 24
-823.836202
 34
0.0
 50
90.0
100
AcDbRotatedDimension
1001
ACAD
1000
DSTYLE
1002
{
1070
    40
1040
1.0
1002
}
  0
DIMENSION
  5
1FE0
100
AcDbEntity
  8
V0-VYPLNE
  6
CONTINUOUS
 62
    41
 48
3.0
100
AcDbDimension
  2
*D13
 10
607.683213
 20
-873.39909
 30
0.0
 11
449.183213
 21
-873.39909
 31
0.0
 70
   160
  3
ED20
100
AcDbAlignedDimension
 13
290.683213
 23
-823.836202
 33
0.0
 14
607.683213
 24
-823.836202
 34
0.0
100
AcDbRotatedDimension
1001
ACAD
1000
DSTYLE
1002
{
1070
    40
1040
1.0
1002
}
  0
DIMENSION
  5
1FE1
100
AcDbEntity
  8
V0-VYPLNE
  6
CONTINUOUS
 62
    41
 48
3.0
100
AcDbDimension
  2
*D14
 10
290.683213
 20
-873.39909
 30
0.0
 11
272.183213
 21
-873.39909
 31
0.0
 70
   160
  3
ED20
100
AcDbAlignedDimension
 13
253.683213
 23
-713.336202
 33
0.0
 14
290.683213
 24
-713.336202
 34
0.0
100
AcDbRotatedDimension
1001
ACAD
1000
DSTYLE
1002
{
1070
    40
1040
1.0
1002
}
  0
DIMENSION
  5
1FE2
100
AcDbEntity
  8
V0-VYPLNE
  6
CONTINUOUS
 62
    41
 48
3.0
100
AcDbDimension
  2
*D15
 10
644.683213
 20
-873.39909
 30
0.0
 11
626.183213
 21
-873.39909
 31
0.0
 70
   160
  3
ED20
100
AcDbAlignedDimension
 13
607.683213
 23
-823.836202
 33
0.0
 14
644.683213
 24
-713.336202
 34
0.0
100
AcDbRotatedDimension
1001
ACAD
1000
DSTYLE
1002
{
1070
    40
1040
1.0
1002
}
  0
LINE
  5
1FE3
100
AcDbEntity
  8
V0-OBRYS
  6
CONTINUOUS
 62
    90
 48
3.0
100
AcDbLine
 10
288.683213
 20
-531.836202
 30
0.0
 11
288.683213
 21
-551.836202
 31
0.0
  0
LINE
  5
1FE4
100
AcDbEntity
  8
V0-OBRYS
  6
CONTINUOUS
 62
    90
 48
3.0
100
AcDbLine
 10
288.683213
 20
-551.836202
 30
0.0
 11
609.683213
 21
-551.836202
 31
0.0
  0
LINE
  5
1FE5
100
AcDbEntity
  8
V0-OBRYS
  6
CONTINUOUS
 62
    90
 48
3.0
100
AcDbLine
 10
609.683213
 20
-551.836202
 30
0.0
 11
609.683213
 21
-531.836202
 31
0.0
  0
LINE
  5
1FE6
100
AcDbEntity
  8
V0-OBRYS
  6
CONTINUOUS
 62
    90
 48
3.0
100
AcDbLine
 10
1198.518337
 20
-826.836202
 30
0.0
 11
837.268337
 21
-826.836202
 31
0.0
  0
LINE
  5
1FE7
100
AcDbEntity
  8
V0-OBRYS
  6
CONTINUOUS
 62
    90
 48
3.0
100
AcDbLine
 10
1200.518337
 20
-531.836202
 30
0.0
 11
1200.518337
 21
-551.836202
 31
0.0
  0
LINE
  5
1FE8
100
AcDbEntity
  8
V0-OBRYS
  6
CONTINUOUS
 62
    90
 48
3.0
100
AcDbLine
 10
836.518337
 20
-531.836202
 30
0.0
 11
836.518337
 21
-551.836202
 31
0.0
  0
LINE
  5
1FE9
100
AcDbEntity
  8
V0-OBRYS
  6
CONTINUOUS
 62
    90
 48
3.0
100
AcDbLine
 10
836.518337
 20
-551.836202
 30
0.0
 11
876.642953
 21
-551.836202
 31
0.0
  0
LINE
  5
1FEA
100
AcDbEntity
  8
V0-OBRYS
  6
CONTINUOUS
 62
    90
 48
3.0
100
AcDbLine
 10
962.475087
 20
-624.831584
 30
0.0
 11
1018.518337
 21
-624.831584
 31
0.0
  0
LINE
  5
1FEB
100
AcDbEntity
  8
V0-OBRYS
  6
CONTINUOUS
 62
    90
 48
3.0
100
AcDbLine
 10
976.4859
 20
-683.7408
 30
0.0
 11
976.4859
 21
-645.194154
 31
0.0
  0
LINE
  5
1FEC
100
AcDbEntity
  8
V0-OBRYS
  6
CONTINUOUS
 62
    90
 48
3.0
100
AcDbLine
 10
976.4859
 20
-645.194154
 30
0.0
 11
1018.518337
 21
-645.194154
 31
0.0
  0
LINE
  5
1FED
100
AcDbEntity
  8
V0-OBRYS
  6
CONTINUOUS
 62
    90
 48
3.0
100
AcDbLine
 10
876.525877
 20
-536.105034
 30
0.0
 11
876.525877
 21
-562.018939
 31
0.0
  0
LINE
  5
1FEE
100
AcDbEntity
  8
V0-OBRYS
  6
CONTINUOUS
 62
    90
 48
3.0
100
AcDbLine
 10
876.525877
 20
-562.018939
 30
0.0
 11
901.740733
 21
-562.018939
 31
0.0
  0
LINE
  5
1FEF
100
AcDbEntity
  8
V0-OBRYS
  6
CONTINUOUS
 62
    90
 48
3.0
100
AcDbLine
 10
901.740733
 20
-562.018939
 30
0.0
 11
901.740733
 21
-536.105034
 31
0.0
  0
LINE
  5
1FF0
100
AcDbEntity
  8
V0-OBRYS
  6
CONTINUOUS
 62
    90
 48
3.0
100
AcDbLine
 10
901.857808
 20
-551.836202
 30
0.0
 11
1135.178865
 21
-551.836202
 31
0.0
  0
LINE
  5
1FF1
100
AcDbEntity
  8
V0-OBRYS
  6
CONTINUOUS
 62
    90
 48
3.0
100
AcDbLine
 10
876.525877
 20
-579.294876
 30
0.0
 11
901.740733
 21
-579.294876
 31
0.0
  0
LINE
  5
1FF2
100
AcDbEntity
  8
V0-OBRYS
  6
CONTINUOUS
 62
    90
 48
3.0
100
AcDbLine
 10
876.525877
 20
-610.247598
 30
0.0
 11
876.525877
 21
-579.294876
 31
0.0
  0
LINE
  5
1FF3
100
AcDbEntity
  8
V0-OBRYS
  6
CONTINUOUS
 62
    90
 48
3.0
100
AcDbLine
 10
901.740733
 20
-579.294876
 30
0.0
 11
901.740733
 21
-610.247598
 31
0.0
  0
LINE
  5
1FF4
100
AcDbEntity
  8
V0-OBRYS
  6
CONTINUOUS
 62
    90
 48
3.0
100
AcDbLine
 10
876.525877
 20
-610.247598
 30
0.0
 11
901.740733
 21
-610.247598
 31
0.0
  0
LINE
  5
1FF5
100
AcDbEntity
  8
V0-OBRYS
  6
CONTINUOUS
 62
    90
 48
3.0
100
AcDbLine
 10
872.203333
 20
-557.699955
 30
0.0
 11
906.063277
 21
-557.699955
 31
0.0
  0
LINE
  5
1FF6
100
AcDbEntity
  8
V0-OBRYS
  6
CONTINUOUS
 62
    90
 48
3.0
100
AcDbLine
 10
906.063277
 20
-557.699955
 30
0.0
 11
906.063277
 21
-586.493181
 31
0.0
  0
LINE
  5
1FF7
100
AcDbEntity
  8
V0-OBRYS
  6
CONTINUOUS
 62
    90
 48
3.0
100
AcDbLine
 10
906.063277
 20
-586.493181
 30
0.0
 11
901.740733
 21
-586.493181
 31
0.0
  0
LINE
  5
1FF8
100
AcDbEntity
  8
V0-OBRYS
  6
CONTINUOUS
 62
    90
 48
3.0
100
AcDbLine
 10
871.48291
 20
-557.699955
 30
0.0
 11
871.48291
 21
-586.493181
 31
0.0
  0
LINE
  5
1FF9
100
AcDbEntity
  8
V0-OBRYS
  6
CONTINUOUS
 62
    90
 48
3.0
100
AcDbLine
 10
871.48291
 20
-586.493181
 30
0.0
 11
875.805454
 21
-586.493181
 31
0.0
  0
LINE
  5
1FFA
100
AcDbEntity
  8
V0-OBRYS
  6
CONTINUOUS
 62
    90
 48
3.0
100
AcDbLine
 10
1164.599189
 20
-557.699955
 30
0.0
 11
1130.739245
 21
-557.699955
 31
0.0
  0
LINE
  5
1FFB
100
AcDbEntity
  8
V0-OBRYS
  6
CONTINUOUS
 62
    90
 48
3.0
100
AcDbLine
 10
1160.276645
 20
-610.247598
 30
0.0
 11
1135.061789
 21
-610.247598
 31
0.0
  0
LINE
  5
1FFC
100
AcDbEntity
  8
V0-OBRYS
  6
CONTINUOUS
 62
    90
 48
3.0
100
AcDbLine
 10
1160.276645
 20
-579.294876
 30
0.0
 11
1135.061789
 21
-579.294876
 31
0.0
  0
LINE
  5
1FFD
100
AcDbEntity
  8
V0-OBRYS
  6
CONTINUOUS
 62
    90
 48
3.0
100
AcDbLine
 10
1160.276645
 20
-562.018939
 30
0.0
 11
1135.061789
 21
-562.018939
 31
0.0
  0
LINE
  5
1FFE
100
AcDbEntity
  8
V0-OBRYS
  6
CONTINUOUS
 62
    90
 48
3.0
100
AcDbLine
 10
1160.276645
 20
-610.247598
 30
0.0
 11
1160.276645
 21
-579.294876
 31
0.0
  0
LINE
  5
1FFF
100
AcDbEntity
  8
V0-OBRYS
  6
CONTINUOUS
 62
    90
 48
3.0
100
AcDbLine
 10
1165.319613
 20
-557.699955
 30
0.0
 11
1165.319613
 21
-586.493181
 31
0.0
  0
LINE
  5
2000
100
AcDbEntity
  8
V0-OBRYS
  6
CONTINUOUS
 62
    90
 48
3.0
100
AcDbLine
 10
1160.276645
 20
-536.105034
 30
0.0
 11
1160.276645
 21
-562.018939
 31
0.0
  0
LINE
  5
2001
100
AcDbEntity
  8
V0-OBRYS
  6
CONTINUOUS
 62
    90
 48
3.0
100
AcDbLine
 10
1165.319613
 20
-586.493181
 30
0.0
 11
1160.997068
 21
-586.493181
 31
0.0
  0
LINE
  5
2002
100
AcDbEntity
  8
V0-OBRYS
  6
CONTINUOUS
 62
    90
 48
3.0
100
AcDbLine
 10
1135.061789
 20
-579.294876
 30
0.0
 11
1135.061789
 21
-610.247598
 31
0.0
  0
LINE
  5
2003
100
AcDbEntity
  8
V0-OBRYS
  6
CONTINUOUS
 62
    90
 48
3.0
100
AcDbLine
 10
1130.739245
 20
-557.699955
 30
0.0
 11
1130.739245
 21
-586.493181
 31
0.0
  0
LINE
  5
2004
100
AcDbEntity
  8
V0-OBRYS
  6
CONTINUOUS
 62
    90
 48
3.0
100
AcDbLine
 10
1135.061789
 20
-562.018939
 30
0.0
 11
1135.061789
 21
-536.105034
 31
0.0
  0
LINE
  5
2005
100
AcDbEntity
  8
V0-OBRYS
  6
CONTINUOUS
 62
    90
 48
3.0
100
AcDbLine
 10
1130.739245
 20
-586.493181
 30
0.0
 11
1135.061789
 21
-586.493181
 31
0.0
  0
LINE
  5
2006
100
AcDbEntity
  8
V0-OBRYS
  6
CONTINUOUS
 62
    90
 48
3.0
100
AcDbLine
 10
1160.393721
 20
-551.836202
 30
0.0
 11
1200.518337
 21
-551.836202
 31
0.0
  0
LINE
  5
2007
100
AcDbEntity
  8
V0-OBRYS
  6
CONTINUOUS
 62
    90
 48
3.0
100
AcDbLine
 10
876.525877
 20
-536.105034
 30
0.0
 11
901.740733
 21
-536.105034
 31
0.0
  0
LINE
  5
2008
100
AcDbEntity
  8
V0-OBRYS
  6
CONTINUOUS
 62
    90
 48
3.0
100
AcDbLine
 10
1160.276645
 20
-536.105034
 30
0.0
 11
1135.061789
 21
-536.105034
 31
0.0
  0
LINE
  5
2009
100
AcDbEntity
  8
V0-OBRYS
  6
CONTINUOUS
 62
    90
 48
3.0
100
AcDbLine
 10
288.683213
 20
-1017.568518
 30
0.0
 11
609.683213
 21
-1017.568518
 31
0.0
  0
LINE
  5
200A
100
AcDbEntity
  8
V0-OBRYS
  6
CONTINUOUS
 62
    90
 48
3.0
100
AcDbLine
 10
609.683213
 20
-1017.568518
 30
0.0
 11
609.683213
 21
-1381.568518
 31
0.0
  0
LINE
  5
200B
100
AcDbEntity
  8
V0-OBRYS
  6
CONTINUOUS
 62
    90
 48
3.0
100
AcDbLine
 10
288.683213
 20
-1017.568518
 30
0.0
 11
288.683213
 21
-1381.568518
 31
0.0
  0
LINE
  5
200C
100
AcDbEntity
  8
V0-OBRYS
  6
CONTINUOUS
 62
    90
 48
3.0
100
AcDbLine
 10
288.683213
 20
-1381.568518
 30
0.0
 11
609.683213
 21
-1381.568518
 31
0.0
  0
LINE
  5
200D
100
AcDbEntity
  8
V0-OBRYS
  6
CONTINUOUS
 62
    90
 48
3.0
100
AcDbLine
 10
611.883979
 20
-1088.260806
 30
0.0
 11
611.883979
 21
-1058.958823
 31
0.0
  0
LINE
  5
200E
100
AcDbEntity
  8
V0-OBRYS
  6
CONTINUOUS
 62
    90
 48
3.0
100
AcDbLine
 10
616.202963
 20
-1084.075808
 30
0.0
 11
616.202963
 21
-1058.860953
 31
0.0
  0
LINE
  5
200F
100
AcDbEntity
  8
V0-OBRYS
  6
CONTINUOUS
 62
    90
 48
3.0
100
AcDbLine
 10
609.683213
 20
-1084.075808
 30
0.0
 11
611.875125
 21
-1084.075808
 31
0.0
  0
LINE
  5
2010
100
AcDbEntity
  8
V0-OBRYS
  6
CONTINUOUS
 62
    90
 48
3.0
100
AcDbLine
 10
616.202963
 20
-1058.860953
 30
0.0
 11
613.510297
 21
-1058.860953
 31
0.0
  0
LINE
  5
2011
100
AcDbEntity
  8
V0-OBRYS
  6
CONTINUOUS
 62
    90
 48
3.0
100
AcDbLine
 10
613.510297
 20
-1054.480355
 30
0.0
 11
613.510297
 21
-1088.260806
 31
0.0
  0
ARC
  5
2012
100
AcDbEntity
  8
V0-OBRYS
  6
CONTINUOUS
 62
    90
 48
3.0
100
AcDbCircle
 10
612.697138
 20
-1054.480355
 30
0.0
 40
0.813159
100
AcDbArc
 50
0.0
 51
180.0
  0
ARC
  5
2013
100
AcDbEntity
  8
V0-OBRYS
  6
CONTINUOUS
 62
    90
 48
3.0
100
AcDbCircle
 10
612.697138
 20
-1088.260806
 30
0.0
 40
0.813159
100
AcDbArc
 50
180.0
 51
0.0
  0
LINE
  5
2014
100
AcDbEntity
  8
V0-OBRYS
  6
CONTINUOUS
 62
    90
 48
3.0
100
AcDbLine
 10
611.883979
 20
-1058.958823
 30
0.0
 11
611.883979
 21
-1054.480355
 31
0.0
  0
LINE
  5
2015
100
AcDbEntity
  8
V0-OBRYS
  6
CONTINUOUS
 62
    90
 48
3.0
100
AcDbLine
 10
611.875125
 20
-1058.860953
 30
0.0
 11
609.683213
 21
-1058.860953
 31
0.0
  0
LINE
  5
2016
100
AcDbEntity
  8
V0-OBRYS
  6
CONTINUOUS
 62
    90
 48
3.0
100
AcDbLine
 10
613.510297
 20
-1084.075808
 30
0.0
 11
616.202963
 21
-1084.075808
 31
0.0
  0
LINE
  5
2017
100
AcDbEntity
  8
V0-OBRYS
  6
CONTINUOUS
 62
    90
 48
3.0
100
AcDbLine
 10
286.482446
 20
-1088.260806
 30
0.0
 11
286.482446
 21
-1058.958823
 31
0.0
  0
LINE
  5
2018
100
AcDbEntity
  8
V0-OBRYS
  6
CONTINUOUS
 62
    90
 48
3.0
100
AcDbLine
 10
284.856128
 20
-1054.480355
 30
0.0
 11
284.856128
 21
-1088.260806
 31
0.0
  0
ARC
  5
2019
100
AcDbEntity
  8
V0-OBRYS
  6
CONTINUOUS
 62
    90
 48
3.0
100
AcDbCircle
 10
285.669287
 20
-1088.260806
 30
0.0
 40
0.813159
100
AcDbArc
 50
180.0
 51
0.0
  0
LINE
  5
201A
100
AcDbEntity
  8
V0-OBRYS
  6
CONTINUOUS
 62
    90
 48
3.0
100
AcDbLine
 10
284.856128
 20
-1084.075808
 30
0.0
 11
282.163462
 21
-1084.075808
 31
0.0
  0
LINE
  5
201B
100
AcDbEntity
  8
V0-OBRYS
  6
CONTINUOUS
 62
    90
 48
3.0
100
AcDbLine
 10
282.163462
 20
-1058.860953
 30
0.0
 11
284.856128
 21
-1058.860953
 31
0.0
  0
LINE
  5
201C
100
AcDbEntity
  8
V0-OBRYS
  6
CONTINUOUS
 62
    90
 48
3.0
100
AcDbLine
 10
288.683213
 20
-1084.075808
 30
0.0
 11
286.491301
 21
-1084.075808
 31
0.0
  0
LINE
  5
201D
100
AcDbEntity
  8
V0-OBRYS
  6
CONTINUOUS
 62
    90
 48
3.0
100
AcDbLine
 10
286.491301
 20
-1058.860953
 30
0.0
 11
288.683213
 21
-1058.860953
 31
0.0
  0
LINE
  5
201E
100
AcDbEntity
  8
V0-OBRYS
  6
CONTINUOUS
 62
    90
 48
3.0
100
AcDbLine
 10
286.482446
 20
-1058.958823
 30
0.0
 11
286.482446
 21
-1054.480355
 31
0.0
  0
ARC
  5
201F
100
AcDbEntity
  8
V0-OBRYS
  6
CONTINUOUS
 62
    90
 48
3.0
100
AcDbCircle
 10
285.669287
 20
-1054.480355
 30
0.0
 40
0.813159
100
AcDbArc
 50
0.0
 51
180.0
  0
LINE
  5
2020
100
AcDbEntity
  8
V0-OBRYS
  6
CONTINUOUS
 62
    90
 48
3.0
100
AcDbLine
 10
282.163462
 20
-1084.075808
 30
0.0
 11
282.163462
 21
-1058.860953
 31
0.0
  0
LINE
  5
2021
100
AcDbEntity
  8
V0-OBRYS
  6
CONTINUOUS
 62
    90
 48
3.0
100
AcDbLine
 10
284.856128
 20
-1344.656682
 30
0.0
 11
284.856128
 21
-1310.87623
 31
0.0
  0
LINE
  5
2022
100
AcDbEntity
  8
V0-OBRYS
  6
CONTINUOUS
 62
    90
 48
3.0
100
AcDbLine
 10
286.482446
 20
-1310.87623
 30
0.0
 11
286.482446
 21
-1340.178214
 31
0.0
  0
ARC
  5
2023
100
AcDbEntity
  8
V0-OBRYS
  6
CONTINUOUS
 62
    90
 48
3.0
100
AcDbCircle
 10
285.669287
 20
-1310.87623
 30
0.0
 40
0.813159
100
AcDbArc
 50
0.0
 51
180.0
  0
LINE
  5
2024
100
AcDbEntity
  8
V0-OBRYS
  6
CONTINUOUS
 62
    90
 48
3.0
100
AcDbLine
 10
282.163462
 20
-1340.276084
 30
0.0
 11
284.856128
 21
-1340.276084
 31
0.0
  0
LINE
  5
2025
100
AcDbEntity
  8
V0-OBRYS
  6
CONTINUOUS
 62
    90
 48
3.0
100
AcDbLine
 10
284.856128
 20
-1315.061228
 30
0.0
 11
282.163462
 21
-1315.061228
 31
0.0
  0
LINE
  5
2026
100
AcDbEntity
  8
V0-OBRYS
  6
CONTINUOUS
 62
    90
 48
3.0
100
AcDbLine
 10
282.163462
 20
-1315.061228
 30
0.0
 11
282.163462
 21
-1340.276084
 31
0.0
  0
ARC
  5
2027
100
AcDbEntity
  8
V0-OBRYS
  6
CONTINUOUS
 62
    90
 48
3.0
100
AcDbCircle
 10
285.669287
 20
-1344.656682
 30
0.0
 40
0.813159
100
AcDbArc
 50
180.0
 51
0.0
  0
LINE
  5
2028
100
AcDbEntity
  8
V0-OBRYS
  6
CONTINUOUS
 62
    90
 48
3.0
100
AcDbLine
 10
286.482446
 20
-1340.178214
 30
0.0
 11
286.482446
 21
-1344.656682
 31
0.0
  0
LINE
  5
2029
100
AcDbEntity
  8
V0-OBRYS
  6
CONTINUOUS
 62
    90
 48
3.0
100
AcDbLine
 10
286.491301
 20
-1340.276084
 30
0.0
 11
288.683213
 21
-1340.276084
 31
0.0
  0
LINE
  5
202A
100
AcDbEntity
  8
V0-OBRYS
  6
CONTINUOUS
 62
    90
 48
3.0
100
AcDbLine
 10
288.683213
 20
-1315.061228
 30
0.0
 11
286.491301
 21
-1315.061228
 31
0.0
  0
LINE
  5
202B
100
AcDbEntity
  8
V0-OBRYS
  6
CONTINUOUS
 62
    90
 48
3.0
100
AcDbLine
 10
611.883979
 20
-1310.87623
 30
0.0
 11
611.883979
 21
-1340.178214
 31
0.0
  0
LINE
  5
202C
100
AcDbEntity
  8
V0-OBRYS
  6
CONTINUOUS
 62
    90
 48
3.0
100
AcDbLine
 10
613.510297
 20
-1344.656682
 30
0.0
 11
613.510297
 21
-1310.87623
 31
0.0
  0
ARC
  5
202D
100
AcDbEntity
  8
V0-OBRYS
  6
CONTINUOUS
 62
    90
 48
3.0
100
AcDbCircle
 10
612.697138
 20
-1310.87623
 30
0.0
 40
0.813159
100
AcDbArc
 50
0.0
 51
180.0
  0
LINE
  5
202E
100
AcDbEntity
  8
V0-OBRYS
  6
CONTINUOUS
 62
    90
 48
3.0
100
AcDbLine
 10
613.510297
 20
-1315.061228
 30
0.0
 11
616.202963
 21
-1315.061228
 31
0.0
  0
LINE
  5
202F
100
AcDbEntity
  8
V0-OBRYS
  6
CONTINUOUS
 62
    90
 48
3.0
100
AcDbLine
 10
616.202963
 20
-1340.276084
 30
0.0
 11
613.510297
 21
-1340.276084
 31
0.0
  0
LINE
  5
2030
100
AcDbEntity
  8
V0-OBRYS
  6
CONTINUOUS
 62
    90
 48
3.0
100
AcDbLine
 10
609.683213
 20
-1315.061228
 30
0.0
 11
611.875125
 21
-1315.061228
 31
0.0
  0
LINE
  5
2031
100
AcDbEntity
  8
V0-OBRYS
  6
CONTINUOUS
 62
    90
 48
3.0
100
AcDbLine
 10
611.875125
 20
-1340.276084
 30
0.0
 11
609.683213
 21
-1340.276084
 31
0.0
  0
LINE
  5
2032
100
AcDbEntity
  8
V0-OBRYS
  6
CONTINUOUS
 62
    90
 48
3.0
100
AcDbLine
 10
611.883979
 20
-1340.178214
 30
0.0
 11
611.883979
 21
-1344.656682
 31
0.0
  0
ARC
  5
2033
100
AcDbEntity
  8
V0-OBRYS
  6
CONTINUOUS
 62
    90
 48
3.0
100
AcDbCircle
 10
612.697138
 20
-1344.656682
 30
0.0
 40
0.813159
100
AcDbArc
 50
180.0
 51
0.0
  0
LINE
  5
2034
100
AcDbEntity
  8
V0-OBRYS
  6
CONTINUOUS
 62
    90
 48
3.0
100
AcDbLine
 10
616.202963
 20
-1315.061228
 30
0.0
 11
616.202963
 21
-1340.276084
 31
0.0
  0
LINE
  5
2035
100
AcDbEntity
  8
V0-OBRYS
  6
CONTINUOUS
 62
    90
 48
3.0
100
AcDbLine
 10
287.683213
 20
-531.836202
 30
0.0
 11
287.683213
 21
-558.050034
 31
0.0
  0
LINE
  5
2036
100
AcDbEntity
  8
V0-OBRYS
  6
CONTINUOUS
 62
    90
 48
3.0
100
AcDbLine
 10
287.683213
 20
-558.050034
 30
0.0
 11
281.239413
 21
-558.050034
 31
0.0
  0
LINE
  5
2037
100
AcDbEntity
  8
V0-OBRYS
  6
CONTINUOUS
 62
    90
 48
3.0
100
AcDbLine
 10
281.239413
 20
-558.050034
 30
0.0
 11
281.239413
 21
-552.07144
 31
0.0
  0
LINE
  5
2038
100
AcDbEntity
  8
V0-OBRYS
  6
CONTINUOUS
 62
    90
 48
3.0
100
AcDbLine
 10
287.683213
 20
-586.563329
 30
0.0
 11
287.683213
 21
-575.066031
 31
0.0
  0
LINE
  5
2039
100
AcDbEntity
  8
V0-OBRYS
  6
CONTINUOUS
 62
    90
 48
3.0
100
AcDbLine
 10
287.683213
 20
-575.066031
 30
0.0
 11
281.699686
 21
-575.066031
 31
0.0
  0
LINE
  5
203A
100
AcDbEntity
  8
V0-OBRYS
  6
CONTINUOUS
 62
    90
 48
3.0
100
AcDbLine
 10
281.699686
 20
-575.066031
 30
0.0
 11
281.699686
 21
-593.001813
 31
0.0
  0
LINE
  5
203B
100
AcDbEntity
  8
V0-OBRYS
  6
CONTINUOUS
 62
    90
 48
3.0
100
AcDbLine
 10
281.699686
 20
-593.001813
 30
0.0
 11
281.699686
 21
-605.878786
 31
0.0
  0
LINE
  5
203C
100
AcDbEntity
  8
V0-OBRYS
  6
CONTINUOUS
 62
    90
 48
3.0
100
AcDbLine
 10
283.540772
 20
-553.451118
 30
0.0
 11
283.540772
 21
-582.424301
 31
0.0
  0
LINE
  5
203D
100
AcDbEntity
  8
V0-OBRYS
  6
CONTINUOUS
 62
    90
 48
3.0
100
AcDbLine
 10
283.540772
 20
-582.424301
 30
0.0
 11
285.842126
 21
-582.424301
 31
0.0
  0
LINE
  5
203E
100
AcDbEntity
  8
V0-OBRYS
  6
CONTINUOUS
 62
    90
 48
3.0
100
AcDbLine
 10
285.842126
 20
-582.424301
 30
0.0
 11
285.842126
 21
-553.451118
 31
0.0
  0
LINE
  5
203F
100
AcDbEntity
  8
V0-OBRYS
  6
CONTINUOUS
 62
    90
 48
3.0
100
AcDbLine
 10
285.842126
 20
-553.451118
 30
0.0
 11
283.540772
 21
-553.451118
 31
0.0
  0
INSERT
  5
2040
100
AcDbEntity
  8
V0-OBRYS
  6
CONTINUOUS
 62
    90
 48
3.0
100
AcDbBlockReference
  2
AZAVER-B
 10
609.448939
 20
-532.231567
 30
0.0
 41
-1.0
  0
LINE
  5
2041
100
AcDbEntity
  8
V0-VYPLNE
  6
CONTINUOUS
 62
    41
 48
3.0
100
AcDbLine
 10
976.628257
 20
-647.166777
 30
0.0
 11
1018.67568
 21
-647.166777
 31
0.0
  0
LINE
  5
2042
100
AcDbEntity
  8
V0-VYPLNE
  6
CONTINUOUS
 62
    41
 48
3.0
100
AcDbLine
 10
976.4859
 20
-650.836202
 30
0.0
 11
1019.132717
 21
-650.836202
 31
0.0
  0
LINE
  5
2043
100
AcDbEntity
  8
V0-VYPLNE
  6
CONTINUOUS
 62
    41
 48
3.0
100
AcDbLine
 10
976.628257
 20
-656.299989
 30
0.0
 11
1018.67568
 21
-656.299989
 31
0.0
  0
LINE
  5
2044
100
AcDbEntity
  8
V0-VYPLNE
  6
CONTINUOUS
 62
    41
 48
3.0
100
AcDbLine
 10
976.628257
 20
-664.519879
 30
0.0
 11
1018.67568
 21
-664.519879
 31
0.0
  0
LINE
  5
2045
100
AcDbEntity
  8
V0-VYPLNE
  6
CONTINUOUS
 62
    41
 48
3.0
100
AcDbLine
 10
976.628257
 20
-675.023073
 30
0.0
 11
1018.67568
 21
-675.023073
 31
0.0
  0
LINE
  5
2046
100
AcDbEntity
  8
V0-OBRYS
  6
CONTINUOUS
 62
    90
 48
3.0
100
AcDbLine
 10
965.499025
 20
-683.7408
 30
0.0
 11
1018.518337
 21
-683.7408
 31
0.0
  0
LINE
  5
2047
100
AcDbEntity
  8
V0-OBRYS
  6
CONTINUOUS
 62
    90
 48
3.0
100
AcDbLine
 10
1071.537648
 20
-683.7408
 30
0.0
 11
1018.518337
 21
-683.7408
 31
0.0
  0
LINE
  5
2048
100
AcDbEntity
  8
V0-VYPLNE
  6
CONTINUOUS
 62
    41
 48
3.0
100
AcDbLine
 10
1060.408417
 20
-675.023073
 30
0.0
 11
1018.360993
 21
-675.023073
 31
0.0
  0
LINE
  5
2049
100
AcDbEntity
  8
V0-VYPLNE
  6
CONTINUOUS
 62
    41
 48
3.0
100
AcDbLine
 10
1060.408417
 20
-664.519879
 30
0.0
 11
1018.360993
 21
-664.519879
 31
0.0
  0
LINE
  5
204A
100
AcDbEntity
  8
V0-VYPLNE
  6
CONTINUOUS
 62
    41
 48
3.0
100
AcDbLine
 10
1060.408417
 20
-656.299989
 30
0.0
 11
1018.360993
 21
-656.299989
 31
0.0
  0
LINE
  5
204B
100
AcDbEntity
  8
V0-VYPLNE
  6
CONTINUOUS
 62
    41
 48
3.0
100
AcDbLine
 10
1060.550774
 20
-650.836202
 30
0.0
 11
1017.903957
 21
-650.836202
 31
0.0
  0
LINE
  5
204C
100
AcDbEntity
  8
V0-VYPLNE
  6
CONTINUOUS
 62
    41
 48
3.0
100
AcDbLine
 10
1060.408417
 20
-647.166777
 30
0.0
 11
1018.360993
 21
-647.166777
 31
0.0
  0
LINE
  5
204D
100
AcDbEntity
  8
V0-OBRYS
  6
CONTINUOUS
 62
    90
 48
3.0
100
AcDbLine
 10
1060.550774
 20
-645.194154
 30
0.0
 11
1018.518337
 21
-645.194154
 31
0.0
  0
LINE
  5
204E
100
AcDbEntity
  8
V0-OBRYS
  6
CONTINUOUS
 62
    90
 48
3.0
100
AcDbLine
 10
1060.550774
 20
-683.7408
 30
0.0
 11
1060.550774
 21
-645.194154
 31
0.0
  0
LINE
  5
204F
100
AcDbEntity
  8
V0-OBRYS
  6
CONTINUOUS
 62
    90
 48
3.0
100
AcDbLine
 10
1074.561587
 20
-624.831584
 30
0.0
 11
1018.518337
 21
-624.831584
 31
0.0
  0
LINE
  5
2050
100
AcDbEntity
  8
V0-VYPLNE
  6
DASHED
 62
    52
 48
2.0
100
AcDbLine
 10
482.890558
 20
-724.021723
 30
0.0
 11
533.395802
 21
-753.180939
 31
0.0
  0
ARC
  5
2051
100
AcDbEntity
  8
V0-VYPLNE
  6
DASHED
 62
    52
 48
2.0
100
AcDbCircle
 10
469.310615
 20
-718.193289
 30
0.0
 40
60.80917
100
AcDbArc
 50
331.719358
 51
88.362917
  0
ARC
  5
2052
100
AcDbEntity
  8
V0-VYPLNE
  6
DASHED
 62
    52
 48
2.0
100
AcDbCircle
 10
469.310615
 20
-718.193289
 30
0.0
 40
63.531659
100
AcDbArc
 50
331.519954
 51
88.371211
  0
ARC
  5
2053
100
AcDbEntity
  8
V0-VYPLNE
  6
DASHED
 62
    52
 48
2.0
100
AcDbCircle
 10
463.186034
 20
-716.346522
 30
0.0
 40
88.758469
100
AcDbArc
 50
269.220247
 51
347.662182
  0
LINE
  5
2054
100
AcDbEntity
  8
V0-VYPLNE
  6
DASHED
 62
    52
 48
2.0
100
AcDbLine
 10
469.886615
 20
-804.639071
 30
0.0
 11
469.310615
 21
-645.200064
 31
0.0
  0
LINE
  5
2055
100
AcDbEntity
  8
V0-VYPLNE
  6
DASHED
 62
    52
 48
2.0
100
AcDbLine
 10
481.148158
 20
-727.039648
 30
0.0
 11
531.653402
 21
-756.198864
 31
0.0
  0
ARC
  5
2056
100
AcDbEntity
  8
V0-VYPLNE
  6
DASHED
 62
    52
 48
2.0
100
AcDbCircle
 10
456.701898
 20
-705.314164
 30
0.0
 40
99.922007
100
AcDbArc
 50
177.519815
 51
273.026828
  0
ARC
  5
2057
100
AcDbEntity
  8
V0-VYPLNE
  6
DASHED
 62
    52
 48
2.0
100
AcDbCircle
 10
469.310615
 20
-718.193289
 30
0.0
 40
60.80917
100
AcDbArc
 50
91.714912
 51
208.344087
  0
ARC
  5
2058
100
AcDbEntity
  8
V0-VYPLNE
  6
DASHED
 62
    52
 48
2.0
100
AcDbCircle
 10
469.310615
 20
-718.193289
 30
0.0
 40
63.531659
100
AcDbArc
 50
91.581613
 51
208.441599
  0
LINE
  5
2059
100
AcDbEntity
  8
V0-VYPLNE
  6
DASHED
 62
    52
 48
2.0
100
AcDbLine
 10
457.473071
 20
-727.039648
 30
0.0
 11
406.967828
 21
-756.198864
 31
0.0
  0
LINE
  5
205A
100
AcDbEntity
  8
V0-VYPLNE
  6
DASHED
 62
    52
 48
2.0
100
AcDbLine
 10
455.730671
 20
-724.021723
 30
0.0
 11
405.225428
 21
-753.180939
 31
0.0
  0
ARC
  5
205B
100
AcDbEntity
  8
V0-VYPLNE
  6
DASHED
 62
    52
 48
2.0
100
AcDbCircle
 10
469.310615
 20
-718.193289
 30
0.0
 40
38.830753
100
AcDbArc
 50
212.575428
 51
327.315954
  0
CIRCLE
  5
205C
100
AcDbEntity
  8
V0-VYPLNE
  6
DASHED
 62
    52
 48
2.0
100
AcDbCircle
 10
469.310615
 20
-718.193289
 30
0.0
 40
14.674793
  0
ARC
  5
205D
100
AcDbEntity
  8
V0-VYPLNE
  6
DASHED
 62
    52
 48
2.0
100
AcDbCircle
 10
469.310615
 20
-718.193289
 30
0.0
 40
38.830753
100
AcDbArc
 50
92.399561
 51
207.385177
  0
LINE
  5
205E
100
AcDbEntity
  8
V0-VYPLNE
  6
DASHED
 62
    52
 48
2.0
100
AcDbLine
 10
537.285449
 20
-718.193289
 30
0.0
 11
404.998138
 21
-718.193289
 31
0.0
  0
ARC
  5
205F
100
AcDbEntity
  8
V0-VYPLNE
  6
DASHED
 62
    52
 48
2.0
100
AcDbCircle
 10
477.311255
 20
-706.344969
 30
0.0
 40
120.57408
100
AcDbArc
 50
90.0
 51
177.373515
  0
ARC
  5
2060
100
AcDbEntity
  8
V0-VYPLNE
  6
DASHED
 62
    52
 48
2.0
100
AcDbCircle
 10
477.311255
 20
-706.344969
 30
0.0
 40
120.57408
100
AcDbArc
 50
180.0
 51
180.271524
  0
LINE
  5
2061
100
AcDbEntity
  8
V0-VYPLNE
  6
DASHED
 62
    52
 48
2.0
100
AcDbLine
 10
455.730671
 20
-724.021723
 30
0.0
 11
457.473071
 21
-727.039648
 31
0.0
  0
LINE
  5
2062
100
AcDbEntity
  8
V0-VYPLNE
  6
DASHED
 62
    52
 48
2.0
100
AcDbLine
 10
477.311255
 20
-585.770889
 30
0.0
 11
575.553815
 21
-585.770889
 31
0.0
  0
LINE
  5
2063
100
AcDbEntity
  8
V0-VYPLNE
  6
DASHED
 62
    52
 48
2.0
100
AcDbLine
 10
471.053015
 20
-703.518496
 30
0.0
 11
471.053015
 21
-645.200064
 31
0.0
  0
LINE
  5
2064
100
AcDbEntity
  8
V0-VYPLNE
  6
DASHED
 62
    52
 48
2.0
100
AcDbLine
 10
467.568215
 20
-703.518496
 30
0.0
 11
467.568215
 21
-645.200064
 31
0.0
  0
LINE
  5
2065
100
AcDbEntity
  8
V0-VYPLNE
  6
DASHED
 62
    52
 48
2.0
100
AcDbLine
 10
471.038615
 20
-645.200064
 30
0.0
 11
471.038615
 21
-624.383414
 31
0.0
  0
ARC
  5
2066
100
AcDbEntity
  8
V0-VYPLNE
  6
DASHED
 62
    52
 48
2.0
100
AcDbCircle
 10
471.038615
 20
-645.200064
 30
0.0
 40
1.7424
100
AcDbArc
 50
0.0
 51
180.0
  0
ARC
  5
2067
100
AcDbEntity
  8
V0-VYPLNE
  6
DASHED
 62
    52
 48
2.0
100
AcDbCircle
 10
469.310615
 20
-718.193289
 30
0.0
 40
38.830753
100
AcDbArc
 50
332.562264
 51
87.434764
  0
LINE
  5
2068
100
AcDbEntity
  8
V0-VYPLNE
  6
DASHED
 62
    52
 48
2.0
100
AcDbLine
 10
471.053015
 20
-703.518496
 30
0.0
 11
467.568215
 21
-703.518496
 31
0.0
  0
LINE
  5
2069
100
AcDbEntity
  8
V0-VYPLNE
  6
DASHED
 62
    52
 48
2.0
100
AcDbLine
 10
481.148158
 20
-727.039648
 30
0.0
 11
482.890558
 21
-724.021723
 31
0.0
  0
LINE
  5
206A
100
AcDbEntity
  8
V0-VYPLNE
  6
DASHED
 62
    52
 48
2.0
100
AcDbLine
 10
575.553815
 20
-585.770889
 30
0.0
 11
575.553815
 21
-735.312009
 31
0.0
  0
LINE
  5
206B
100
AcDbEntity
  8
V0-VYPLNE
  6
DASHED
 62
    52
 48
2.0
100
AcDbLine
 10
549.894604
 20
-735.312009
 30
0.0
 11
549.894604
 21
-722.782813
 31
0.0
  0
LINE
  5
206C
100
AcDbEntity
  8
V0-VYPLNE
  6
DASHED
 62
    52
 48
2.0
100
AcDbLine
 10
549.894604
 20
-735.312009
 30
0.0
 11
575.553815
 21
-735.312009
 31
0.0
  0
ARC
  5
206D
100
AcDbEntity
  8
V0-VYPLNE
  6
DASHED
 62
    52
 48
2.0
100
AcDbCircle
 10
469.310615
 20
-718.193289
 30
0.0
 40
63.531659
100
AcDbArc
 50
211.485726
 51
328.390343
  0
ARC
  5
206E
100
AcDbEntity
  8
V0-VYPLNE
  6
DASHED
 62
    52
 48
2.0
100
AcDbCircle
 10
469.310615
 20
-718.193289
 30
0.0
 40
60.80917
100
AcDbArc
 50
211.549963
 51
328.272969
  0
ARC
  5
206F
100
AcDbEntity
  8
V0-VYPLNE
  6
DASHED
 62
    52
 48
2.0
100
AcDbCircle
 10
406.096628
 20
-754.689901
 30
0.0
 40
1.7424
100
AcDbArc
 50
120.0
 51
300.0
  0
ARC
  5
2070
100
AcDbEntity
  8
V0-VYPLNE
  6
DASHED
 62
    52
 48
2.0
100
AcDbCircle
 10
532.524602
 20
-754.689901
 30
0.0
 40
1.7424
100
AcDbArc
 50
240.0
 51
60.0
  0
LINE
  5
2071
100
AcDbEntity
  8
V0-VYPLNE
  6
DASHED
 62
    52
 48
2.0
100
AcDbLine
 10
549.894604
 20
-716.908222
 30
0.0
 11
549.894604
 21
-586.084772
 31
0.0
  0
LINE
  5
2072
100
AcDbEntity
  8
V0-VYPLNE
  6
DASHED
 62
    52
 48
3.0
100
AcDbLine
 10
288.683213
 20
-531.836202
 30
0.0
 11
288.683213
 21
-231.836202
 31
0.0
  0
LINE
  5
2073
100
AcDbEntity
  8
V0-VYPLNE
  6
DASHED
 62
    52
 48
3.0
100
AcDbLine
 10
288.683213
 20
-231.836202
 30
0.0
 11
609.683213
 21
-231.836202
 31
0.0
  0
LINE
  5
2074
100
AcDbEntity
  8
V0-VYPLNE
  6
DASHED
 62
    52
 48
3.0
100
AcDbLine
 10
609.683213
 20
-531.836202
 30
0.0
 11
609.683213
 21
-231.836202
 31
0.0
  0
LINE
  5
2075
100
AcDbEntity
  8
V0-VYPLNE
  6
DASHED
 62
    52
 48
3.0
100
AcDbLine
 10
1200.518337
 20
-531.836202
 30
0.0
 11
1200.518337
 21
-231.836202
 31
0.0
  0
LINE
  5
2076
100
AcDbEntity
  8
V0-VYPLNE
  6
DASHED
 62
    52
 48
3.0
100
AcDbLine
 10
836.518337
 20
-531.836202
 30
0.0
 11
836.518337
 21
-231.836202
 31
0.0
  0
LINE
  5
2077
100
AcDbEntity
  8
V0-VYPLNE
  6
DASHED
 62
    52
 48
3.0
100
AcDbLine
 10
836.518337
 20
-231.836202
 30
0.0
 11
1200.518337
 21
-231.836202
 31
0.0
  0
LINE
  5
2078
100
AcDbEntity
  8
V0-VYPLNE
 48
3.0
100
AcDbLine
 10
592.412845
 20
-637.050618
 30
0.0
 11
628.742333
 21
-637.050618
 31
0.0
  0
DIMENSION
  5
2079
100
AcDbEntity
  8
V0-VYPLNE
  6
CONTINUOUS
 62
    41
 48
3.0
100
AcDbDimension
  2
*D16
 10
288.683213
 20
-498.292351
 30
0.0
 11
449.183213
 21
-498.292351
 31
0.0
 70
   160
  3
ED20
100
AcDbAlignedDimension
 13
609.683213
 23
-531.836202
 33
0.0
 14
288.683213
 24
-531.836202
 34
0.0
100
AcDbRotatedDimension
1001
ACAD
1000
DSTYLE
1002
{
1070
    40
1040
1.0
1002
}
  0
DIMENSION
  5
207A
100
AcDbEntity
  8
V0-VYPLNE
  6
CONTINUOUS
 62
    41
 48
3.0
100
AcDbDimension
  2
*D17
 10
1200.518337
 20
-476.648395
 30
0.0
 11
1008.763695
 21
-476.648395
 31
0.0
 70
   160
  3
ED20
100
AcDbAlignedDimension
 13
836.518337
 23
-531.836202
 33
0.0
 14
1200.518337
 24
-531.836202
 34
0.0
100
AcDbRotatedDimension
1001
ACAD
1000
DSTYLE
1002
{
1070
    40
1040
1.0
1002
}
  0
DIMENSION
  5
207B
100
AcDbEntity
  8
V0-VYPLNE
  6
CONTINUOUS
 62
    41
 48
3.0
100
AcDbDimension
  2
*D18
 10
240.789558
 20
-531.836202
 30
0.0
 11
240.789558
 21
-381.836202
 31
0.0
 70
   160
  3
ED20
100
AcDbAlignedDimension
 13
288.683213
 23
-231.836202
 33
0.0
 14
288.683213
 24
-531.836202
 34
0.0
 50
90.0
100
AcDbRotatedDimension
1001
ACAD
1000
DSTYLE
1002
{
1070
    40
1040
1.0
1002
}
  0
POINT
  5
207C
100
AcDbEntity
  8
V0-VYPLNE
  6
CONTINUOUS
 62
    41
 48
3.0
100
AcDbPoint
 10
1018.518337
 20
-650.836202
 30
0.0
  0
ENDBLK
  5
207E
100
AcDbEntity
  8
0
 62
    41
 48
3.0
100
AcDbBlockEnd
  0
BLOCK
  5
26AD
100
AcDbEntity
  8
0
 48
3.0
100
AcDbBlockBegin
  2
*D20
 70
     1
 10
0.0
 20
0.0
 30
0.0
  3
*D20
  1

  0
LINE
  5
26AE
100
AcDbEntity
  8
0
  6
BYBLOCK
 62
     0
 48
3.0
100
AcDbLine
 10
136.399435
 20
157.0
 30
0.0
 11
178.344681
 21
157.0
 31
0.0
  0
LINE
  5
26AF
100
AcDbEntity
  8
0
  6
BYBLOCK
 62
     0
 48
3.0
100
AcDbLine
 10
136.399435
 20
-157.358737
 30
0.0
 11
178.344681
 21
-157.358737
 31
0.0
  0
LINE
  5
26B0
100
AcDbEntity
  8
0
  6
BYBLOCK
 62
     0
 48
3.0
100
AcDbLine
 10
177.094681
 20
137.0
 30
0.0
 11
177.094681
 21
-137.358737
 31
0.0
  0
INSERT
  5
26B1
100
AcDbEntity
  8
0
  6
BYBLOCK
 62
     0
 48
3.0
100
AcDbBlockReference
  2
_OPEN
 10
177.094681
 20
157.0
 30
0.0
 41
20.0
 42
20.0
 43
20.0
 50
90.0
  0
INSERT
  5
26B2
100
AcDbEntity
  8
0
  6
BYBLOCK
 62
     0
 48
3.0
100
AcDbBlockReference
  2
_OPEN
 10
177.094681
 20
-157.358737
 30
0.0
 41
20.0
 42
20.0
 43
20.0
 50
270.0
  0
MTEXT
  5
26B3
100
AcDbEntity
  8
0
  6
BYBLOCK
 62
     0
 48
3.0
100
AcDbMText
 10
165.094681
 20
-0.179369
 30
0.0
 40
20.0
 41
0.0
 71
     5
 72
     1
  1
\A1;\U+2205314
  7
ED20
 11
0.0
 21
1.0
 31
0.0
  0
POINT
  5
26B4
100
AcDbEntity
  8
DEFPOINTS
  6
BYBLOCK
 62
     0
 48
3.0
100
AcDbPoint
 10
135.399435
 20
157.0
 30
0.0
  0
POINT
  5
26B5
100
AcDbEntity
  8
DEFPOINTS
  6
BYBLOCK
 62
     0
 48
3.0
100
AcDbPoint
 10
135.399435
 20
-157.358737
 30
0.0
  0
POINT
  5
26B6
100
AcDbEntity
  8
DEFPOINTS
  6
BYBLOCK
 62
     0
 48
3.0
100
AcDbPoint
 10
177.094681
 20
-157.358737
 30
0.0
  0
ENDBLK
  5
26B7
100
AcDbEntity
  8
0
 48
3.0
100
AcDbBlockEnd
  0
BLOCK
  5
26A2
100
AcDbEntity
  8
0
 48
3.0
100
AcDbBlockBegin
  2
*D30
 70
     1
 10
0.0
 20
0.0
 30
0.0
  3
*D30
  1

  0
LINE
  5
26A3
100
AcDbEntity
  8
0
  6
BYBLOCK
 62
     0
 48
3.0
100
AcDbLine
 10
0.399435
 20
-158.358737
 30
0.0
 11
0.399435
 21
-248.72714
 31
0.0
  0
LINE
  5
26A4
100
AcDbEntity
  8
0
  6
BYBLOCK
 62
     0
 48
3.0
100
AcDbLine
 10
135.399435
 20
-158.358737
 30
0.0
 11
135.399435
 21
-248.72714
 31
0.0
  0
LINE
  5
26A5
100
AcDbEntity
  8
0
  6
BYBLOCK
 62
     0
 48
3.0
100
AcDbLine
 10
20.399435
 20
-247.47714
 30
0.0
 11
115.399435
 21
-247.47714
 31
0.0
  0
INSERT
  5
26A6
100
AcDbEntity
  8
0
  6
BYBLOCK
 62
     0
 48
3.0
100
AcDbBlockReference
  2
_OPEN
 10
0.399435
 20
-247.47714
 30
0.0
 41
20.0
 42
20.0
 43
20.0
 50
180.0
  0
INSERT
  5
26A7
100
AcDbEntity
  8
0
  6
BYBLOCK
 62
     0
 48
3.0
100
AcDbBlockReference
  2
_OPEN
 10
135.399435
 20
-247.47714
 30
0.0
 41
20.0
 42
20.0
 43
20.0
  0
MTEXT
  5
26A8
100
AcDbEntity
  8
0
  6
BYBLOCK
 62
     0
 48
3.0
100
AcDbMText
 10
67.899435
 20
-235.47714
 30
0.0
 40
20.0
 41
0.0
 71
     5
 72
     1
  1
\A1;135
  7
ED20
  0
POINT
  5
26A9
100
AcDbEntity
  8
DEFPOINTS
  6
BYBLOCK
 62
     0
 48
3.0
100
AcDbPoint
 10
0.399435
 20
-157.358737
 30
0.0
  0
POINT
  5
26AA
100
AcDbEntity
  8
DEFPOINTS
  6
BYBLOCK
 62
     0
 48
3.0
100
AcDbPoint
 10
135.399435
 20
-157.358737
 30
0.0
  0
POINT
  5
26AB
100
AcDbEntity
  8
DEFPOINTS
  6
BYBLOCK
 62
     0
 48
3.0
100
AcDbPoint
 10
135.399435
 20
-247.47714
 30
0.0
  0
ENDBLK
  5
26AC
100
AcDbEntity
  8
0
 48
3.0
100
AcDbBlockEnd
  0
ENDSEC
  0
SECTION
  2
ENTITIES
  0
POLYLINE
  5
26BE
100
AcDbEntity
  8
V0-OBRYS
  6
CONTINUOUS
 62
     7
 48
3.0
100
AcDb2dPolyline
 66
     1
 10
0.0
 20
0.0
 30
0.0
  0
VERTEX
  5
26BF
100
AcDbEntity
  8
V0-OBRYS
  6
CONTINUOUS
 62
     7
 48
3.0
100
AcDbVertex
100
AcDb2dVertex
 10
0.399435
 20
0.0
 30
0.0
  0
VERTEX
  5
26C0
100
AcDbEntity
  8
V0-OBRYS
  6
CONTINUOUS
 62
     7
 48
3.0
100
AcDbVertex
100
AcDb2dVertex
 10
0.399435
 20
157.0
 30
0.0
  0
VERTEX
  5
26C1
100
AcDbEntity
  8
V0-OBRYS
  6
CONTINUOUS
 62
     7
 48
3.0
100
AcDbVertex
100
AcDb2dVertex
 10
11.399435
 20
157.0
 30
0.0
  0
VERTEX
  5
26C2
100
AcDbEntity
  8
V0-OBRYS
  6
CONTINUOUS
 62
     7
 48
3.0
100
AcDbVertex
100
AcDb2dVertex
 10
11.399435
 20
162.5
 30
0.0
  0
VERTEX
  5
26C3
100
AcDbEntity
  8
V0-OBRYS
  6
CONTINUOUS
 62
     7
 48
3.0
100
AcDbVertex
100
AcDb2dVertex
 10
11.899435
 20
162.5
 30
0.0
  0
VERTEX
  5
26C4
100
AcDbEntity
  8
V0-OBRYS
  6
CONTINUOUS
 62
     7
 48
3.0
100
AcDbVertex
100
AcDb2dVertex
 10
11.899435
 20
157.0
 30
0.0
  0
VERTEX
  5
26C5
100
AcDbEntity
  8
V0-OBRYS
  6
CONTINUOUS
 62
     7
 48
3.0
100
AcDbVertex
100
AcDb2dVertex
 10
20.399435
 20
157.0
 30
0.0
  0
VERTEX
  5
26C6
100
AcDbEntity
  8
V0-OBRYS
  6
CONTINUOUS
 62
     7
 48
3.0
100
AcDbVertex
100
AcDb2dVertex
 10
20.399435
 20
158.5
 30
0.0
  0
VERTEX
  5
26C7
100
AcDbEntity
  8
V0-OBRYS
  6
CONTINUOUS
 62
     7
 48
3.0
100
AcDbVertex
100
AcDb2dVertex
 10
40.399435
 20
158.5
 30
0.0
  0
VERTEX
  5
26C8
100
AcDbEntity
  8
V0-OBRYS
  6
CONTINUOUS
 62
     7
 48
3.0
100
AcDbVertex
100
AcDb2dVertex
 10
40.399435
 20
159.5
 30
0.0
  0
VERTEX
  5
26C9
100
AcDbEntity
  8
V0-OBRYS
  6
CONTINUOUS
 62
     7
 48
3.0
100
AcDbVertex
100
AcDb2dVertex
 10
43.399435
 20
159.5
 30
0.0
  0
VERTEX
  5
26CA
100
AcDbEntity
  8
V0-OBRYS
  6
CONTINUOUS
 62
     7
 48
3.0
100
AcDbVertex
100
AcDb2dVertex
 10
43.399435
 20
158.5
 30
0.0
  0
VERTEX
  5
26CB
100
AcDbEntity
  8
V0-OBRYS
  6
CONTINUOUS
 62
     7
 48
3.0
100
AcDbVertex
100
AcDb2dVertex
 10
62.899435
 20
158.5
 30
0.0
  0
VERTEX
  5
26CC
100
AcDbEntity
  8
V0-OBRYS
  6
CONTINUOUS
 62
     7
 48
3.0
100
AcDbVertex
100
AcDb2dVertex
 10
62.899435
 20
205.0
 30
0.0
  0
VERTEX
  5
26CD
100
AcDbEntity
  8
V0-OBRYS
  6
CONTINUOUS
 62
     7
 48
3.0
100
AcDbVertex
100
AcDb2dVertex
 10
72.899435
 20
205.0
 30
0.0
  0
VERTEX
  5
26CE
100
AcDbEntity
  8
V0-OBRYS
  6
CONTINUOUS
 62
     7
 48
3.0
100
AcDbVertex
100
AcDb2dVertex
 10
72.899435
 20
158.5
 30
0.0
  0
VERTEX
  5
26CF
100
AcDbEntity
  8
V0-OBRYS
  6
CONTINUOUS
 62
     7
 48
3.0
100
AcDbVertex
100
AcDb2dVertex
 10
92.399435
 20
158.5
 30
0.0
  0
VERTEX
  5
26D0
100
AcDbEntity
  8
V0-OBRYS
  6
CONTINUOUS
 62
     7
 48
3.0
100
AcDbVertex
100
AcDb2dVertex
 10
92.399435
 20
159.5
 30
0.0
  0
VERTEX
  5
26D1
100
AcDbEntity
  8
V0-OBRYS
  6
CONTINUOUS
 62
     7
 48
3.0
100
AcDbVertex
100
AcDb2dVertex
 10
95.399435
 20
159.5
 30
0.0
  0
VERTEX
  5
26D2
100
AcDbEntity
  8
V0-OBRYS
  6
CONTINUOUS
 62
     7
 48
3.0
100
AcDbVertex
100
AcDb2dVertex
 10
95.399435
 20
158.5
 30
0.0
  0
VERTEX
  5
26D3
100
AcDbEntity
  8
V0-OBRYS
  6
CONTINUOUS
 62
     7
 48
3.0
100
AcDbVertex
100
AcDb2dVertex
 10
115.399435
 20
158.5
 30
0.0
  0
VERTEX
  5
26D4
100
AcDbEntity
  8
V0-OBRYS
  6
CONTINUOUS
 62
     7
 48
3.0
100
AcDbVertex
100
AcDb2dVertex
 10
115.399435
 20
157.0
 30
0.0
  0
VERTEX
  5
26D5
100
AcDbEntity
  8
V0-OBRYS
  6
CONTINUOUS
 62
     7
 48
3.0
100
AcDbVertex
100
AcDb2dVertex
 10
123.899435
 20
157.0
 30
0.0
  0
VERTEX
  5
26D6
100
AcDbEntity
  8
V0-OBRYS
  6
CONTINUOUS
 62
     7
 48
3.0
100
AcDbVertex
100
AcDb2dVertex
 10
123.899435
 20
162.5
 30
0.0
  0
VERTEX
  5
26D7
100
AcDbEntity
  8
V0-OBRYS
  6
CONTINUOUS
 62
     7
 48
3.0
100
AcDbVertex
100
AcDb2dVertex
 10
124.399435
 20
162.5
 30
0.0
  0
VERTEX
  5
26D8
100
AcDbEntity
  8
V0-OBRYS
  6
CONTINUOUS
 62
     7
 48
3.0
100
AcDbVertex
100
AcDb2dVertex
 10
124.399435
 20
157.0
 30
0.0
  0
VERTEX
  5
26D9
100
AcDbEntity
  8
V0-OBRYS
  6
CONTINUOUS
 62
     7
 48
3.0
100
AcDbVertex
100
AcDb2dVertex
 10
135.399435
 20
157.0
 30
0.0
  0
VERTEX
  5
26DA
100
AcDbEntity
  8
V0-OBRYS
  6
CONTINUOUS
 62
     7
 48
3.0
100
AcDbVertex
100
AcDb2dVertex
 10
135.399435
 20
0.0
 30
0.0
  0
SEQEND
  5
26DB
100
AcDbEntity
  8
V0-OBRYS
  6
CONTINUOUS
 62
     7
 48
3.0
  0
POLYLINE
  5
26DC
100
AcDbEntity
  8
V0-OBRYS
  6
CONTINUOUS
 62
     7
 48
3.0
100
AcDbPolygonMesh
 66
     1
 10
0.0
 20
0.0
 30
0.0
 70
    17
 71
    15
 72
    28
  0
VERTEX
  5
26DD
100
AcDbEntity
  8
V0-OBRYS
  6
CONTINUOUS
 62
     7
 48
3.0
100
AcDbVertex
100
AcDbPolygonMeshVertex
 10
0.399435
 20
0.0
 30
0.0
 70
    64
  0
VERTEX
  5
26DE
100
AcDbEntity
  8
V0-OBRYS
  6
CONTINUOUS
 62
     7
 48
3.0
100
AcDbVertex
100
AcDbPolygonMeshVertex
 10
0.399435
 20
157.0
 30
0.0
 70
    64
  0
VERTEX
  5
26DF
100
AcDbEntity
  8
V0-OBRYS
  6
CONTINUOUS
 62
     7
 48
3.0
100
AcDbVertex
100
AcDbPolygonMeshVertex
 10
11.399435
 20
157.0
 30
0.0
 70
    64
  0
VERTEX
  5
26E0
100
AcDbEntity
  8
V0-OBRYS
  6
CONTINUOUS
 62
     7
 48
3.0
100
AcDbVertex
100
AcDbPolygonMeshVertex
 10
11.399435
 20
162.5
 30
0.0
 70
    64
  0
VERTEX
  5
26E1
100
AcDbEntity
  8
V0-OBRYS
  6
CONTINUOUS
 62
     7
 48
3.0
100
AcDbVertex
100
AcDbPolygonMeshVertex
 10
11.899435
 20
162.5
 30
0.0
 70
    64
  0
VERTEX
  5
26E2
100
AcDbEntity
  8
V0-OBRYS
  6
CONTINUOUS
 62
     7
 48
3.0
100
AcDbVertex
100
AcDbPolygonMeshVertex
 10
11.899435
 20
157.0
 30
0.0
 70
    64
  0
VERTEX
  5
26E3
100
AcDbEntity
  8
V0-OBRYS
  6
CONTINUOUS
 62
     7
 48
3.0
100
AcDbVertex
100
AcDbPolygonMeshVertex
 10
20.399435
 20
157.0
 30
0.0
 70
    64
  0
VERTEX
  5
26E4
100
AcDbEntity
  8
V0-OBRYS
  6
CONTINUOUS
 62
     7
 48
3.0
100
AcDbVertex
100
AcDbPolygonMeshVertex
 10
20.399435
 20
158.5
 30
0.0
 70
    64
  0
VERTEX
  5
26E5
100
AcDbEntity
  8
V0-OBRYS
  6
CONTINUOUS
 62
     7
 48
3.0
100
AcDbVertex
100
AcDbPolygonMeshVertex
 10
40.399435
 20
158.5
 30
0.0
 70
    64
  0
VERTEX
  5
26E6
100
AcDbEntity
  8
V0-OBRYS
  6
CONTINUOUS
 62
     7
 48
3.0
100
AcDbVertex
100
AcDbPolygonMeshVertex
 10
40.399435
 20
159.5
 30
0.0
 70
    64
  0
VERTEX
  5
26E7
100
AcDbEntity
  8
V0-OBRYS
  6
CONTINUOUS
 62
     7
 48
3.0
100
AcDbVertex
100
AcDbPolygonMeshVertex
 10
43.399435
 20
159.5
 30
0.0
 70
    64
  0
VERTEX
  5
26E8
100
AcDbEntity
  8
V0-OBRYS
  6
CONTINUOUS
 62
     7
 48
3.0
100
AcDbVertex
100
AcDbPolygonMeshVertex
 10
43.399435
 20
158.5
 30
0.0
 70
    64
  0
VERTEX
  5
26E9
100
AcDbEntity
  8
V0-OBRYS
  6
CONTINUOUS
 62
     7
 48
3.0
100
AcDbVertex
100
AcDbPolygonMeshVertex
 10
62.899435
 20
158.5
 30
0.0
 70
    64
  0
VERTEX
  5
26EA
100
AcDbEntity
  8
V0-OBRYS
  6
CONTINUOUS
 62
     7
 48
3.0
100
AcDbVertex
100
AcDbPolygonMeshVertex
 10
62.899435
 20
205.0
 30
0.0
 70
    64
  0
VERTEX
  5
26EB
100
AcDbEntity
  8
V0-OBRYS
  6
CONTINUOUS
 62
     7
 48
3.0
100
AcDbVertex
100
AcDbPolygonMeshVertex
 10
72.899435
 20
205.0
 30
0.0
 70
    64
  0
VERTEX
  5
26EC
100
AcDbEntity
  8
V0-OBRYS
  6
CONTINUOUS
 62
     7
 48
3.0
100
AcDbVertex
100
AcDbPolygonMeshVertex
 10
72.899435
 20
158.5
 30
0.0
 70
    64
  0
VERTEX
  5
26ED
100
AcDbEntity
  8
V0-OBRYS
  6
CONTINUOUS
 62
     7
 48
3.0
100
AcDbVertex
100
AcDbPolygonMeshVertex
 10
92.399435
 20
158.5
 30
0.0
 70
    64
  0
VERTEX
  5
26EE
100
AcDbEntity
  8
V0-OBRYS
  6
CONTINUOUS
 62
     7
 48
3.0
100
AcDbVertex
100
AcDbPolygonMeshVertex
 10
92.399435
 20
159.5
 30
0.0
 70
    64
  0
VERTEX
  5
26EF
100
AcDbEntity
  8
V0-OBRYS
  6
CONTINUOUS
 62
     7
 48
3.0
100
AcDbVertex
100
AcDbPolygonMeshVertex
 10
95.399435
 20
159.5
 30
0.0
 70
    64
  0
VERTEX
  5
26F0
100
AcDbEntity
  8
V0-OBRYS
  6
CONTINUOUS
 62
     7
 48
3.0
100
AcDbVertex
100
AcDbPolygonMeshVertex
 10
95.399435
 20
158.5
 30
0.0
 70
    64
  0
VERTEX
  5
26F1
100
AcDbEntity
  8
V0-OBRYS
  6
CONTINUOUS
 62
     7
 48
3.0
100
AcDbVertex
100
AcDbPolygonMeshVertex
 10
115.399435
 20
158.5
 30
0.0
 70
    64
  0
VERTEX
  5
26F2
100
AcDbEntity
  8
V0-OBRYS
  6
CONTINUOUS
 62
     7
 48
3.0
100
AcDbVertex
100
AcDbPolygonMeshVertex
 10
115.399435
 20
157.0
 30
0.0
 70
    64
  0
VERTEX
  5
26F3
100
AcDbEntity
  8
V0-OBRYS
  6
CONTINUOUS
 62
     7
 48
3.0
100
AcDbVertex
100
AcDbPolygonMeshVertex
 10
123.899435
 20
157.0
 30
0.0
 70
    64
  0
VERTEX
  5
26F4
100
AcDbEntity
  8
V0-OBRYS
  6
CONTINUOUS
 62
     7
 48
3.0
100
AcDbVertex
100
AcDbPolygonMeshVertex
 10
123.899435
 20
162.5
 30
0.0
 70
    64
  0
VERTEX
  5
26F5
100
AcDbEntity
  8
V0-OBRYS
  6
CONTINUOUS
 62
     7
 48
3.0
100
AcDbVertex
100
AcDbPolygonMeshVertex
 10
124.399435
 20
162.5
 30
0.0
 70
    64
  0
VERTEX
  5
26F6
100
AcDbEntity
  8
V0-OBRYS
  6
CONTINUOUS
 62
     7
 48
3.0
100
AcDbVertex
100
AcDbPolygonMeshVertex
 10
124.399435
 20
157.0
 30
0.0
 70
    64
  0
VERTEX
  5
26F7
100
AcDbEntity
  8
V0-OBRYS
  6
CONTINUOUS
 62
     7
 48
3.0
100
AcDbVertex
100
AcDbPolygonMeshVertex
 10
135.399435
 20
157.0
 30
0.0
 70
    64
  0
VERTEX
  5
26F8
100
AcDbEntity
  8
V0-OBRYS
  6
CONTINUOUS
 62
     7
 48
3.0
100
AcDbVertex
100
AcDbPolygonMeshVertex
 10
135.399435
 20
0.0
 30
0.0
 70
    64
  0
VERTEX
  5
26F9
100
AcDbEntity
  8
V0-OBRYS
  6
CONTINUOUS
 62
     7
 48
3.0
100
AcDbVertex
100
AcDbPolygonMeshVertex
 10
0.399435
 20
0.0
 30
0.0
 70
    64
  0
VERTEX
  5
26FA
100
AcDbEntity
  8
V0-OBRYS
  6
CONTINUOUS
 62
     7
 48
3.0
100
AcDbVertex
100
AcDbPolygonMeshVertex
 10
0.399435
 20
143.426637
 30
63.857653
 70
    64
  0
VERTEX
  5
26FB
100
AcDbEntity
  8
V0-OBRYS
  6
CONTINUOUS
 62
     7
 48
3.0
100
AcDbVertex
100
AcDbPolygonMeshVertex
 10
11.399435
 20
143.426637
 30
63.857653
 70
    64
  0
VERTEX
  5
26FC
100
AcDbEntity
  8
V0-OBRYS
  6
CONTINUOUS
 62
     7
 48
3.0
100
AcDbVertex
100
AcDbPolygonMeshVertex
 10
11.399435
 20
148.451137
 30
66.094704
 70
    64
  0
VERTEX
  5
26FD
100
AcDbEntity
  8
V0-OBRYS
  6
CONTINUOUS
 62
     7
 48
3.0
100
AcDbVertex
100
AcDbPolygonMeshVertex
 10
11.899435
 20
148.451137
 30
66.094704
 70
    64
  0
VERTEX
  5
26FE
100
AcDbEntity
  8
V0-OBRYS
  6
CONTINUOUS
 62
     7
 48
3.0
100
AcDbVertex
100
AcDbPolygonMeshVertex
 10
11.899435
 20
143.426637
 30
63.857653
 70
    64
  0
VERTEX
  5
26FF
100
AcDbEntity
  8
V0-OBRYS
  6
CONTINUOUS
 62
     7
 48
3.0
100
AcDbVertex
100
AcDbPolygonMeshVertex
 10
20.399435
 20
143.426637
 30
63.857653
 70
    64
  0
VERTEX
  5
2700
100
AcDbEntity
  8
V0-OBRYS
  6
CONTINUOUS
 62
     7
 48
3.0
100
AcDbVertex
100
AcDbPolygonMeshVertex
 10
20.399435
 20
144.796955
 30
64.467758
 70
    64
  0
VERTEX
  5
2701
100
AcDbEntity
  8
V0-OBRYS
  6
CONTINUOUS
 62
     7
 48
3.0
100
AcDbVertex
100
AcDbPolygonMeshVertex
 10
40.399435
 20
144.796955
 30
64.467758
 70
    64
  0
VERTEX
  5
2702
100
AcDbEntity
  8
V0-OBRYS
  6
CONTINUOUS
 62
     7
 48
3.0
100
AcDbVertex
100
AcDbPolygonMeshVertex
 10
40.399435
 20
145.7105
 30
64.874495
 70
    64
  0
VERTEX
  5
2703
100
AcDbEntity
  8
V0-OBRYS
  6
CONTINUOUS
 62
     7
 48
3.0
100
AcDbVertex
100
AcDbPolygonMeshVertex
 10
43.399435
 20
145.7105
 30
64.874495
 70
    64
  0
VERTEX
  5
2704
100
AcDbEntity
  8
V0-OBRYS
  6
CONTINUOUS
 62
     7
 48
3.0
100
AcDbVertex
100
AcDbPolygonMeshVertex
 10
43.399435
 20
144.796955
 30
64.467758
 70
    64
  0
VERTEX
  5
2705
100
AcDbEntity
  8
V0-OBRYS
  6
CONTINUOUS
 62
     7
 48
3.0
100
AcDbVertex
100
AcDbPolygonMeshVertex
 10
62.899435
 20
144.796955
 30
64.467758
 70
    64
  0
VERTEX
  5
2706
100
AcDbEntity
  8
V0-OBRYS
  6
CONTINUOUS
 62
     7
 48
3.0
100
AcDbVertex
100
AcDbPolygonMeshVertex
 10
62.899435
 20
187.276819
 30
83.381012
 70
    64
  0
VERTEX
  5
2707
100
AcDbEntity
  8
V0-OBRYS
  6
CONTINUOUS
 62
     7
 48
3.0
100
AcDbVertex
100
AcDbPolygonMeshVertex
 10
72.899435
 20
187.276819
 30
83.381012
 70
    64
  0
VERTEX
  5
2708
100
AcDbEntity
  8
V0-OBRYS
  6
CONTINUOUS
 62
     7
 48
3.0
100
AcDbVertex
100
AcDbPolygonMeshVertex
 10
72.899435
 20
144.796955
 30
64.467758
 70
    64
  0
VERTEX
  5
2709
100
AcDbEntity
  8
V0-OBRYS
  6
CONTINUOUS
 62
     7
 48
3.0
100
AcDbVertex
100
AcDbPolygonMeshVertex
 10
92.399435
 20
144.796955
 30
64.467758
 70
    64
  0
VERTEX
  5
270A
100
AcDbEntity
  8
V0-OBRYS
  6
CONTINUOUS
 62
     7
 48
3.0
100
AcDbVertex
100
AcDbPolygonMeshVertex
 10
92.399435
 20
145.7105
 30
64.874495
 70
    64
  0
VERTEX
  5
270B
100
AcDbEntity
  8
V0-OBRYS
  6
CONTINUOUS
 62
     7
 48
3.0
100
AcDbVertex
100
AcDbPolygonMeshVertex
 10
95.399435
 20
145.7105
 30
64.874495
 70
    64
  0
VERTEX
  5
270C
100
AcDbEntity
  8
V0-OBRYS
  6
CONTINUOUS
 62
     7
 48
3.0
100
AcDbVertex
100
AcDbPolygonMeshVertex
 10
95.399435
 20
144.796955
 30
64.467758
 70
    64
  0
VERTEX
  5
270D
100
AcDbEntity
  8
V0-OBRYS
  6
CONTINUOUS
 62
     7
 48
3.0
100
AcDbVertex
100
AcDbPolygonMeshVertex
 10
115.399435
 20
144.796955
 30
64.467758
 70
    64
  0
VERTEX
  5
270E
100
AcDbEntity
  8
V0-OBRYS
  6
CONTINUOUS
 62
     7
 48
3.0
100
AcDbVertex
100
AcDbPolygonMeshVertex
 10
115.399435
 20
143.426637
 30
63.857653
 70
    64
  0
VERTEX
  5
270F
100
AcDbEntity
  8
V0-OBRYS
  6
CONTINUOUS
 62
     7
 48
3.0
100
AcDbVertex
100
AcDbPolygonMeshVertex
 10
123.899435
 20
143.426637
 30
63.857653
 70
    64
  0
VERTEX
  5
2710
100
AcDbEntity
  8
V0-OBRYS
  6
CONTINUOUS
 62
     7
 48
3.0
100
AcDbVertex
100
AcDbPolygonMeshVertex
 10
123.899435
 20
148.451137
 30
66.094704
 70
    64
  0
VERTEX
  5
2711
100
AcDbEntity
  8
V0-OBRYS
  6
CONTINUOUS
 62
     7
 48
3.0
100
AcDbVertex
100
AcDbPolygonMeshVertex
 10
124.399435
 20
148.451137
 30
66.094704
 70
    64
  0
VERTEX
  5
2712
100
AcDbEntity
  8
V0-OBRYS
  6
CONTINUOUS
 62
     7
 48
3.0
100
AcDbVertex
100
AcDbPolygonMeshVertex
 10
124.399435
 20
143.426637
 30
63.857653
 70
    64
  0
VERTEX
  5
2713
100
AcDbEntity
  8
V0-OBRYS
  6
CONTINUOUS
 62
     7
 48
3.0
100
AcDbVertex
100
AcDbPolygonMeshVertex
 10
135.399435
 20
143.426637
 30
63.857653
 70
    64
  0
VERTEX
  5
2714
100
AcDbEntity
  8
V0-OBRYS
  6
CONTINUOUS
 62
     7
 48
3.0
100
AcDbVertex
100
AcDbPolygonMeshVertex
 10
135.399435
 20
0.0
 30
0.0
 70
    64
  0
VERTEX
  5
2715
100
AcDbEntity
  8
V0-OBRYS
  6
CONTINUOUS
 62
     7
 48
3.0
100
AcDbVertex
100
AcDbPolygonMeshVertex
 10
0.399435
 20
0.0
 30
0.0
 70
    64
  0
VERTEX
  5
2716
100
AcDbEntity
  8
V0-OBRYS
  6
CONTINUOUS
 62
     7
 48
3.0
100
AcDbVertex
100
AcDbPolygonMeshVertex
 10
0.399435
 20
105.053505
 30
116.673738
 70
    64
  0
VERTEX
  5
2717
100
AcDbEntity
  8
V0-OBRYS
  6
CONTINUOUS
 62
     7
 48
3.0
100
AcDbVertex
100
AcDbPolygonMeshVertex
 10
11.399435
 20
105.053505
 30
116.673738
 70
    64
  0
VERTEX
  5
2718
100
AcDbEntity
  8
V0-OBRYS
  6
CONTINUOUS
 62
     7
 48
3.0
100
AcDbVertex
100
AcDbPolygonMeshVertex
 10
11.399435
 20
108.733724
 30
120.761034
 70
    64
  0
VERTEX
  5
2719
100
AcDbEntity
  8
V0-OBRYS
  6
CONTINUOUS
 62
     7
 48
3.0
100
AcDbVertex
100
AcDbPolygonMeshVertex
 10
11.899435
 20
108.733724
 30
120.761034
 70
    64
  0
VERTEX
  5
271A
100
AcDbEntity
  8
V0-OBRYS
  6
CONTINUOUS
 62
     7
 48
3.0
100
AcDbVertex
100
AcDbPolygonMeshVertex
 10
11.899435
 20
105.053505
 30
116.673738
 70
    64
  0
VERTEX
  5
271B
100
AcDbEntity
  8
V0-OBRYS
  6
CONTINUOUS
 62
     7
 48
3.0
100
AcDbVertex
100
AcDbPolygonMeshVertex
 10
20.399435
 20
105.053505
 30
116.673738
 70
    64
  0
VERTEX
  5
271C
100
AcDbEntity
  8
V0-OBRYS
  6
CONTINUOUS
 62
     7
 48
3.0
100
AcDbVertex
100
AcDbPolygonMeshVertex
 10
20.399435
 20
106.057201
 30
117.788455
 70
    64
  0
VERTEX
  5
271D
100
AcDbEntity
  8
V0-OBRYS
  6
CONTINUOUS
 62
     7
 48
3.0
100
AcDbVertex
100
AcDbPolygonMeshVertex
 10
40.399435
 20
106.057201
 30
117.788455
 70
    64
  0
VERTEX
  5
271E
100
AcDbEntity
  8
V0-OBRYS
  6
CONTINUOUS
 62
     7
 48
3.0
100
AcDbVertex
100
AcDbPolygonMeshVertex
 10
40.399435
 20
106.726332
 30
118.5316
 70
    64
  0
VERTEX
  5
271F
100
AcDbEntity
  8
V0-OBRYS
  6
CONTINUOUS
 62
     7
 48
3.0
100
AcDbVertex
100
AcDbPolygonMeshVertex
 10
43.399435
 20
106.726332
 30
118.5316
 70
    64
  0
VERTEX
  5
2720
100
AcDbEntity
  8
V0-OBRYS
  6
CONTINUOUS
 62
     7
 48
3.0
100
AcDbVertex
100
AcDbPolygonMeshVertex
 10
43.399435
 20
106.057201
 30
117.788455
 70
    64
  0
VERTEX
  5
2721
100
AcDbEntity
  8
V0-OBRYS
  6
CONTINUOUS
 62
     7
 48
3.0
100
AcDbVertex
100
AcDbPolygonMeshVertex
 10
62.899435
 20
106.057201
 30
117.788455
 70
    64
  0
VERTEX
  5
2722
100
AcDbEntity
  8
V0-OBRYS
  6
CONTINUOUS
 62
     7
 48
3.0
100
AcDbVertex
100
AcDbPolygonMeshVertex
 10
62.899435
 20
137.171774
 30
152.344689
 70
    64
  0
VERTEX
  5
2723
100
AcDbEntity
  8
V0-OBRYS
  6
CONTINUOUS
 62
     7
 48
3.0
100
AcDbVertex
100
AcDbPolygonMeshVertex
 10
72.899435
 20
137.171774
 30
152.344689
 70
    64
  0
VERTEX
  5
2724
100
AcDbEntity
  8
V0-OBRYS
  6
CONTINUOUS
 62
     7
 48
3.0
100
AcDbVertex
100
AcDbPolygonMeshVertex
 10
72.899435
 20
106.057201
 30
117.788455
 70
    64
  0
VERTEX
  5
2725
100
AcDbEntity
  8
V0-OBRYS
  6
CONTINUOUS
 62
     7
 48
3.0
100
AcDbVertex
100
AcDbPolygonMeshVertex
 10
92.399435
 20
106.057201
 30
117.788455
 70
    64
  0
VERTEX
  5
2726
100
AcDbEntity
  8
V0-OBRYS
  6
CONTINUOUS
 62
     7
 48
3.0
100
AcDbVertex
100
AcDbPolygonMeshVertex
 10
92.399435
 20
106.726332
 30
118.5316
 70
    64
  0
VERTEX
  5
2727
100
AcDbEntity
  8
V0-OBRYS
  6
CONTINUOUS
 62
     7
 48
3.0
100
AcDbVertex
100
AcDbPolygonMeshVertex
 10
95.399435
 20
106.726332
 30
118.5316
 70
    64
  0
VERTEX
  5
2728
100
AcDbEntity
  8
V0-OBRYS
  6
CONTINUOUS
 62
     7
 48
3.0
100
AcDbVertex
100
AcDbPolygonMeshVertex
 10
95.399435
 20
106.057201
 30
117.788455
 70
    64
  0
VERTEX
  5
2729
100
AcDbEntity
  8
V0-OBRYS
  6
CONTINUOUS
 62
     7
 48
3.0
100
AcDbVertex
100
AcDbPolygonMeshVertex
 10
115.399435
 20
106.057201
 30
117.788455
 70
    64
  0
VERTEX
  5
272A
100
AcDbEntity
  8
V0-OBRYS
  6
CONTINUOUS
 62
     7
 48
3.0
100
AcDbVertex
100
AcDbPolygonMeshVertex
 10
115.399435
 20
105.053505
 30
116.673738
 70
    64
  0
VERTEX
  5
272B
100
AcDbEntity
  8
V0-OBRYS
  6
CONTINUOUS
 62
     7
 48
3.0
100
AcDbVertex
100
AcDbPolygonMeshVertex
 10
123.899435
 20
105.053505
 30
116.673738
 70
    64
  0
VERTEX
  5
272C
100
AcDbEntity
  8
V0-OBRYS
  6
CONTINUOUS
 62
     7
 48
3.0
100
AcDbVertex
100
AcDbPolygonMeshVertex
 10
123.899435
 20
108.733724
 30
120.761034
 70
    64
  0
VERTEX
  5
272D
100
AcDbEntity
  8
V0-OBRYS
  6
CONTINUOUS
 62
     7
 48
3.0
100
AcDbVertex
100
AcDbPolygonMeshVertex
 10
124.399435
 20
108.733724
 30
120.761034
 70
    64
  0
VERTEX
  5
272E
100
AcDbEntity
  8
V0-OBRYS
  6
CONTINUOUS
 62
     7
 48
3.0
100
AcDbVertex
100
AcDbPolygonMeshVertex
 10
124.399435
 20
105.053505
 30
116.673738
 70
    64
  0
VERTEX
  5
272F
100
AcDbEntity
  8
V0-OBRYS
  6
CONTINUOUS
 62
     7
 48
3.0
100
AcDbVertex
100
AcDbPolygonMeshVertex
 10
135.399435
 20
105.053505
 30
116.673738
 70
    64
  0
VERTEX
  5
2730
100
AcDbEntity
  8
V0-OBRYS
  6
CONTINUOUS
 62
     7
 48
3.0
100
AcDbVertex
100
AcDbPolygonMeshVertex
 10
135.399435
 20
0.0
 30
0.0
 70
    64
  0
VERTEX
  5
2731
100
AcDbEntity
  8
V0-OBRYS
  6
CONTINUOUS
 62
     7
 48
3.0
100
AcDbVertex
100
AcDbPolygonMeshVertex
 10
0.399435
 20
0.0
 30
0.0
 70
    64
  0
VERTEX
  5
2732
100
AcDbEntity
  8
V0-OBRYS
  6
CONTINUOUS
 62
     7
 48
3.0
100
AcDbVertex
100
AcDbPolygonMeshVertex
 10
0.399435
 20
48.515668
 30
149.315873
 70
    64
  0
VERTEX
  5
2733
100
AcDbEntity
  8
V0-OBRYS
  6
CONTINUOUS
 62
     7
 48
3.0
100
AcDbVertex
100
AcDbPolygonMeshVertex
 10
11.399435
 20
48.515668
 30
149.315873
 70
    64
  0
VERTEX
  5
2734
100
AcDbEntity
  8
V0-OBRYS
  6
CONTINUOUS
 62
     7
 48
3.0
100
AcDbVertex
100
AcDbPolygonMeshVertex
 10
11.399435
 20
50.215262
 30
154.546684
 70
    64
  0
VERTEX
  5
2735
100
AcDbEntity
  8
V0-OBRYS
  6
CONTINUOUS
 62
     7
 48
3.0
100
AcDbVertex
100
AcDbPolygonMeshVertex
 10
11.899435
 20
50.215262
 30
154.546684
 70
    64
  0
VERTEX
  5
2736
100
AcDbEntity
  8
V0-OBRYS
  6
CONTINUOUS
 62
     7
 48
3.0
100
AcDbVertex
100
AcDbPolygonMeshVertex
 10
11.899435
 20
48.515668
 30
149.315873
 70
    64
  0
VERTEX
  5
2737
100
AcDbEntity
  8
V0-OBRYS
  6
CONTINUOUS
 62
     7
 48
3.0
100
AcDbVertex
100
AcDbPolygonMeshVertex
 10
20.399435
 20
48.515668
 30
149.315873
 70
    64
  0
VERTEX
  5
2738
100
AcDbEntity
  8
V0-OBRYS
  6
CONTINUOUS
 62
     7
 48
3.0
100
AcDbVertex
100
AcDbPolygonMeshVertex
 10
20.399435
 20
48.979194
 30
150.742458
 70
    64
  0
VERTEX
  5
2739
100
AcDbEntity
  8
V0-OBRYS
  6
CONTINUOUS
 62
     7
 48
3.0
100
AcDbVertex
100
AcDbPolygonMeshVertex
 10
40.399435
 20
48.979194
 30
150.742458
 70
    64
  0
VERTEX
  5
273A
100
AcDbEntity
  8
V0-OBRYS
  6
CONTINUOUS
 62
     7
 48
3.0
100
AcDbVertex
100
AcDbPolygonMeshVertex
 10
40.399435
 20
49.288211
 30
151.693514
 70
    64
  0
VERTEX
  5
273B
100
AcDbEntity
  8
V0-OBRYS
  6
CONTINUOUS
 62
     7
 48
3.0
100
AcDbVertex
100
AcDbPolygonMeshVertex
 10
43.399435
 20
49.288211
 30
151.693514
 70
    64
  0
VERTEX
  5
273C
100
AcDbEntity
  8
V0-OBRYS
  6
CONTINUOUS
 62
     7
 48
3.0
100
AcDbVertex
100
AcDbPolygonMeshVertex
 10
43.399435
 20
48.979194
 30
150.742458
 70
    64
  0
VERTEX
  5
273D
100
AcDbEntity
  8
V0-OBRYS
  6
CONTINUOUS
 62
     7
 48
3.0
100
AcDbVertex
100
AcDbPolygonMeshVertex
 10
62.899435
 20
48.979194
 30
150.742458
 70
    64
  0
VERTEX
  5
273E
100
AcDbEntity
  8
V0-OBRYS
  6
CONTINUOUS
 62
     7
 48
3.0
100
AcDbVertex
100
AcDbPolygonMeshVertex
 10
62.899435
 20
63.348484
 30
194.966586
 70
    64
  0
VERTEX
  5
273F
100
AcDbEntity
  8
V0-OBRYS
  6
CONTINUOUS
 62
     7
 48
3.0
100
AcDbVertex
100
AcDbPolygonMeshVertex
 10
72.899435
 20
63.348484
 30
194.966586
 70
    64
  0
VERTEX
  5
2740
100
AcDbEntity
  8
V0-OBRYS
  6
CONTINUOUS
 62
     7
 48
3.0
100
AcDbVertex
100
AcDbPolygonMeshVertex
 10
72.899435
 20
48.979194
 30
150.742458
 70
    64
  0
VERTEX
  5
2741
100
AcDbEntity
  8
V0-OBRYS
  6
CONTINUOUS
 62
     7
 48
3.0
100
AcDbVertex
100
AcDbPolygonMeshVertex
 10
92.399435
 20
48.979194
 30
150.742458
 70
    64
  0
VERTEX
  5
2742
100
AcDbEntity
  8
V0-OBRYS
  6
CONTINUOUS
 62
     7
 48
3.0
100
AcDbVertex
100
AcDbPolygonMeshVertex
 10
92.399435
 20
49.288211
 30
151.693514
 70
    64
  0
VERTEX
  5
2743
100
AcDbEntity
  8
V0-OBRYS
  6
CONTINUOUS
 62
     7
 48
3.0
100
AcDbVertex
100
AcDbPolygonMeshVertex
 10
95.399435
 20
49.288211
 30
151.693514
 70
    64
  0
VERTEX
  5
2744
100
AcDbEntity
  8
V0-OBRYS
  6
CONTINUOUS
 62
     7
 48
3.0
100
AcDbVertex
100
AcDbPolygonMeshVertex
 10
95.399435
 20
48.979194
 30
150.742458
 70
    64
  0
VERTEX
  5
2745
100
AcDbEntity
  8
V0-OBRYS
  6
CONTINUOUS
 62
     7
 48
3.0
100
AcDbVertex
100
AcDbPolygonMeshVertex
 10
115.399435
 20
48.979194
 30
150.742458
 70
    64
  0
VERTEX
  5
2746
100
AcDbEntity
  8
V0-OBRYS
  6
CONTINUOUS
 62
     7
 48
3.0
100
AcDbVertex
100
AcDbPolygonMeshVertex
 10
115.399435
 20
48.515668
 30
149.315873
 70
    64
  0
VERTEX
  5
2747
100
AcDbEntity
  8
V0-OBRYS
  6
CONTINUOUS
 62
     7
 48
3.0
100
AcDbVertex
100
AcDbPolygonMeshVertex
 10
123.899435
 20
48.515668
 30
149.315873
 70
    64
  0
VERTEX
  5
2748
100
AcDbEntity
  8
V0-OBRYS
  6
CONTINUOUS
 62
     7
 48
3.0
100
AcDbVertex
100
AcDbPolygonMeshVertex
 10
123.899435
 20
50.215262
 30
154.546684
 70
    64
  0
VERTEX
  5
2749
100
AcDbEntity
  8
V0-OBRYS
  6
CONTINUOUS
 62
     7
 48
3.0
100
AcDbVertex
100
AcDbPolygonMeshVertex
 10
124.399435
 20
50.215262
 30
154.546684
 70
    64
  0
VERTEX
  5
274A
100
AcDbEntity
  8
V0-OBRYS
  6
CONTINUOUS
 62
     7
 48
3.0
100
AcDbVertex
100
AcDbPolygonMeshVertex
 10
124.399435
 20
48.515668
 30
149.315873
 70
    64
  0
VERTEX
  5
274B
100
AcDbEntity
  8
V0-OBRYS
  6
CONTINUOUS
 62
     7
 48
3.0
100
AcDbVertex
100
AcDbPolygonMeshVertex
 10
135.399435
 20
48.515668
 30
149.315873
 70
    64
  0
VERTEX
  5
274C
100
AcDbEntity
  8
V0-OBRYS
  6
CONTINUOUS
 62
     7
 48
3.0
100
AcDbVertex
100
AcDbPolygonMeshVertex
 10
135.399435
 20
0.0
 30
0.0
 70
    64
  0
VERTEX
  5
274D
100
AcDbEntity
  8
V0-OBRYS
  6
CONTINUOUS
 62
     7
 48
3.0
100
AcDbVertex
100
AcDbPolygonMeshVertex
 10
0.399435
 20
0.0
 30
0.0
 70
    64
  0
VERTEX
  5
274E
100
AcDbEntity
  8
V0-OBRYS
  6
CONTINUOUS
 62
     7
 48
3.0
100
AcDbVertex
100
AcDbPolygonMeshVertex
 10
0.399435
 20
-16.410969
 30
156.139938
 70
    64
  0
VERTEX
  5
274F
100
AcDbEntity
  8
V0-OBRYS
  6
CONTINUOUS
 62
     7
 48
3.0
100
AcDbVertex
100
AcDbPolygonMeshVertex
 10
11.399435
 20
-16.410969
 30
156.139938
 70
    64
  0
VERTEX
  5
2750
100
AcDbEntity
  8
V0-OBRYS
  6
CONTINUOUS
 62
     7
 48
3.0
100
AcDbVertex
100
AcDbPolygonMeshVertex
 10
11.399435
 20
-16.985875
 30
161.609808
 70
    64
  0
VERTEX
  5
2751
100
AcDbEntity
  8
V0-OBRYS
  6
CONTINUOUS
 62
     7
 48
3.0
100
AcDbVertex
100
AcDbPolygonMeshVertex
 10
11.899435
 20
-16.985875
 30
161.609808
 70
    64
  0
VERTEX
  5
2752
100
AcDbEntity
  8
V0-OBRYS
  6
CONTINUOUS
 62
     7
 48
3.0
100
AcDbVertex
100
AcDbPolygonMeshVertex
 10
11.899435
 20
-16.410969
 30
156.139938
 70
    64
  0
VERTEX
  5
2753
100
AcDbEntity
  8
V0-OBRYS
  6
CONTINUOUS
 62
     7
 48
3.0
100
AcDbVertex
100
AcDbPolygonMeshVertex
 10
20.399435
 20
-16.410969
 30
156.139938
 70
    64
  0
VERTEX
  5
2754
100
AcDbEntity
  8
V0-OBRYS
  6
CONTINUOUS
 62
     7
 48
3.0
100
AcDbVertex
100
AcDbPolygonMeshVertex
 10
20.399435
 20
-16.567761
 30
157.63172
 70
    64
  0
VERTEX
  5
2755
100
AcDbEntity
  8
V0-OBRYS
  6
CONTINUOUS
 62
     7
 48
3.0
100
AcDbVertex
100
AcDbPolygonMeshVertex
 10
40.399435
 20
-16.567761
 30
157.63172
 70
    64
  0
VERTEX
  5
2756
100
AcDbEntity
  8
V0-OBRYS
  6
CONTINUOUS
 62
     7
 48
3.0
100
AcDbVertex
100
AcDbPolygonMeshVertex
 10
40.399435
 20
-16.67229
 30
158.626242
 70
    64
  0
VERTEX
  5
2757
100
AcDbEntity
  8
V0-OBRYS
  6
CONTINUOUS
 62
     7
 48
3.0
100
AcDbVertex
100
AcDbPolygonMeshVertex
 10
43.399435
 20
-16.67229
 30
158.626242
 70
    64
  0
VERTEX
  5
2758
100
AcDbEntity
  8
V0-OBRYS
  6
CONTINUOUS
 62
     7
 48
3.0
100
AcDbVertex
100
AcDbPolygonMeshVertex
 10
43.399435
 20
-16.567761
 30
157.63172
 70
    64
  0
VERTEX
  5
2759
100
AcDbEntity
  8
V0-OBRYS
  6
CONTINUOUS
 62
     7
 48
3.0
100
AcDbVertex
100
AcDbPolygonMeshVertex
 10
62.899435
 20
-16.567761
 30
157.63172
 70
    64
  0
VERTEX
  5
275A
100
AcDbEntity
  8
V0-OBRYS
  6
CONTINUOUS
 62
     7
 48
3.0
100
AcDbVertex
100
AcDbPolygonMeshVertex
 10
62.899435
 20
-21.428335
 30
203.876989
 70
    64
  0
VERTEX
  5
275B
100
AcDbEntity
  8
V0-OBRYS
  6
CONTINUOUS
 62
     7
 48
3.0
100
AcDbVertex
100
AcDbPolygonMeshVertex
 10
72.899435
 20
-21.428335
 30
203.876989
 70
    64
  0
VERTEX
  5
275C
100
AcDbEntity
  8
V0-OBRYS
  6
CONTINUOUS
 62
     7
 48
3.0
100
AcDbVertex
100
AcDbPolygonMeshVertex
 10
72.899435
 20
-16.567761
 30
157.63172
 70
    64
  0
VERTEX
  5
275D
100
AcDbEntity
  8
V0-OBRYS
  6
CONTINUOUS
 62
     7
 48
3.0
100
AcDbVertex
100
AcDbPolygonMeshVertex
 10
92.399435
 20
-16.567761
 30
157.63172
 70
    64
  0
VERTEX
  5
275E
100
AcDbEntity
  8
V0-OBRYS
  6
CONTINUOUS
 62
     7
 48
3.0
100
AcDbVertex
100
AcDbPolygonMeshVertex
 10
92.399435
 20
-16.67229
 30
158.626242
 70
    64
  0
VERTEX
  5
275F
100
AcDbEntity
  8
V0-OBRYS
  6
CONTINUOUS
 62
     7
 48
3.0
100
AcDbVertex
100
AcDbPolygonMeshVertex
 10
95.399435
 20
-16.67229
 30
158.626242
 70
    64
  0
VERTEX
  5
2760
100
AcDbEntity
  8
V0-OBRYS
  6
CONTINUOUS
 62
     7
 48
3.0
100
AcDbVertex
100
AcDbPolygonMeshVertex
 10
95.399435
 20
-16.567761
 30
157.63172
 70
    64
  0
VERTEX
  5
2761
100
AcDbEntity
  8
V0-OBRYS
  6
CONTINUOUS
 62
     7
 48
3.0
100
AcDbVertex
100
AcDbPolygonMeshVertex
 10
115.399435
 20
-16.567761
 30
157.63172
 70
    64
  0
VERTEX
  5
2762
100
AcDbEntity
  8
V0-OBRYS
  6
CONTINUOUS
 62
     7
 48
3.0
100
AcDbVertex
100
AcDbPolygonMeshVertex
 10
115.399435
 20
-16.410969
 30
156.139938
 70
    64
  0
VERTEX
  5
2763
100
AcDbEntity
  8
V0-OBRYS
  6
CONTINUOUS
 62
     7
 48
3.0
100
AcDbVertex
100
AcDbPolygonMeshVertex
 10
123.899435
 20
-16.410969
 30
156.139938
 70
    64
  0
VERTEX
  5
2764
100
AcDbEntity
  8
V0-OBRYS
  6
CONTINUOUS
 62
     7
 48
3.0
100
AcDbVertex
100
AcDbPolygonMeshVertex
 10
123.899435
 20
-16.985875
 30
161.609808
 70
    64
  0
VERTEX
  5
2765
100
AcDbEntity
  8
V0-OBRYS
  6
CONTINUOUS
 62
     7
 48
3.0
100
AcDbVertex
100
AcDbPolygonMeshVertex
 10
124.399435
 20
-16.985875
 30
161.609808
 70
    64
  0
VERTEX
  5
2766
100
AcDbEntity
  8
V0-OBRYS
  6
CONTINUOUS
 62
     7
 48
3.0
100
AcDbVertex
100
AcDbPolygonMeshVertex
 10
124.399435
 20
-16.410969
 30
156.139938
 70
    64
  0
VERTEX
  5
2767
100
AcDbEntity
  8
V0-OBRYS
  6
CONTINUOUS
 62
     7
 48
3.0
100
AcDbVertex
100
AcDbPolygonMeshVertex
 10
135.399435
 20
-16.410969
 30
156.139938
 70
    64
  0
VERTEX
  5
2768
100
AcDbEntity
  8
V0-OBRYS
  6
CONTINUOUS
 62
     7
 48
3.0
100
AcDbVertex
100
AcDbPolygonMeshVertex
 10
135.399435
 20
0.0
 30
0.0
 70
    64
  0
VERTEX
  5
2769
100
AcDbEntity
  8
V0-OBRYS
  6
CONTINUOUS
 62
     7
 48
3.0
100
AcDbVertex
100
AcDbPolygonMeshVertex
 10
0.399435
 20
0.0
 30
0.0
 70
    64
  0
VERTEX
  5
276A
100
AcDbEntity
  8
V0-OBRYS
  6
CONTINUOUS
 62
     7
 48
3.0
100
AcDbVertex
100
AcDbPolygonMeshVertex
 10
0.399435
 20
-78.5
 30
135.965988
 70
    64
  0
VERTEX
  5
276B
100
AcDbEntity
  8
V0-OBRYS
  6
CONTINUOUS
 62
     7
 48
3.0
100
AcDbVertex
100
AcDbPolygonMeshVertex
 10
11.399435
 20
-78.5
 30
135.965988
 70
    64
  0
VERTEX
  5
276C
100
AcDbEntity
  8
V0-OBRYS
  6
CONTINUOUS
 62
     7
 48
3.0
100
AcDbVertex
100
AcDbPolygonMeshVertex
 10
11.399435
 20
-81.25
 30
140.729128
 70
    64
  0
VERTEX
  5
276D
100
AcDbEntity
  8
V0-OBRYS
  6
CONTINUOUS
 62
     7
 48
3.0
100
AcDbVertex
100
AcDbPolygonMeshVertex
 10
11.899435
 20
-81.25
 30
140.729128
 70
    64
  0
VERTEX
  5
276E
100
AcDbEntity
  8
V0-OBRYS
  6
CONTINUOUS
 62
     7
 48
3.0
100
AcDbVertex
100
AcDbPolygonMeshVertex
 10
11.899435
 20
-78.5
 30
135.965988
 70
    64
  0
VERTEX
  5
276F
100
AcDbEntity
  8
V0-OBRYS
  6
CONTINUOUS
 62
     7
 48
3.0
100
AcDbVertex
100
AcDbPolygonMeshVertex
 10
20.399435
 20
-78.5
 30
135.965988
 70
    64
  0
VERTEX
  5
2770
100
AcDbEntity
  8
V0-OBRYS
  6
CONTINUOUS
 62
     7
 48
3.0
100
AcDbVertex
100
AcDbPolygonMeshVertex
 10
20.399435
 20
-79.25
 30
137.265026
 70
    64
  0
VERTEX
  5
2771
100
AcDbEntity
  8
V0-OBRYS
  6
CONTINUOUS
 62
     7
 48
3.0
100
AcDbVertex
100
AcDbPolygonMeshVertex
 10
40.399435
 20
-79.25
 30
137.265026
 70
    64
  0
VERTEX
  5
2772
100
AcDbEntity
  8
V0-OBRYS
  6
CONTINUOUS
 62
     7
 48
3.0
100
AcDbVertex
100
AcDbPolygonMeshVertex
 10
40.399435
 20
-79.75
 30
138.131052
 70
    64
  0
VERTEX
  5
2773
100
AcDbEntity
  8
V0-OBRYS
  6
CONTINUOUS
 62
     7
 48
3.0
100
AcDbVertex
100
AcDbPolygonMeshVertex
 10
43.399435
 20
-79.75
 30
138.131052
 70
    64
  0
VERTEX
  5
2774
100
AcDbEntity
  8
V0-OBRYS
  6
CONTINUOUS
 62
     7
 48
3.0
100
AcDbVertex
100
AcDbPolygonMeshVertex
 10
43.399435
 20
-79.25
 30
137.265026
 70
    64
  0
VERTEX
  5
2775
100
AcDbEntity
  8
V0-OBRYS
  6
CONTINUOUS
 62
     7
 48
3.0
100
AcDbVertex
100
AcDbPolygonMeshVertex
 10
62.899435
 20
-79.25
 30
137.265026
 70
    64
  0
VERTEX
  5
2776
100
AcDbEntity
  8
V0-OBRYS
  6
CONTINUOUS
 62
     7
 48
3.0
100
AcDbVertex
100
AcDbPolygonMeshVertex
 10
62.899435
 20
-102.5
 30
177.535208
 70
    64
  0
VERTEX
  5
2777
100
AcDbEntity
  8
V0-OBRYS
  6
CONTINUOUS
 62
     7
 48
3.0
100
AcDbVertex
100
AcDbPolygonMeshVertex
 10
72.899435
 20
-102.5
 30
177.535208
 70
    64
  0
VERTEX
  5
2778
100
AcDbEntity
  8
V0-OBRYS
  6
CONTINUOUS
 62
     7
 48
3.0
100
AcDbVertex
100
AcDbPolygonMeshVertex
 10
72.899435
 20
-79.25
 30
137.265026
 70
    64
  0
VERTEX
  5
2779
100
AcDbEntity
  8
V0-OBRYS
  6
CONTINUOUS
 62
     7
 48
3.0
100
AcDbVertex
100
AcDbPolygonMeshVertex
 10
92.399435
 20
-79.25
 30
137.265026
 70
    64
  0
VERTEX
  5
277A
100
AcDbEntity
  8
V0-OBRYS
  6
CONTINUOUS
 62
     7
 48
3.0
100
AcDbVertex
100
AcDbPolygonMeshVertex
 10
92.399435
 20
-79.75
 30
138.131052
 70
    64
  0
VERTEX
  5
277B
100
AcDbEntity
  8
V0-OBRYS
  6
CONTINUOUS
 62
     7
 48
3.0
100
AcDbVertex
100
AcDbPolygonMeshVertex
 10
95.399435
 20
-79.75
 30
138.131052
 70
    64
  0
VERTEX
  5
277C
100
AcDbEntity
  8
V0-OBRYS
  6
CONTINUOUS
 62
     7
 48
3.0
100
AcDbVertex
100
AcDbPolygonMeshVertex
 10
95.399435
 20
-79.25
 30
137.265026
 70
    64
  0
VERTEX
  5
277D
100
AcDbEntity
  8
V0-OBRYS
  6
CONTINUOUS
 62
     7
 48
3.0
100
AcDbVertex
100
AcDbPolygonMeshVertex
 10
115.399435
 20
-79.25
 30
137.265026
 70
    64
  0
VERTEX
  5
277E
100
AcDbEntity
  8
V0-OBRYS
  6
CONTINUOUS
 62
     7
 48
3.0
100
AcDbVertex
100
AcDbPolygonMeshVertex
 10
115.399435
 20
-78.5
 30
135.965988
 70
    64
  0
VERTEX
  5
277F
100
AcDbEntity
  8
V0-OBRYS
  6
CONTINUOUS
 62
     7
 48
3.0
100
AcDbVertex
100
AcDbPolygonMeshVertex
 10
123.899435
 20
-78.5
 30
135.965988
 70
    64
  0
VERTEX
  5
2780
100
AcDbEntity
  8
V0-OBRYS
  6
CONTINUOUS
 62
     7
 48
3.0
100
AcDbVertex
100
AcDbPolygonMeshVertex
 10
123.899435
 20
-81.25
 30
140.729128
 70
    64
  0
VERTEX
  5
2781
100
AcDbEntity
  8
V0-OBRYS
  6
CONTINUOUS
 62
     7
 48
3.0
100
AcDbVertex
100
AcDbPolygonMeshVertex
 10
124.399435
 20
-81.25
 30
140.729128
 70
    64
  0
VERTEX
  5
2782
100
AcDbEntity
  8
V0-OBRYS
  6
CONTINUOUS
 62
     7
 48
3.0
100
AcDbVertex
100
AcDbPolygonMeshVertex
 10
124.399435
 20
-78.5
 30
135.965988
 70
    64
  0
VERTEX
  5
2783
100
AcDbEntity
  8
V0-OBRYS
  6
CONTINUOUS
 62
     7
 48
3.0
100
AcDbVertex
100
AcDbPolygonMeshVertex
 10
135.399435
 20
-78.5
 30
135.965988
 70
    64
  0
VERTEX
  5
2784
100
AcDbEntity
  8
V0-OBRYS
  6
CONTINUOUS
 62
     7
 48
3.0
100
AcDbVertex
100
AcDbPolygonMeshVertex
 10
135.399435
 20
0.0
 30
0.0
 70
    64
  0
VERTEX
  5
2785
100
AcDbEntity
  8
V0-OBRYS
  6
CONTINUOUS
 62
     7
 48
3.0
100
AcDbVertex
100
AcDbPolygonMeshVertex
 10
0.399435
 20
0.0
 30
0.0
 70
    64
  0
VERTEX
  5
2786
100
AcDbEntity
  8
V0-OBRYS
  6
CONTINUOUS
 62
     7
 48
3.0
100
AcDbVertex
100
AcDbPolygonMeshVertex
 10
0.399435
 20
-127.015668
 30
92.282285
 70
    64
  0
VERTEX
  5
2787
100
AcDbEntity
  8
V0-OBRYS
  6
CONTINUOUS
 62
     7
 48
3.0
100
AcDbVertex
100
AcDbPolygonMeshVertex
 10
11.399435
 20
-127.015668
 30
92.282285
 70
    64
  0
VERTEX
  5
2788
100
AcDbEntity
  8
V0-OBRYS
  6
CONTINUOUS
 62
     7
 48
3.0
100
AcDbVertex
100
AcDbPolygonMeshVertex
 10
11.399435
 20
-131.465262
 30
95.515103
 70
    64
  0
VERTEX
  5
2789
100
AcDbEntity
  8
V0-OBRYS
  6
CONTINUOUS
 62
     7
 48
3.0
100
AcDbVertex
100
AcDbPolygonMeshVertex
 10
11.899435
 20
-131.465262
 30
95.515103
 70
    64
  0
VERTEX
  5
278A
100
AcDbEntity
  8
V0-OBRYS
  6
CONTINUOUS
 62
     7
 48
3.0
100
AcDbVertex
100
AcDbPolygonMeshVertex
 10
11.899435
 20
-127.015668
 30
92.282285
 70
    64
  0
VERTEX
  5
278B
100
AcDbEntity
  8
V0-OBRYS
  6
CONTINUOUS
 62
     7
 48
3.0
100
AcDbVertex
100
AcDbPolygonMeshVertex
 10
20.399435
 20
-127.015668
 30
92.282285
 70
    64
  0
VERTEX
  5
278C
100
AcDbEntity
  8
V0-OBRYS
  6
CONTINUOUS
 62
     7
 48
3.0
100
AcDbVertex
100
AcDbPolygonMeshVertex
 10
20.399435
 20
-128.229194
 30
93.163962
 70
    64
  0
VERTEX
  5
278D
100
AcDbEntity
  8
V0-OBRYS
  6
CONTINUOUS
 62
     7
 48
3.0
100
AcDbVertex
100
AcDbPolygonMeshVertex
 10
40.399435
 20
-128.229194
 30
93.163962
 70
    64
  0
VERTEX
  5
278E
100
AcDbEntity
  8
V0-OBRYS
  6
CONTINUOUS
 62
     7
 48
3.0
100
AcDbVertex
100
AcDbPolygonMeshVertex
 10
40.399435
 20
-129.038211
 30
93.751748
 70
    64
  0
VERTEX
  5
278F
100
AcDbEntity
  8
V0-OBRYS
  6
CONTINUOUS
 62
     7
 48
3.0
100
AcDbVertex
100
AcDbPolygonMeshVertex
 10
43.399435
 20
-129.038211
 30
93.751748
 70
    64
  0
VERTEX
  5
2790
100
AcDbEntity
  8
V0-OBRYS
  6
CONTINUOUS
 62
     7
 48
3.0
100
AcDbVertex
100
AcDbPolygonMeshVertex
 10
43.399435
 20
-128.229194
 30
93.163962
 70
    64
  0
VERTEX
  5
2791
100
AcDbEntity
  8
V0-OBRYS
  6
CONTINUOUS
 62
     7
 48
3.0
100
AcDbVertex
100
AcDbPolygonMeshVertex
 10
62.899435
 20
-128.229194
 30
93.163962
 70
    64
  0
VERTEX
  5
2792
100
AcDbEntity
  8
V0-OBRYS
  6
CONTINUOUS
 62
     7
 48
3.0
100
AcDbVertex
100
AcDbPolygonMeshVertex
 10
62.899435
 20
-165.848484
 30
120.495977
 70
    64
  0
VERTEX
  5
2793
100
AcDbEntity
  8
V0-OBRYS
  6
CONTINUOUS
 62
     7
 48
3.0
100
AcDbVertex
100
AcDbPolygonMeshVertex
 10
72.899435
 20
-165.848484
 30
120.495977
 70
    64
  0
VERTEX
  5
2794
100
AcDbEntity
  8
V0-OBRYS
  6
CONTINUOUS
 62
     7
 48
3.0
100
AcDbVertex
100
AcDbPolygonMeshVertex
 10
72.899435
 20
-128.229194
 30
93.163962
 70
    64
  0
VERTEX
  5
2795
100
AcDbEntity
  8
V0-OBRYS
  6
CONTINUOUS
 62
     7
 48
3.0
100
AcDbVertex
100
AcDbPolygonMeshVertex
 10
92.399435
 20
-128.229194
 30
93.163962
 70
    64
  0
VERTEX
  5
2796
100
AcDbEntity
  8
V0-OBRYS
  6
CONTINUOUS
 62
     7
 48
3.0
100
AcDbVertex
100
AcDbPolygonMeshVertex
 10
92.399435
 20
-129.038211
 30
93.751748
 70
    64
  0
VERTEX
  5
2797
100
AcDbEntity
  8
V0-OBRYS
  6
CONTINUOUS
 62
     7
 48
3.0
100
AcDbVertex
100
AcDbPolygonMeshVertex
 10
95.399435
 20
-129.038211
 30
93.751748
 70
    64
  0
VERTEX
  5
2798
100
AcDbEntity
  8
V0-OBRYS
  6
CONTINUOUS
 62
     7
 48
3.0
100
AcDbVertex
100
AcDbPolygonMeshVertex
 10
95.399435
 20
-128.229194
 30
93.163962
 70
    64
  0
VERTEX
  5
2799
100
AcDbEntity
  8
V0-OBRYS
  6
CONTINUOUS
 62
     7
 48
3.0
100
AcDbVertex
100
AcDbPolygonMeshVertex
 10
115.399435
 20
-128.229194
 30
93.163962
 70
    64
  0
VERTEX
  5
279A
100
AcDbEntity
  8
V0-OBRYS
  6
CONTINUOUS
 62
     7
 48
3.0
100
AcDbVertex
100
AcDbPolygonMeshVertex
 10
115.399435
 20
-127.015668
 30
92.282285
 70
    64
  0
VERTEX
  5
279B
100
AcDbEntity
  8
V0-OBRYS
  6
CONTINUOUS
 62
     7
 48
3.0
100
AcDbVertex
100
AcDbPolygonMeshVertex
 10
123.899435
 20
-127.015668
 30
92.282285
 70
    64
  0
VERTEX
  5
279C
100
AcDbEntity
  8
V0-OBRYS
  6
CONTINUOUS
 62
     7
 48
3.0
100
AcDbVertex
100
AcDbPolygonMeshVertex
 10
123.899435
 20
-131.465262
 30
95.515103
 70
    64
  0
VERTEX
  5
279D
100
AcDbEntity
  8
V0-OBRYS
  6
CONTINUOUS
 62
     7
 48
3.0
100
AcDbVertex
100
AcDbPolygonMeshVertex
 10
124.399435
 20
-131.465262
 30
95.515103
 70
    64
  0
VERTEX
  5
279E
100
AcDbEntity
  8
V0-OBRYS
  6
CONTINUOUS
 62
     7
 48
3.0
100
AcDbVertex
100
AcDbPolygonMeshVertex
 10
124.399435
 20
-127.015668
 30
92.282285
 70
    64
  0
VERTEX
  5
279F
100
AcDbEntity
  8
V0-OBRYS
  6
CONTINUOUS
 62
     7
 48
3.0
100
AcDbVertex
100
AcDbPolygonMeshVertex
 10
135.399435
 20
-127.015668
 30
92.282285
 70
    64
  0
VERTEX
  5
27A0
100
AcDbEntity
  8
V0-OBRYS
  6
CONTINUOUS
 62
     7
 48
3.0
100
AcDbVertex
100
AcDbPolygonMeshVertex
 10
135.399435
 20
0.0
 30
0.0
 70
    64
  0
VERTEX
  5
27A1
100
AcDbEntity
  8
V0-OBRYS
  6
CONTINUOUS
 62
     7
 48
3.0
100
AcDbVertex
100
AcDbPolygonMeshVertex
 10
0.399435
 20
0.0
 30
0.0
 70
    64
  0
VERTEX
  5
27A2
100
AcDbEntity
  8
V0-OBRYS
  6
CONTINUOUS
 62
     7
 48
3.0
100
AcDbVertex
100
AcDbPolygonMeshVertex
 10
0.399435
 20
-153.569173
 30
32.642135
 70
    64
  0
VERTEX
  5
27A3
100
AcDbEntity
  8
V0-OBRYS
  6
CONTINUOUS
 62
     7
 48
3.0
100
AcDbVertex
100
AcDbPolygonMeshVertex
 10
11.399435
 20
-153.569173
 30
32.642135
 70
    64
  0
VERTEX
  5
27A4
100
AcDbEntity
  8
V0-OBRYS
  6
CONTINUOUS
 62
     7
 48
3.0
100
AcDbVertex
100
AcDbPolygonMeshVertex
 10
11.399435
 20
-158.948985
 30
33.78565
 70
    64
  0
VERTEX
  5
27A5
100
AcDbEntity
  8
V0-OBRYS
  6
CONTINUOUS
 62
     7
 48
3.0
100
AcDbVertex
100
AcDbPolygonMeshVertex
 10
11.899435
 20
-158.948985
 30
33.78565
 70
    64
  0
VERTEX
  5
27A6
100
AcDbEntity
  8
V0-OBRYS
  6
CONTINUOUS
 62
     7
 48
3.0
100
AcDbVertex
100
AcDbPolygonMeshVertex
 10
11.899435
 20
-153.569173
 30
32.642135
 70
    64
  0
VERTEX
  5
27A7
100
AcDbEntity
  8
V0-OBRYS
  6
CONTINUOUS
 62
     7
 48
3.0
100
AcDbVertex
100
AcDbPolygonMeshVertex
 10
20.399435
 20
-153.569173
 30
32.642135
 70
    64
  0
VERTEX
  5
27A8
100
AcDbEntity
  8
V0-OBRYS
  6
CONTINUOUS
 62
     7
 48
3.0
100
AcDbVertex
100
AcDbPolygonMeshVertex
 10
20.399435
 20
-155.036395
 30
32.954003
 70
    64
  0
VERTEX
  5
27A9
100
AcDbEntity
  8
V0-OBRYS
  6
CONTINUOUS
 62
     7
 48
3.0
100
AcDbVertex
100
AcDbPolygonMeshVertex
 10
40.399435
 20
-155.036395
 30
32.954003
 70
    64
  0
VERTEX
  5
27AA
100
AcDbEntity
  8
V0-OBRYS
  6
CONTINUOUS
 62
     7
 48
3.0
100
AcDbVertex
100
AcDbPolygonMeshVertex
 10
40.399435
 20
-156.014542
 30
33.161915
 70
    64
  0
VERTEX
  5
27AB
100
AcDbEntity
  8
V0-OBRYS
  6
CONTINUOUS
 62
     7
 48
3.0
100
AcDbVertex
100
AcDbPolygonMeshVertex
 10
43.399435
 20
-156.014542
 30
33.161915
 70
    64
  0
VERTEX
  5
27AC
100
AcDbEntity
  8
V0-OBRYS
  6
CONTINUOUS
 62
     7
 48
3.0
100
AcDbVertex
100
AcDbPolygonMeshVertex
 10
43.399435
 20
-155.036395
 30
32.954003
 70
    64
  0
VERTEX
  5
27AD
100
AcDbEntity
  8
V0-OBRYS
  6
CONTINUOUS
 62
     7
 48
3.0
100
AcDbVertex
100
AcDbPolygonMeshVertex
 10
62.899435
 20
-155.036395
 30
32.954003
 70
    64
  0
VERTEX
  5
27AE
100
AcDbEntity
  8
V0-OBRYS
  6
CONTINUOUS
 62
     7
 48
3.0
100
AcDbVertex
100
AcDbPolygonMeshVertex
 10
62.899435
 20
-200.520258
 30
42.621897
 70
    64
  0
VERTEX
  5
27AF
100
AcDbEntity
  8
V0-OBRYS
  6
CONTINUOUS
 62
     7
 48
3.0
100
AcDbVertex
100
AcDbPolygonMeshVertex
 10
72.899435
 20
-200.520258
 30
42.621897
 70
    64
  0
VERTEX
  5
27B0
100
AcDbEntity
  8
V0-OBRYS
  6
CONTINUOUS
 62
     7
 48
3.0
100
AcDbVertex
100
AcDbPolygonMeshVertex
 10
72.899435
 20
-155.036395
 30
32.954003
 70
    64
  0
VERTEX
  5
27B1
100
AcDbEntity
  8
V0-OBRYS
  6
CONTINUOUS
 62
     7
 48
3.0
100
AcDbVertex
100
AcDbPolygonMeshVertex
 10
92.399435
 20
-155.036395
 30
32.954003
 70
    64
  0
VERTEX
  5
27B2
100
AcDbEntity
  8
V0-OBRYS
  6
CONTINUOUS
 62
     7
 48
3.0
100
AcDbVertex
100
AcDbPolygonMeshVertex
 10
92.399435
 20
-156.014542
 30
33.161915
 70
    64
  0
VERTEX
  5
27B3
100
AcDbEntity
  8
V0-OBRYS
  6
CONTINUOUS
 62
     7
 48
3.0
100
AcDbVertex
100
AcDbPolygonMeshVertex
 10
95.399435
 20
-156.014542
 30
33.161915
 70
    64
  0
VERTEX
  5
27B4
100
AcDbEntity
  8
V0-OBRYS
  6
CONTINUOUS
 62
     7
 48
3.0
100
AcDbVertex
100
AcDbPolygonMeshVertex
 10
95.399435
 20
-155.036395
 30
32.954003
 70
    64
  0
VERTEX
  5
27B5
100
AcDbEntity
  8
V0-OBRYS
  6
CONTINUOUS
 62
     7
 48
3.0
100
AcDbVertex
100
AcDbPolygonMeshVertex
 10
115.399435
 20
-155.036395
 30
32.954003
 70
    64
  0
VERTEX
  5
27B6
100
AcDbEntity
  8
V0-OBRYS
  6
CONTINUOUS
 62
     7
 48
3.0
100
AcDbVertex
100
AcDbPolygonMeshVertex
 10
115.399435
 20
-153.569173
 30
32.642135
 70
    64
  0
VERTEX
  5
27B7
100
AcDbEntity
  8
V0-OBRYS
  6
CONTINUOUS
 62
     7
 48
3.0
100
AcDbVertex
100
AcDbPolygonMeshVertex
 10
123.899435
 20
-153.569173
 30
32.642135
 70
    64
  0
VERTEX
  5
27B8
100
AcDbEntity
  8
V0-OBRYS
  6
CONTINUOUS
 62
     7
 48
3.0
100
AcDbVertex
100
AcDbPolygonMeshVertex
 10
123.899435
 20
-158.948985
 30
33.78565
 70
    64
  0
VERTEX
  5
27B9
100
AcDbEntity
  8
V0-OBRYS
  6
CONTINUOUS
 62
     7
 48
3.0
100
AcDbVertex
100
AcDbPolygonMeshVertex
 10
124.399435
 20
-158.948985
 30
33.78565
 70
    64
  0
VERTEX
  5
27BA
100
AcDbEntity
  8
V0-OBRYS
  6
CONTINUOUS
 62
     7
 48
3.0
100
AcDbVertex
100
AcDbPolygonMeshVertex
 10
124.399435
 20
-153.569173
 30
32.642135
 70
    64
  0
VERTEX
  5
27BB
100
AcDbEntity
  8
V0-OBRYS
  6
CONTINUOUS
 62
     7
 48
3.0
100
AcDbVertex
100
AcDbPolygonMeshVertex
 10
135.399435
 20
-153.569173
 30
32.642135
 70
    64
  0
VERTEX
  5
27BC
100
AcDbEntity
  8
V0-OBRYS
  6
CONTINUOUS
 62
     7
 48
3.0
100
AcDbVertex
100
AcDbPolygonMeshVertex
 10
135.399435
 20
0.0
 30
0.0
 70
    64
  0
VERTEX
  5
27BD
100
AcDbEntity
  8
V0-OBRYS
  6
CONTINUOUS
 62
     7
 48
3.0
100
AcDbVertex
100
AcDbPolygonMeshVertex
 10
0.399435
 20
0.0
 30
0.0
 70
    64
  0
VERTEX
  5
27BE
100
AcDbEntity
  8
V0-OBRYS
  6
CONTINUOUS
 62
     7
 48
3.0
100
AcDbVertex
100
AcDbPolygonMeshVertex
 10
0.399435
 20
-153.569173
 30
-32.642135
 70
    64
  0
VERTEX
  5
27BF
100
AcDbEntity
  8
V0-OBRYS
  6
CONTINUOUS
 62
     7
 48
3.0
100
AcDbVertex
100
AcDbPolygonMeshVertex
 10
11.399435
 20
-153.569173
 30
-32.642135
 70
    64
  0
VERTEX
  5
27C0
100
AcDbEntity
  8
V0-OBRYS
  6
CONTINUOUS
 62
     7
 48
3.0
100
AcDbVertex
100
AcDbPolygonMeshVertex
 10
11.399435
 20
-158.948985
 30
-33.78565
 70
    64
  0
VERTEX
  5
27C1
100
AcDbEntity
  8
V0-OBRYS
  6
CONTINUOUS
 62
     7
 48
3.0
100
AcDbVertex
100
AcDbPolygonMeshVertex
 10
11.899435
 20
-158.948985
 30
-33.78565
 70
    64
  0
VERTEX
  5
27C2
100
AcDbEntity
  8
V0-OBRYS
  6
CONTINUOUS
 62
     7
 48
3.0
100
AcDbVertex
100
AcDbPolygonMeshVertex
 10
11.899435
 20
-153.569173
 30
-32.642135
 70
    64
  0
VERTEX
  5
27C3
100
AcDbEntity
  8
V0-OBRYS
  6
CONTINUOUS
 62
     7
 48
3.0
100
AcDbVertex
100
AcDbPolygonMeshVertex
 10
20.399435
 20
-153.569173
 30
-32.642135
 70
    64
  0
VERTEX
  5
27C4
100
AcDbEntity
  8
V0-OBRYS
  6
CONTINUOUS
 62
     7
 48
3.0
100
AcDbVertex
100
AcDbPolygonMeshVertex
 10
20.399435
 20
-155.036395
 30
-32.954003
 70
    64
  0
VERTEX
  5
27C5
100
AcDbEntity
  8
V0-OBRYS
  6
CONTINUOUS
 62
     7
 48
3.0
100
AcDbVertex
100
AcDbPolygonMeshVertex
 10
40.399435
 20
-155.036395
 30
-32.954003
 70
    64
  0
VERTEX
  5
27C6
100
AcDbEntity
  8
V0-OBRYS
  6
CONTINUOUS
 62
     7
 48
3.0
100
AcDbVertex
100
AcDbPolygonMeshVertex
 10
40.399435
 20
-156.014542
 30
-33.161915
 70
    64
  0
VERTEX
  5
27C7
100
AcDbEntity
  8
V0-OBRYS
  6
CONTINUOUS
 62
     7
 48
3.0
100
AcDbVertex
100
AcDbPolygonMeshVertex
 10
43.399435
 20
-156.014542
 30
-33.161915
 70
    64
  0
VERTEX
  5
27C8
100
AcDbEntity
  8
V0-OBRYS
  6
CONTINUOUS
 62
     7
 48
3.0
100
AcDbVertex
100
AcDbPolygonMeshVertex
 10
43.399435
 20
-155.036395
 30
-32.954003
 70
    64
  0
VERTEX
  5
27C9
100
AcDbEntity
  8
V0-OBRYS
  6
CONTINUOUS
 62
     7
 48
3.0
100
AcDbVertex
100
AcDbPolygonMeshVertex
 10
62.899435
 20
-155.036395
 30
-32.954003
 70
    64
  0
VERTEX
  5
27CA
100
AcDbEntity
  8
V0-OBRYS
  6
CONTINUOUS
 62
     7
 48
3.0
100
AcDbVertex
100
AcDbPolygonMeshVertex
 10
62.899435
 20
-200.520258
 30
-42.621897
 70
    64
  0
VERTEX
  5
27CB
100
AcDbEntity
  8
V0-OBRYS
  6
CONTINUOUS
 62
     7
 48
3.0
100
AcDbVertex
100
AcDbPolygonMeshVertex
 10
72.899435
 20
-200.520258
 30
-42.621897
 70
    64
  0
VERTEX
  5
27CC
100
AcDbEntity
  8
V0-OBRYS
  6
CONTINUOUS
 62
     7
 48
3.0
100
AcDbVertex
100
AcDbPolygonMeshVertex
 10
72.899435
 20
-155.036395
 30
-32.954003
 70
    64
  0
VERTEX
  5
27CD
100
AcDbEntity
  8
V0-OBRYS
  6
CONTINUOUS
 62
     7
 48
3.0
100
AcDbVertex
100
AcDbPolygonMeshVertex
 10
92.399435
 20
-155.036395
 30
-32.954003
 70
    64
  0
VERTEX
  5
27CE
100
AcDbEntity
  8
V0-OBRYS
  6
CONTINUOUS
 62
     7
 48
3.0
100
AcDbVertex
100
AcDbPolygonMeshVertex
 10
92.399435
 20
-156.014542
 30
-33.161915
 70
    64
  0
VERTEX
  5
27CF
100
AcDbEntity
  8
V0-OBRYS
  6
CONTINUOUS
 62
     7
 48
3.0
100
AcDbVertex
100
AcDbPolygonMeshVertex
 10
95.399435
 20
-156.014542
 30
-33.161915
 70
    64
  0
VERTEX
  5
27D0
100
AcDbEntity
  8
V0-OBRYS
  6
CONTINUOUS
 62
     7
 48
3.0
100
AcDbVertex
100
AcDbPolygonMeshVertex
 10
95.399435
 20
-155.036395
 30
-32.954003
 70
    64
  0
VERTEX
  5
27D1
100
AcDbEntity
  8
V0-OBRYS
  6
CONTINUOUS
 62
     7
 48
3.0
100
AcDbVertex
100
AcDbPolygonMeshVertex
 10
115.399435
 20
-155.036395
 30
-32.954003
 70
    64
  0
VERTEX
  5
27D2
100
AcDbEntity
  8
V0-OBRYS
  6
CONTINUOUS
 62
     7
 48
3.0
100
AcDbVertex
100
AcDbPolygonMeshVertex
 10
115.399435
 20
-153.569173
 30
-32.642135
 70
    64
  0
VERTEX
  5
27D3
100
AcDbEntity
  8
V0-OBRYS
  6
CONTINUOUS
 62
     7
 48
3.0
100
AcDbVertex
100
AcDbPolygonMeshVertex
 10
123.899435
 20
-153.569173
 30
-32.642135
 70
    64
  0
VERTEX
  5
27D4
100
AcDbEntity
  8
V0-OBRYS
  6
CONTINUOUS
 62
     7
 48
3.0
100
AcDbVertex
100
AcDbPolygonMeshVertex
 10
123.899435
 20
-158.948985
 30
-33.78565
 70
    64
  0
VERTEX
  5
27D5
100
AcDbEntity
  8
V0-OBRYS
  6
CONTINUOUS
 62
     7
 48
3.0
100
AcDbVertex
100
AcDbPolygonMeshVertex
 10
124.399435
 20
-158.948985
 30
-33.78565
 70
    64
  0
VERTEX
  5
27D6
100
AcDbEntity
  8
V0-OBRYS
  6
CONTINUOUS
 62
     7
 48
3.0
100
AcDbVertex
100
AcDbPolygonMeshVertex
 10
124.399435
 20
-153.569173
 30
-32.642135
 70
    64
  0
VERTEX
  5
27D7
100
AcDbEntity
  8
V0-OBRYS
  6
CONTINUOUS
 62
     7
 48
3.0
100
AcDbVertex
100
AcDbPolygonMeshVertex
 10
135.399435
 20
-153.569173
 30
-32.642135
 70
    64
  0
VERTEX
  5
27D8
100
AcDbEntity
  8
V0-OBRYS
  6
CONTINUOUS
 62
     7
 48
3.0
100
AcDbVertex
100
AcDbPolygonMeshVertex
 10
135.399435
 20
0.0
 30
0.0
 70
    64
  0
VERTEX
  5
27D9
100
AcDbEntity
  8
V0-OBRYS
  6
CONTINUOUS
 62
     7
 48
3.0
100
AcDbVertex
100
AcDbPolygonMeshVertex
 10
0.399435
 20
0.0
 30
0.0
 70
    64
  0
VERTEX
  5
27DA
100
AcDbEntity
  8
V0-OBRYS
  6
CONTINUOUS
 62
     7
 48
3.0
100
AcDbVertex
100
AcDbPolygonMeshVertex
 10
0.399435
 20
-127.015668
 30
-92.282285
 70
    64
  0
VERTEX
  5
27DB
100
AcDbEntity
  8
V0-OBRYS
  6
CONTINUOUS
 62
     7
 48
3.0
100
AcDbVertex
100
AcDbPolygonMeshVertex
 10
11.399435
 20
-127.015668
 30
-92.282285
 70
    64
  0
VERTEX
  5
27DC
100
AcDbEntity
  8
V0-OBRYS
  6
CONTINUOUS
 62
     7
 48
3.0
100
AcDbVertex
100
AcDbPolygonMeshVertex
 10
11.399435
 20
-131.465262
 30
-95.515103
 70
    64
  0
VERTEX
  5
27DD
100
AcDbEntity
  8
V0-OBRYS
  6
CONTINUOUS
 62
     7
 48
3.0
100
AcDbVertex
100
AcDbPolygonMeshVertex
 10
11.899435
 20
-131.465262
 30
-95.515103
 70
    64
  0
VERTEX
  5
27DE
100
AcDbEntity
  8
V0-OBRYS
  6
CONTINUOUS
 62
     7
 48
3.0
100
AcDbVertex
100
AcDbPolygonMeshVertex
 10
11.899435
 20
-127.015668
 30
-92.282285
 70
    64
  0
VERTEX
  5
27DF
100
AcDbEntity
  8
V0-OBRYS
  6
CONTINUOUS
 62
     7
 48
3.0
100
AcDbVertex
100
AcDbPolygonMeshVertex
 10
20.399435
 20
-127.015668
 30
-92.282285
 70
    64
  0
VERTEX
  5
27E0
100
AcDbEntity
  8
V0-OBRYS
  6
CONTINUOUS
 62
     7
 48
3.0
100
AcDbVertex
100
AcDbPolygonMeshVertex
 10
20.399435
 20
-128.229194
 30
-93.163962
 70
    64
  0
VERTEX
  5
27E1
100
AcDbEntity
  8
V0-OBRYS
  6
CONTINUOUS
 62
     7
 48
3.0
100
AcDbVertex
100
AcDbPolygonMeshVertex
 10
40.399435
 20
-128.229194
 30
-93.163962
 70
    64
  0
VERTEX
  5
27E2
100
AcDbEntity
  8
V0-OBRYS
  6
CONTINUOUS
 62
     7
 48
3.0
100
AcDbVertex
100
AcDbPolygonMeshVertex
 10
40.399435
 20
-129.038211
 30
-93.751748
 70
    64
  0
VERTEX
  5
27E3
100
AcDbEntity
  8
V0-OBRYS
  6
CONTINUOUS
 62
     7
 48
3.0
100
AcDbVertex
100
AcDbPolygonMeshVertex
 10
43.399435
 20
-129.038211
 30
-93.751748
 70
    64
  0
VERTEX
  5
27E4
100
AcDbEntity
  8
V0-OBRYS
  6
CONTINUOUS
 62
     7
 48
3.0
100
AcDbVertex
100
AcDbPolygonMeshVertex
 10
43.399435
 20
-128.229194
 30
-93.163962
 70
    64
  0
VERTEX
  5
27E5
100
AcDbEntity
  8
V0-OBRYS
  6
CONTINUOUS
 62
     7
 48
3.0
100
AcDbVertex
100
AcDbPolygonMeshVertex
 10
62.899435
 20
-128.229194
 30
-93.163962
 70
    64
  0
VERTEX
  5
27E6
100
AcDbEntity
  8
V0-OBRYS
  6
CONTINUOUS
 62
     7
 48
3.0
100
AcDbVertex
100
AcDbPolygonMeshVertex
 10
62.899435
 20
-165.848484
 30
-120.495977
 70
    64
  0
VERTEX
  5
27E7
100
AcDbEntity
  8
V0-OBRYS
  6
CONTINUOUS
 62
     7
 48
3.0
100
AcDbVertex
100
AcDbPolygonMeshVertex
 10
72.899435
 20
-165.848484
 30
-120.495977
 70
    64
  0
VERTEX
  5
27E8
100
AcDbEntity
  8
V0-OBRYS
  6
CONTINUOUS
 62
     7
 48
3.0
100
AcDbVertex
100
AcDbPolygonMeshVertex
 10
72.899435
 20
-128.229194
 30
-93.163962
 70
    64
  0
VERTEX
  5
27E9
100
AcDbEntity
  8
V0-OBRYS
  6
CONTINUOUS
 62
     7
 48
3.0
100
AcDbVertex
100
AcDbPolygonMeshVertex
 10
92.399435
 20
-128.229194
 30
-93.163962
 70
    64
  0
VERTEX
  5
27EA
100
AcDbEntity
  8
V0-OBRYS
  6
CONTINUOUS
 62
     7
 48
3.0
100
AcDbVertex
100
AcDbPolygonMeshVertex
 10
92.399435
 20
-129.038211
 30
-93.751748
 70
    64
  0
VERTEX
  5
27EB
100
AcDbEntity
  8
V0-OBRYS
  6
CONTINUOUS
 62
     7
 48
3.0
100
AcDbVertex
100
AcDbPolygonMeshVertex
 10
95.399435
 20
-129.038211
 30
-93.751748
 70
    64
  0
VERTEX
  5
27EC
100
AcDbEntity
  8
V0-OBRYS
  6
CONTINUOUS
 62
     7
 48
3.0
100
AcDbVertex
100
AcDbPolygonMeshVertex
 10
95.399435
 20
-128.229194
 30
-93.163962
 70
    64
  0
VERTEX
  5
27ED
100
AcDbEntity
  8
V0-OBRYS
  6
CONTINUOUS
 62
     7
 48
3.0
100
AcDbVertex
100
AcDbPolygonMeshVertex
 10
115.399435
 20
-128.229194
 30
-93.163962
 70
    64
  0
VERTEX
  5
27EE
100
AcDbEntity
  8
V0-OBRYS
  6
CONTINUOUS
 62
     7
 48
3.0
100
AcDbVertex
100
AcDbPolygonMeshVertex
 10
115.399435
 20
-127.015668
 30
-92.282285
 70
    64
  0
VERTEX
  5
27EF
100
AcDbEntity
  8
V0-OBRYS
  6
CONTINUOUS
 62
     7
 48
3.0
100
AcDbVertex
100
AcDbPolygonMeshVertex
 10
123.899435
 20
-127.015668
 30
-92.282285
 70
    64
  0
VERTEX
  5
27F0
100
AcDbEntity
  8
V0-OBRYS
  6
CONTINUOUS
 62
     7
 48
3.0
100
AcDbVertex
100
AcDbPolygonMeshVertex
 10
123.899435
 20
-131.465262
 30
-95.515103
 70
    64
  0
VERTEX
  5
27F1
100
AcDbEntity
  8
V0-OBRYS
  6
CONTINUOUS
 62
     7
 48
3.0
100
AcDbVertex
100
AcDbPolygonMeshVertex
 10
124.399435
 20
-131.465262
 30
-95.515103
 70
    64
  0
VERTEX
  5
27F2
100
AcDbEntity
  8
V0-OBRYS
  6
CONTINUOUS
 62
     7
 48
3.0
100
AcDbVertex
100
AcDbPolygonMeshVertex
 10
124.399435
 20
-127.015668
 30
-92.282285
 70
    64
  0
VERTEX
  5
27F3
100
AcDbEntity
  8
V0-OBRYS
  6
CONTINUOUS
 62
     7
 48
3.0
100
AcDbVertex
100
AcDbPolygonMeshVertex
 10
135.399435
 20
-127.015668
 30
-92.282285
 70
    64
  0
VERTEX
  5
27F4
100
AcDbEntity
  8
V0-OBRYS
  6
CONTINUOUS
 62
     7
 48
3.0
100
AcDbVertex
100
AcDbPolygonMeshVertex
 10
135.399435
 20
0.0
 30
0.0
 70
    64
  0
VERTEX
  5
27F5
100
AcDbEntity
  8
V0-OBRYS
  6
CONTINUOUS
 62
     7
 48
3.0
100
AcDbVertex
100
AcDbPolygonMeshVertex
 10
0.399435
 20
0.0
 30
0.0
 70
    64
  0
VERTEX
  5
27F6
100
AcDbEntity
  8
V0-OBRYS
  6
CONTINUOUS
 62
     7
 48
3.0
100
AcDbVertex
100
AcDbPolygonMeshVertex
 10
0.399435
 20
-78.5
 30
-135.965988
 70
    64
  0
VERTEX
  5
27F7
100
AcDbEntity
  8
V0-OBRYS
  6
CONTINUOUS
 62
     7
 48
3.0
100
AcDbVertex
100
AcDbPolygonMeshVertex
 10
11.399435
 20
-78.5
 30
-135.965988
 70
    64
  0
VERTEX
  5
27F8
100
AcDbEntity
  8
V0-OBRYS
  6
CONTINUOUS
 62
     7
 48
3.0
100
AcDbVertex
100
AcDbPolygonMeshVertex
 10
11.399435
 20
-81.25
 30
-140.729128
 70
    64
  0
VERTEX
  5
27F9
100
AcDbEntity
  8
V0-OBRYS
  6
CONTINUOUS
 62
     7
 48
3.0
100
AcDbVertex
100
AcDbPolygonMeshVertex
 10
11.899435
 20
-81.25
 30
-140.729128
 70
    64
  0
VERTEX
  5
27FA
100
AcDbEntity
  8
V0-OBRYS
  6
CONTINUOUS
 62
     7
 48
3.0
100
AcDbVertex
100
AcDbPolygonMeshVertex
 10
11.899435
 20
-78.5
 30
-135.965988
 70
    64
  0
VERTEX
  5
27FB
100
AcDbEntity
  8
V0-OBRYS
  6
CONTINUOUS
 62
     7
 48
3.0
100
AcDbVertex
100
AcDbPolygonMeshVertex
 10
20.399435
 20
-78.5
 30
-135.965988
 70
    64
  0
VERTEX
  5
27FC
100
AcDbEntity
  8
V0-OBRYS
  6
CONTINUOUS
 62
     7
 48
3.0
100
AcDbVertex
100
AcDbPolygonMeshVertex
 10
20.399435
 20
-79.25
 30
-137.265026
 70
    64
  0
VERTEX
  5
27FD
100
AcDbEntity
  8
V0-OBRYS
  6
CONTINUOUS
 62
     7
 48
3.0
100
AcDbVertex
100
AcDbPolygonMeshVertex
 10
40.399435
 20
-79.25
 30
-137.265026
 70
    64
  0
VERTEX
  5
27FE
100
AcDbEntity
  8
V0-OBRYS
  6
CONTINUOUS
 62
     7
 48
3.0
100
AcDbVertex
100
AcDbPolygonMeshVertex
 10
40.399435
 20
-79.75
 30
-138.131052
 70
    64
  0
VERTEX
  5
27FF
100
AcDbEntity
  8
V0-OBRYS
  6
CONTINUOUS
 62
     7
 48
3.0
100
AcDbVertex
100
AcDbPolygonMeshVertex
 10
43.399435
 20
-79.75
 30
-138.131052
 70
    64
  0
VERTEX
  5
2800
100
AcDbEntity
  8
V0-OBRYS
  6
CONTINUOUS
 62
     7
 48
3.0
100
AcDbVertex
100
AcDbPolygonMeshVertex
 10
43.399435
 20
-79.25
 30
-137.265026
 70
    64
  0
VERTEX
  5
2801
100
AcDbEntity
  8
V0-OBRYS
  6
CONTINUOUS
 62
     7
 48
3.0
100
AcDbVertex
100
AcDbPolygonMeshVertex
 10
62.899435
 20
-79.25
 30
-137.265026
 70
    64
  0
VERTEX
  5
2802
100
AcDbEntity
  8
V0-OBRYS
  6
CONTINUOUS
 62
     7
 48
3.0
100
AcDbVertex
100
AcDbPolygonMeshVertex
 10
62.899435
 20
-102.5
 30
-177.535208
 70
    64
  0
VERTEX
  5
2803
100
AcDbEntity
  8
V0-OBRYS
  6
CONTINUOUS
 62
     7
 48
3.0
100
AcDbVertex
100
AcDbPolygonMeshVertex
 10
72.899435
 20
-102.5
 30
-177.535208
 70
    64
  0
VERTEX
  5
2804
100
AcDbEntity
  8
V0-OBRYS
  6
CONTINUOUS
 62
     7
 48
3.0
100
AcDbVertex
100
AcDbPolygonMeshVertex
 10
72.899435
 20
-79.25
 30
-137.265026
 70
    64
  0
VERTEX
  5
2805
100
AcDbEntity
  8
V0-OBRYS
  6
CONTINUOUS
 62
     7
 48
3.0
100
AcDbVertex
100
AcDbPolygonMeshVertex
 10
92.399435
 20
-79.25
 30
-137.265026
 70
    64
  0
VERTEX
  5
2806
100
AcDbEntity
  8
V0-OBRYS
  6
CONTINUOUS
 62
     7
 48
3.0
100
AcDbVertex
100
AcDbPolygonMeshVertex
 10
92.399435
 20
-79.75
 30
-138.131052
 70
    64
  0
VERTEX
  5
2807
100
AcDbEntity
  8
V0-OBRYS
  6
CONTINUOUS
 62
     7
 48
3.0
100
AcDbVertex
100
AcDbPolygonMeshVertex
 10
95.399435
 20
-79.75
 30
-138.131052
 70
    64
  0
VERTEX
  5
2808
100
AcDbEntity
  8
V0-OBRYS
  6
CONTINUOUS
 62
     7
 48
3.0
100
AcDbVertex
100
AcDbPolygonMeshVertex
 10
95.399435
 20
-79.25
 30
-137.265026
 70
    64
  0
VERTEX
  5
2809
100
AcDbEntity
  8
V0-OBRYS
  6
CONTINUOUS
 62
     7
 48
3.0
100
AcDbVertex
100
AcDbPolygonMeshVertex
 10
115.399435
 20
-79.25
 30
-137.265026
 70
    64
  0
VERTEX
  5
280A
100
AcDbEntity
  8
V0-OBRYS
  6
CONTINUOUS
 62
     7
 48
3.0
100
AcDbVertex
100
AcDbPolygonMeshVertex
 10
115.399435
 20
-78.5
 30
-135.965988
 70
    64
  0
VERTEX
  5
280B
100
AcDbEntity
  8
V0-OBRYS
  6
CONTINUOUS
 62
     7
 48
3.0
100
AcDbVertex
100
AcDbPolygonMeshVertex
 10
123.899435
 20
-78.5
 30
-135.965988
 70
    64
  0
VERTEX
  5
280C
100
AcDbEntity
  8
V0-OBRYS
  6
CONTINUOUS
 62
     7
 48
3.0
100
AcDbVertex
100
AcDbPolygonMeshVertex
 10
123.899435
 20
-81.25
 30
-140.729128
 70
    64
  0
VERTEX
  5
280D
100
AcDbEntity
  8
V0-OBRYS
  6
CONTINUOUS
 62
     7
 48
3.0
100
AcDbVertex
100
AcDbPolygonMeshVertex
 10
124.399435
 20
-81.25
 30
-140.729128
 70
    64
  0
VERTEX
  5
280E
100
AcDbEntity
  8
V0-OBRYS
  6
CONTINUOUS
 62
     7
 48
3.0
100
AcDbVertex
100
AcDbPolygonMeshVertex
 10
124.399435
 20
-78.5
 30
-135.965988
 70
    64
  0
VERTEX
  5
280F
100
AcDbEntity
  8
V0-OBRYS
  6
CONTINUOUS
 62
     7
 48
3.0
100
AcDbVertex
100
AcDbPolygonMeshVertex
 10
135.399435
 20
-78.5
 30
-135.965988
 70
    64
  0
VERTEX
  5
2810
100
AcDbEntity
  8
V0-OBRYS
  6
CONTINUOUS
 62
     7
 48
3.0
100
AcDbVertex
100
AcDbPolygonMeshVertex
 10
135.399435
 20
0.0
 30
0.0
 70
    64
  0
VERTEX
  5
2811
100
AcDbEntity
  8
V0-OBRYS
  6
CONTINUOUS
 62
     7
 48
3.0
100
AcDbVertex
100
AcDbPolygonMeshVertex
 10
0.399435
 20
0.0
 30
0.0
 70
    64
  0
VERTEX
  5
2812
100
AcDbEntity
  8
V0-OBRYS
  6
CONTINUOUS
 62
     7
 48
3.0
100
AcDbVertex
100
AcDbPolygonMeshVertex
 10
0.399435
 20
-16.410969
 30
-156.139938
 70
    64
  0
VERTEX
  5
2813
100
AcDbEntity
  8
V0-OBRYS
  6
CONTINUOUS
 62
     7
 48
3.0
100
AcDbVertex
100
AcDbPolygonMeshVertex
 10
11.399435
 20
-16.410969
 30
-156.139938
 70
    64
  0
VERTEX
  5
2814
100
AcDbEntity
  8
V0-OBRYS
  6
CONTINUOUS
 62
     7
 48
3.0
100
AcDbVertex
100
AcDbPolygonMeshVertex
 10
11.399435
 20
-16.985875
 30
-161.609808
 70
    64
  0
VERTEX
  5
2815
100
AcDbEntity
  8
V0-OBRYS
  6
CONTINUOUS
 62
     7
 48
3.0
100
AcDbVertex
100
AcDbPolygonMeshVertex
 10
11.899435
 20
-16.985875
 30
-161.609808
 70
    64
  0
VERTEX
  5
2816
100
AcDbEntity
  8
V0-OBRYS
  6
CONTINUOUS
 62
     7
 48
3.0
100
AcDbVertex
100
AcDbPolygonMeshVertex
 10
11.899435
 20
-16.410969
 30
-156.139938
 70
    64
  0
VERTEX
  5
2817
100
AcDbEntity
  8
V0-OBRYS
  6
CONTINUOUS
 62
     7
 48
3.0
100
AcDbVertex
100
AcDbPolygonMeshVertex
 10
20.399435
 20
-16.410969
 30
-156.139938
 70
    64
  0
VERTEX
  5
2818
100
AcDbEntity
  8
V0-OBRYS
  6
CONTINUOUS
 62
     7
 48
3.0
100
AcDbVertex
100
AcDbPolygonMeshVertex
 10
20.399435
 20
-16.567761
 30
-157.63172
 70
    64
  0
VERTEX
  5
2819
100
AcDbEntity
  8
V0-OBRYS
  6
CONTINUOUS
 62
     7
 48
3.0
100
AcDbVertex
100
AcDbPolygonMeshVertex
 10
40.399435
 20
-16.567761
 30
-157.63172
 70
    64
  0
VERTEX
  5
281A
100
AcDbEntity
  8
V0-OBRYS
  6
CONTINUOUS
 62
     7
 48
3.0
100
AcDbVertex
100
AcDbPolygonMeshVertex
 10
40.399435
 20
-16.67229
 30
-158.626242
 70
    64
  0
VERTEX
  5
281B
100
AcDbEntity
  8
V0-OBRYS
  6
CONTINUOUS
 62
     7
 48
3.0
100
AcDbVertex
100
AcDbPolygonMeshVertex
 10
43.399435
 20
-16.67229
 30
-158.626242
 70
    64
  0
VERTEX
  5
281C
100
AcDbEntity
  8
V0-OBRYS
  6
CONTINUOUS
 62
     7
 48
3.0
100
AcDbVertex
100
AcDbPolygonMeshVertex
 10
43.399435
 20
-16.567761
 30
-157.63172
 70
    64
  0
VERTEX
  5
281D
100
AcDbEntity
  8
V0-OBRYS
  6
CONTINUOUS
 62
     7
 48
3.0
100
AcDbVertex
100
AcDbPolygonMeshVertex
 10
62.899435
 20
-16.567761
 30
-157.63172
 70
    64
  0
VERTEX
  5
281E
100
AcDbEntity
  8
V0-OBRYS
  6
CONTINUOUS
 62
     7
 48
3.0
100
AcDbVertex
100
AcDbPolygonMeshVertex
 10
62.899435
 20
-21.428335
 30
-203.876989
 70
    64
  0
VERTEX
  5
281F
100
AcDbEntity
  8
V0-OBRYS
  6
CONTINUOUS
 62
     7
 48
3.0
100
AcDbVertex
100
AcDbPolygonMeshVertex
 10
72.899435
 20
-21.428335
 30
-203.876989
 70
    64
  0
VERTEX
  5
2820
100
AcDbEntity
  8
V0-OBRYS
  6
CONTINUOUS
 62
     7
 48
3.0
100
AcDbVertex
100
AcDbPolygonMeshVertex
 10
72.899435
 20
-16.567761
 30
-157.63172
 70
    64
  0
VERTEX
  5
2821
100
AcDbEntity
  8
V0-OBRYS
  6
CONTINUOUS
 62
     7
 48
3.0
100
AcDbVertex
100
AcDbPolygonMeshVertex
 10
92.399435
 20
-16.567761
 30
-157.63172
 70
    64
  0
VERTEX
  5
2822
100
AcDbEntity
  8
V0-OBRYS
  6
CONTINUOUS
 62
     7
 48
3.0
100
AcDbVertex
100
AcDbPolygonMeshVertex
 10
92.399435
 20
-16.67229
 30
-158.626242
 70
    64
  0
VERTEX
  5
2823
100
AcDbEntity
  8
V0-OBRYS
  6
CONTINUOUS
 62
     7
 48
3.0
100
AcDbVertex
100
AcDbPolygonMeshVertex
 10
95.399435
 20
-16.67229
 30
-158.626242
 70
    64
  0
VERTEX
  5
2824
100
AcDbEntity
  8
V0-OBRYS
  6
CONTINUOUS
 62
     7
 48
3.0
100
AcDbVertex
100
AcDbPolygonMeshVertex
 10
95.399435
 20
-16.567761
 30
-157.63172
 70
    64
  0
VERTEX
  5
2825
100
AcDbEntity
  8
V0-OBRYS
  6
CONTINUOUS
 62
     7
 48
3.0
100
AcDbVertex
100
AcDbPolygonMeshVertex
 10
115.399435
 20
-16.567761
 30
-157.63172
 70
    64
  0
VERTEX
  5
2826
100
AcDbEntity
  8
V0-OBRYS
  6
CONTINUOUS
 62
     7
 48
3.0
100
AcDbVertex
100
AcDbPolygonMeshVertex
 10
115.399435
 20
-16.410969
 30
-156.139938
 70
    64
  0
VERTEX
  5
2827
100
AcDbEntity
  8
V0-OBRYS
  6
CONTINUOUS
 62
     7
 48
3.0
100
AcDbVertex
100
AcDbPolygonMeshVertex
 10
123.899435
 20
-16.410969
 30
-156.139938
 70
    64
  0
VERTEX
  5
2828
100
AcDbEntity
  8
V0-OBRYS
  6
CONTINUOUS
 62
     7
 48
3.0
100
AcDbVertex
100
AcDbPolygonMeshVertex
 10
123.899435
 20
-16.985875
 30
-161.609808
 70
    64
  0
VERTEX
  5
2829
100
AcDbEntity
  8
V0-OBRYS
  6
CONTINUOUS
 62
     7
 48
3.0
100
AcDbVertex
100
AcDbPolygonMeshVertex
 10
124.399435
 20
-16.985875
 30
-161.609808
 70
    64
  0
VERTEX
  5
282A
100
AcDbEntity
  8
V0-OBRYS
  6
CONTINUOUS
 62
     7
 48
3.0
100
AcDbVertex
100
AcDbPolygonMeshVertex
 10
124.399435
 20
-16.410969
 30
-156.139938
 70
    64
  0
VERTEX
  5
282B
100
AcDbEntity
  8
V0-OBRYS
  6
CONTINUOUS
 62
     7
 48
3.0
100
AcDbVertex
100
AcDbPolygonMeshVertex
 10
135.399435
 20
-16.410969
 30
-156.139938
 70
    64
  0
VERTEX
  5
282C
100
AcDbEntity
  8
V0-OBRYS
  6
CONTINUOUS
 62
     7
 48
3.0
100
AcDbVertex
100
AcDbPolygonMeshVertex
 10
135.399435
 20
0.0
 30
0.0
 70
    64
  0
VERTEX
  5
282D
100
AcDbEntity
  8
V0-OBRYS
  6
CONTINUOUS
 62
     7
 48
3.0
100
AcDbVertex
100
AcDbPolygonMeshVertex
 10
0.399435
 20
0.0
 30
0.0
 70
    64
  0
VERTEX
  5
282E
100
AcDbEntity
  8
V0-OBRYS
  6
CONTINUOUS
 62
     7
 48
3.0
100
AcDbVertex
100
AcDbPolygonMeshVertex
 10
0.399435
 20
48.515668
 30
-149.315873
 70
    64
  0
VERTEX
  5
282F
100
AcDbEntity
  8
V0-OBRYS
  6
CONTINUOUS
 62
     7
 48
3.0
100
AcDbVertex
100
AcDbPolygonMeshVertex
 10
11.399435
 20
48.515668
 30
-149.315873
 70
    64
  0
VERTEX
  5
2830
100
AcDbEntity
  8
V0-OBRYS
  6
CONTINUOUS
 62
     7
 48
3.0
100
AcDbVertex
100
AcDbPolygonMeshVertex
 10
11.399435
 20
50.215262
 30
-154.546684
 70
    64
  0
VERTEX
  5
2831
100
AcDbEntity
  8
V0-OBRYS
  6
CONTINUOUS
 62
     7
 48
3.0
100
AcDbVertex
100
AcDbPolygonMeshVertex
 10
11.899435
 20
50.215262
 30
-154.546684
 70
    64
  0
VERTEX
  5
2832
100
AcDbEntity
  8
V0-OBRYS
  6
CONTINUOUS
 62
     7
 48
3.0
100
AcDbVertex
100
AcDbPolygonMeshVertex
 10
11.899435
 20
48.515668
 30
-149.315873
 70
    64
  0
VERTEX
  5
2833
100
AcDbEntity
  8
V0-OBRYS
  6
CONTINUOUS
 62
     7
 48
3.0
100
AcDbVertex
100
AcDbPolygonMeshVertex
 10
20.399435
 20
48.515668
 30
-149.315873
 70
    64
  0
VERTEX
  5
2834
100
AcDbEntity
  8
V0-OBRYS
  6
CONTINUOUS
 62
     7
 48
3.0
100
AcDbVertex
100
AcDbPolygonMeshVertex
 10
20.399435
 20
48.979194
 30
-150.742458
 70
    64
  0
VERTEX
  5
2835
100
AcDbEntity
  8
V0-OBRYS
  6
CONTINUOUS
 62
     7
 48
3.0
100
AcDbVertex
100
AcDbPolygonMeshVertex
 10
40.399435
 20
48.979194
 30
-150.742458
 70
    64
  0
VERTEX
  5
2836
100
AcDbEntity
  8
V0-OBRYS
  6
CONTINUOUS
 62
     7
 48
3.0
100
AcDbVertex
100
AcDbPolygonMeshVertex
 10
40.399435
 20
49.288211
 30
-151.693514
 70
    64
  0
VERTEX
  5
2837
100
AcDbEntity
  8
V0-OBRYS
  6
CONTINUOUS
 62
     7
 48
3.0
100
AcDbVertex
100
AcDbPolygonMeshVertex
 10
43.399435
 20
49.288211
 30
-151.693514
 70
    64
  0
VERTEX
  5
2838
100
AcDbEntity
  8
V0-OBRYS
  6
CONTINUOUS
 62
     7
 48
3.0
100
AcDbVertex
100
AcDbPolygonMeshVertex
 10
43.399435
 20
48.979194
 30
-150.742458
 70
    64
  0
VERTEX
  5
2839
100
AcDbEntity
  8
V0-OBRYS
  6
CONTINUOUS
 62
     7
 48
3.0
100
AcDbVertex
100
AcDbPolygonMeshVertex
 10
62.899435
 20
48.979194
 30
-150.742458
 70
    64
  0
VERTEX
  5
283A
100
AcDbEntity
  8
V0-OBRYS
  6
CONTINUOUS
 62
     7
 48
3.0
100
AcDbVertex
100
AcDbPolygonMeshVertex
 10
62.899435
 20
63.348484
 30
-194.966586
 70
    64
  0
VERTEX
  5
283B
100
AcDbEntity
  8
V0-OBRYS
  6
CONTINUOUS
 62
     7
 48
3.0
100
AcDbVertex
100
AcDbPolygonMeshVertex
 10
72.899435
 20
63.348484
 30
-194.966586
 70
    64
  0
VERTEX
  5
283C
100
AcDbEntity
  8
V0-OBRYS
  6
CONTINUOUS
 62
     7
 48
3.0
100
AcDbVertex
100
AcDbPolygonMeshVertex
 10
72.899435
 20
48.979194
 30
-150.742458
 70
    64
  0
VERTEX
  5
283D
100
AcDbEntity
  8
V0-OBRYS
  6
CONTINUOUS
 62
     7
 48
3.0
100
AcDbVertex
100
AcDbPolygonMeshVertex
 10
92.399435
 20
48.979194
 30
-150.742458
 70
    64
  0
VERTEX
  5
283E
100
AcDbEntity
  8
V0-OBRYS
  6
CONTINUOUS
 62
     7
 48
3.0
100
AcDbVertex
100
AcDbPolygonMeshVertex
 10
92.399435
 20
49.288211
 30
-151.693514
 70
    64
  0
VERTEX
  5
283F
100
AcDbEntity
  8
V0-OBRYS
  6
CONTINUOUS
 62
     7
 48
3.0
100
AcDbVertex
100
AcDbPolygonMeshVertex
 10
95.399435
 20
49.288211
 30
-151.693514
 70
    64
  0
VERTEX
  5
2840
100
AcDbEntity
  8
V0-OBRYS
  6
CONTINUOUS
 62
     7
 48
3.0
100
AcDbVertex
100
AcDbPolygonMeshVertex
 10
95.399435
 20
48.979194
 30
-150.742458
 70
    64
  0
VERTEX
  5
2841
100
AcDbEntity
  8
V0-OBRYS
  6
CONTINUOUS
 62
     7
 48
3.0
100
AcDbVertex
100
AcDbPolygonMeshVertex
 10
115.399435
 20
48.979194
 30
-150.742458
 70
    64
  0
VERTEX
  5
2842
100
AcDbEntity
  8
V0-OBRYS
  6
CONTINUOUS
 62
     7
 48
3.0
100
AcDbVertex
100
AcDbPolygonMeshVertex
 10
115.399435
 20
48.515668
 30
-149.315873
 70
    64
  0
VERTEX
  5
2843
100
AcDbEntity
  8
V0-OBRYS
  6
CONTINUOUS
 62
     7
 48
3.0
100
AcDbVertex
100
AcDbPolygonMeshVertex
 10
123.899435
 20
48.515668
 30
-149.315873
 70
    64
  0
VERTEX
  5
2844
100
AcDbEntity
  8
V0-OBRYS
  6
CONTINUOUS
 62
     7
 48
3.0
100
AcDbVertex
100
AcDbPolygonMeshVertex
 10
123.899435
 20
50.215262
 30
-154.546684
 70
    64
  0
VERTEX
  5
2845
100
AcDbEntity
  8
V0-OBRYS
  6
CONTINUOUS
 62
     7
 48
3.0
100
AcDbVertex
100
AcDbPolygonMeshVertex
 10
124.399435
 20
50.215262
 30
-154.546684
 70
    64
  0
VERTEX
  5
2846
100
AcDbEntity
  8
V0-OBRYS
  6
CONTINUOUS
 62
     7
 48
3.0
100
AcDbVertex
100
AcDbPolygonMeshVertex
 10
124.399435
 20
48.515668
 30
-149.315873
 70
    64
  0
VERTEX
  5
2847
100
AcDbEntity
  8
V0-OBRYS
  6
CONTINUOUS
 62
     7
 48
3.0
100
AcDbVertex
100
AcDbPolygonMeshVertex
 10
135.399435
 20
48.515668
 30
-149.315873
 70
    64
  0
VERTEX
  5
2848
100
AcDbEntity
  8
V0-OBRYS
  6
CONTINUOUS
 62
     7
 48
3.0
100
AcDbVertex
100
AcDbPolygonMeshVertex
 10
135.399435
 20
0.0
 30
0.0
 70
    64
  0
VERTEX
  5
2849
100
AcDbEntity
  8
V0-OBRYS
  6
CONTINUOUS
 62
     7
 48
3.0
100
AcDbVertex
100
AcDbPolygonMeshVertex
 10
0.399435
 20
0.0
 30
0.0
 70
    64
  0
VERTEX
  5
284A
100
AcDbEntity
  8
V0-OBRYS
  6
CONTINUOUS
 62
     7
 48
3.0
100
AcDbVertex
100
AcDbPolygonMeshVertex
 10
0.399435
 20
105.053505
 30
-116.673738
 70
    64
  0
VERTEX
  5
284B
100
AcDbEntity
  8
V0-OBRYS
  6
CONTINUOUS
 62
     7
 48
3.0
100
AcDbVertex
100
AcDbPolygonMeshVertex
 10
11.399435
 20
105.053505
 30
-116.673738
 70
    64
  0
VERTEX
  5
284C
100
AcDbEntity
  8
V0-OBRYS
  6
CONTINUOUS
 62
     7
 48
3.0
100
AcDbVertex
100
AcDbPolygonMeshVertex
 10
11.399435
 20
108.733724
 30
-120.761034
 70
    64
  0
VERTEX
  5
284D
100
AcDbEntity
  8
V0-OBRYS
  6
CONTINUOUS
 62
     7
 48
3.0
100
AcDbVertex
100
AcDbPolygonMeshVertex
 10
11.899435
 20
108.733724
 30
-120.761034
 70
    64
  0
VERTEX
  5
284E
100
AcDbEntity
  8
V0-OBRYS
  6
CONTINUOUS
 62
     7
 48
3.0
100
AcDbVertex
100
AcDbPolygonMeshVertex
 10
11.899435
 20
105.053505
 30
-116.673738
 70
    64
  0
VERTEX
  5
284F
100
AcDbEntity
  8
V0-OBRYS
  6
CONTINUOUS
 62
     7
 48
3.0
100
AcDbVertex
100
AcDbPolygonMeshVertex
 10
20.399435
 20
105.053505
 30
-116.673738
 70
    64
  0
VERTEX
  5
2850
100
AcDbEntity
  8
V0-OBRYS
  6
CONTINUOUS
 62
     7
 48
3.0
100
AcDbVertex
100
AcDbPolygonMeshVertex
 10
20.399435
 20
106.057201
 30
-117.788455
 70
    64
  0
VERTEX
  5
2851
100
AcDbEntity
  8
V0-OBRYS
  6
CONTINUOUS
 62
     7
 48
3.0
100
AcDbVertex
100
AcDbPolygonMeshVertex
 10
40.399435
 20
106.057201
 30
-117.788455
 70
    64
  0
VERTEX
  5
2852
100
AcDbEntity
  8
V0-OBRYS
  6
CONTINUOUS
 62
     7
 48
3.0
100
AcDbVertex
100
AcDbPolygonMeshVertex
 10
40.399435
 20
106.726332
 30
-118.5316
 70
    64
  0
VERTEX
  5
2853
100
AcDbEntity
  8
V0-OBRYS
  6
CONTINUOUS
 62
     7
 48
3.0
100
AcDbVertex
100
AcDbPolygonMeshVertex
 10
43.399435
 20
106.726332
 30
-118.5316
 70
    64
  0
VERTEX
  5
2854
100
AcDbEntity
  8
V0-OBRYS
  6
CONTINUOUS
 62
     7
 48
3.0
100
AcDbVertex
100
AcDbPolygonMeshVertex
 10
43.399435
 20
106.057201
 30
-117.788455
 70
    64
  0
VERTEX
  5
2855
100
AcDbEntity
  8
V0-OBRYS
  6
CONTINUOUS
 62
     7
 48
3.0
100
AcDbVertex
100
AcDbPolygonMeshVertex
 10
62.899435
 20
106.057201
 30
-117.788455
 70
    64
  0
VERTEX
  5
2856
100
AcDbEntity
  8
V0-OBRYS
  6
CONTINUOUS
 62
     7
 48
3.0
100
AcDbVertex
100
AcDbPolygonMeshVertex
 10
62.899435
 20
137.171774
 30
-152.344689
 70
    64
  0
VERTEX
  5
2857
100
AcDbEntity
  8
V0-OBRYS
  6
CONTINUOUS
 62
     7
 48
3.0
100
AcDbVertex
100
AcDbPolygonMeshVertex
 10
72.899435
 20
137.171774
 30
-152.344689
 70
    64
  0
VERTEX
  5
2858
100
AcDbEntity
  8
V0-OBRYS
  6
CONTINUOUS
 62
     7
 48
3.0
100
AcDbVertex
100
AcDbPolygonMeshVertex
 10
72.899435
 20
106.057201
 30
-117.788455
 70
    64
  0
VERTEX
  5
2859
100
AcDbEntity
  8
V0-OBRYS
  6
CONTINUOUS
 62
     7
 48
3.0
100
AcDbVertex
100
AcDbPolygonMeshVertex
 10
92.399435
 20
106.057201
 30
-117.788455
 70
    64
  0
VERTEX
  5
285A
100
AcDbEntity
  8
V0-OBRYS
  6
CONTINUOUS
 62
     7
 48
3.0
100
AcDbVertex
100
AcDbPolygonMeshVertex
 10
92.399435
 20
106.726332
 30
-118.5316
 70
    64
  0
VERTEX
  5
285B
100
AcDbEntity
  8
V0-OBRYS
  6
CONTINUOUS
 62
     7
 48
3.0
100
AcDbVertex
100
AcDbPolygonMeshVertex
 10
95.399435
 20
106.726332
 30
-118.5316
 70
    64
  0
VERTEX
  5
285C
100
AcDbEntity
  8
V0-OBRYS
  6
CONTINUOUS
 62
     7
 48
3.0
100
AcDbVertex
100
AcDbPolygonMeshVertex
 10
95.399435
 20
106.057201
 30
-117.788455
 70
    64
  0
VERTEX
  5
285D
100
AcDbEntity
  8
V0-OBRYS
  6
CONTINUOUS
 62
     7
 48
3.0
100
AcDbVertex
100
AcDbPolygonMeshVertex
 10
115.399435
 20
106.057201
 30
-117.788455
 70
    64
  0
VERTEX
  5
285E
100
AcDbEntity
  8
V0-OBRYS
  6
CONTINUOUS
 62
     7
 48
3.0
100
AcDbVertex
100
AcDbPolygonMeshVertex
 10
115.399435
 20
105.053505
 30
-116.673738
 70
    64
  0
VERTEX
  5
285F
100
AcDbEntity
  8
V0-OBRYS
  6
CONTINUOUS
 62
     7
 48
3.0
100
AcDbVertex
100
AcDbPolygonMeshVertex
 10
123.899435
 20
105.053505
 30
-116.673738
 70
    64
  0
VERTEX
  5
2860
100
AcDbEntity
  8
V0-OBRYS
  6
CONTINUOUS
 62
     7
 48
3.0
100
AcDbVertex
100
AcDbPolygonMeshVertex
 10
123.899435
 20
108.733724
 30
-120.761034
 70
    64
  0
VERTEX
  5
2861
100
AcDbEntity
  8
V0-OBRYS
  6
CONTINUOUS
 62
     7
 48
3.0
100
AcDbVertex
100
AcDbPolygonMeshVertex
 10
124.399435
 20
108.733724
 30
-120.761034
 70
    64
  0
VERTEX
  5
2862
100
AcDbEntity
  8
V0-OBRYS
  6
CONTINUOUS
 62
     7
 48
3.0
100
AcDbVertex
100
AcDbPolygonMeshVertex
 10
124.399435
 20
105.053505
 30
-116.673738
 70
    64
  0
VERTEX
  5
2863
100
AcDbEntity
  8
V0-OBRYS
  6
CONTINUOUS
 62
     7
 48
3.0
100
AcDbVertex
100
AcDbPolygonMeshVertex
 10
135.399435
 20
105.053505
 30
-116.673738
 70
    64
  0
VERTEX
  5
2864
100
AcDbEntity
  8
V0-OBRYS
  6
CONTINUOUS
 62
     7
 48
3.0
100
AcDbVertex
100
AcDbPolygonMeshVertex
 10
135.399435
 20
0.0
 30
0.0
 70
    64
  0
VERTEX
  5
2865
100
AcDbEntity
  8
V0-OBRYS
  6
CONTINUOUS
 62
     7
 48
3.0
100
AcDbVertex
100
AcDbPolygonMeshVertex
 10
0.399435
 20
0.0
 30
0.0
 70
    64
  0
VERTEX
  5
2866
100
AcDbEntity
  8
V0-OBRYS
  6
CONTINUOUS
 62
     7
 48
3.0
100
AcDbVertex
100
AcDbPolygonMeshVertex
 10
0.399435
 20
143.426637
 30
-63.857653
 70
    64
  0
VERTEX
  5
2867
100
AcDbEntity
  8
V0-OBRYS
  6
CONTINUOUS
 62
     7
 48
3.0
100
AcDbVertex
100
AcDbPolygonMeshVertex
 10
11.399435
 20
143.426637
 30
-63.857653
 70
    64
  0
VERTEX
  5
2868
100
AcDbEntity
  8
V0-OBRYS
  6
CONTINUOUS
 62
     7
 48
3.0
100
AcDbVertex
100
AcDbPolygonMeshVertex
 10
11.399435
 20
148.451137
 30
-66.094704
 70
    64
  0
VERTEX
  5
2869
100
AcDbEntity
  8
V0-OBRYS
  6
CONTINUOUS
 62
     7
 48
3.0
100
AcDbVertex
100
AcDbPolygonMeshVertex
 10
11.899435
 20
148.451137
 30
-66.094704
 70
    64
  0
VERTEX
  5
286A
100
AcDbEntity
  8
V0-OBRYS
  6
CONTINUOUS
 62
     7
 48
3.0
100
AcDbVertex
100
AcDbPolygonMeshVertex
 10
11.899435
 20
143.426637
 30
-63.857653
 70
    64
  0
VERTEX
  5
286B
100
AcDbEntity
  8
V0-OBRYS
  6
CONTINUOUS
 62
     7
 48
3.0
100
AcDbVertex
100
AcDbPolygonMeshVertex
 10
20.399435
 20
143.426637
 30
-63.857653
 70
    64
  0
VERTEX
  5
286C
100
AcDbEntity
  8
V0-OBRYS
  6
CONTINUOUS
 62
     7
 48
3.0
100
AcDbVertex
100
AcDbPolygonMeshVertex
 10
20.399435
 20
144.796955
 30
-64.467758
 70
    64
  0
VERTEX
  5
286D
100
AcDbEntity
  8
V0-OBRYS
  6
CONTINUOUS
 62
     7
 48
3.0
100
AcDbVertex
100
AcDbPolygonMeshVertex
 10
40.399435
 20
144.796955
 30
-64.467758
 70
    64
  0
VERTEX
  5
286E
100
AcDbEntity
  8
V0-OBRYS
  6
CONTINUOUS
 62
     7
 48
3.0
100
AcDbVertex
100
AcDbPolygonMeshVertex
 10
40.399435
 20
145.7105
 30
-64.874495
 70
    64
  0
VERTEX
  5
286F
100
AcDbEntity
  8
V0-OBRYS
  6
CONTINUOUS
 62
     7
 48
3.0
100
AcDbVertex
100
AcDbPolygonMeshVertex
 10
43.399435
 20
145.7105
 30
-64.874495
 70
    64
  0
VERTEX
  5
2870
100
AcDbEntity
  8
V0-OBRYS
  6
CONTINUOUS
 62
     7
 48
3.0
100
AcDbVertex
100
AcDbPolygonMeshVertex
 10
43.399435
 20
144.796955
 30
-64.467758
 70
    64
  0
VERTEX
  5
2871
100
AcDbEntity
  8
V0-OBRYS
  6
CONTINUOUS
 62
     7
 48
3.0
100
AcDbVertex
100
AcDbPolygonMeshVertex
 10
62.899435
 20
144.796955
 30
-64.467758
 70
    64
  0
VERTEX
  5
2872
100
AcDbEntity
  8
V0-OBRYS
  6
CONTINUOUS
 62
     7
 48
3.0
100
AcDbVertex
100
AcDbPolygonMeshVertex
 10
62.899435
 20
187.276819
 30
-83.381012
 70
    64
  0
VERTEX
  5
2873
100
AcDbEntity
  8
V0-OBRYS
  6
CONTINUOUS
 62
     7
 48
3.0
100
AcDbVertex
100
AcDbPolygonMeshVertex
 10
72.899435
 20
187.276819
 30
-83.381012
 70
    64
  0
VERTEX
  5
2874
100
AcDbEntity
  8
V0-OBRYS
  6
CONTINUOUS
 62
     7
 48
3.0
100
AcDbVertex
100
AcDbPolygonMeshVertex
 10
72.899435
 20
144.796955
 30
-64.467758
 70
    64
  0
VERTEX
  5
2875
100
AcDbEntity
  8
V0-OBRYS
  6
CONTINUOUS
 62
     7
 48
3.0
100
AcDbVertex
100
AcDbPolygonMeshVertex
 10
92.399435
 20
144.796955
 30
-64.467758
 70
    64
  0
VERTEX
  5
2876
100
AcDbEntity
  8
V0-OBRYS
  6
CONTINUOUS
 62
     7
 48
3.0
100
AcDbVertex
100
AcDbPolygonMeshVertex
 10
92.399435
 20
145.7105
 30
-64.874495
 70
    64
  0
VERTEX
  5
2877
100
AcDbEntity
  8
V0-OBRYS
  6
CONTINUOUS
 62
     7
 48
3.0
100
AcDbVertex
100
AcDbPolygonMeshVertex
 10
95.399435
 20
145.7105
 30
-64.874495
 70
    64
  0
VERTEX
  5
2878
100
AcDbEntity
  8
V0-OBRYS
  6
CONTINUOUS
 62
     7
 48
3.0
100
AcDbVertex
100
AcDbPolygonMeshVertex
 10
95.399435
 20
144.796955
 30
-64.467758
 70
    64
  0
VERTEX
  5
2879
100
AcDbEntity
  8
V0-OBRYS
  6
CONTINUOUS
 62
     7
 48
3.0
100
AcDbVertex
100
AcDbPolygonMeshVertex
 10
115.399435
 20
144.796955
 30
-64.467758
 70
    64
  0
VERTEX
  5
287A
100
AcDbEntity
  8
V0-OBRYS
  6
CONTINUOUS
 62
     7
 48
3.0
100
AcDbVertex
100
AcDbPolygonMeshVertex
 10
115.399435
 20
143.426637
 30
-63.857653
 70
    64
  0
VERTEX
  5
287B
100
AcDbEntity
  8
V0-OBRYS
  6
CONTINUOUS
 62
     7
 48
3.0
100
AcDbVertex
100
AcDbPolygonMeshVertex
 10
123.899435
 20
143.426637
 30
-63.857653
 70
    64
  0
VERTEX
  5
287C
100
AcDbEntity
  8
V0-OBRYS
  6
CONTINUOUS
 62
     7
 48
3.0
100
AcDbVertex
100
AcDbPolygonMeshVertex
 10
123.899435
 20
148.451137
 30
-66.094704
 70
    64
  0
VERTEX
  5
287D
100
AcDbEntity
  8
V0-OBRYS
  6
CONTINUOUS
 62
     7
 48
3.0
100
AcDbVertex
100
AcDbPolygonMeshVertex
 10
124.399435
 20
148.451137
 30
-66.094704
 70
    64
  0
VERTEX
  5
287E
100
AcDbEntity
  8
V0-OBRYS
  6
CONTINUOUS
 62
     7
 48
3.0
100
AcDbVertex
100
AcDbPolygonMeshVertex
 10
124.399435
 20
143.426637
 30
-63.857653
 70
    64
  0
VERTEX
  5
287F
100
AcDbEntity
  8
V0-OBRYS
  6
CONTINUOUS
 62
     7
 48
3.0
100
AcDbVertex
100
AcDbPolygonMeshVertex
 10
135.399435
 20
143.426637
 30
-63.857653
 70
    64
  0
VERTEX
  5
2880
100
AcDbEntity
  8
V0-OBRYS
  6
CONTINUOUS
 62
     7
 48
3.0
100
AcDbVertex
100
AcDbPolygonMeshVertex
 10
135.399435
 20
0.0
 30
0.0
 70
    64
  0
SEQEND
  5
2881
100
AcDbEntity
  8
V0-OBRYS
  6
CONTINUOUS
 62
     7
 48
3.0
  0
VIEWPORT
  5
22
100
AcDbEntity
 67
     1
  8
0
100
AcDbViewport
 10
261.517699
 20
148.5
 30
0.0
 40
523.035398
 41
297.0
 68
    -1
 69
     1
1001
ACAD
1000
MVIEW
1002
{
1070
    16
1010
0.0
1020
0.0
1030
0.0
1010
0.0
1020
0.0
1030
1.0
1040
0.0
1040
297.0
1040
261.517699
1040
148.5
1040
50.0
1040
0.0
1040
0.0
1070
     0
1070
   100
1070
     1
1070
     1
1070
     0
1070
     0
1070
     0
1070
     0
1040
0.0
1040
0.0
1040
0.0
1040
1.0
1040
1.0
1040
10.0
1040
10.0
1070
     0
1002
{
1002
}
1002
}
  0
ENDSEC
  0
SECTION
  2
OBJECTS
  0
DICTIONARY
  5
C
100
AcDbDictionary
  3
ACAD_GROUP
350
D
  3
ACAD_MLINESTYLE
350
E
  3
ACDBVARIABLEDICTIONARY
350
5D
  0
DICTIONARY
  5
D
102
{ACAD_REACTORS
330
C
102
}
100
AcDbDictionary
  0
DICTIONARY
  5
E
102
{ACAD_REACTORS
330
C
102
}
100
AcDbDictionary
  3
STANDARD
350
13
  0
DICTIONARY
  5
5D
102
{ACAD_REACTORS
330
C
102
}
100
AcDbDictionary
  3
DIMADEC
350
5E
  3
SORTENTS
350
3D8
  0
MLINESTYLE
  5
13
102
{ACAD_REACTORS
330
E
102
}
100
AcDbMlineStyle
  2
STANDARD
 70
     0
  3

 62
     0
 51
90.0
 52
90.0
 71
     2
 49
0.5
 62
   256
  6
BYLAYER
 49
-0.5
 62
   256
  6
BYLAYER
  0
DICTIONARYVAR
  5
5E
102
{ACAD_REACTORS
330
5D
102
}
100
DictionaryVariables
280
     0
  1
0
  0
DICTIONARYVAR
  5
3D8
102
{ACAD_REACTORS
330
5D
102
}
100
DictionaryVariables
280
     0
  1
96
  0
ENDSEC
  0
EOF
