  0
SECTION
  2
HEADER
  9
$ACADVER
  1
AC1014
  9
$ACADMAINTVER
 70
     0
  9
$DWGCODEPAGE
  3
ANSI_1250
  9
$INSBASE
 10
0.0
 20
0.0
 30
0.0
  9
$EXTMIN
 10
-166.251126
 20
-252.909035
 30
0.0
  9
$EXTMAX
 10
1330.308654
 20
597.296325
 30
0.0
  9
$LIMMIN
 10
0.0
 20
0.0
  9
$LIMMAX
 10
420.0
 20
297.0
  9
$ORTHOMODE
 70
     0
  9
$REGENMODE
 70
     1
  9
$FILLMODE
 70
     1
  9
$QTEXTMODE
 70
     0
  9
$MIRRTEXT
 70
     1
  9
$DRAGMODE
 70
     2
  9
$LTSCALE
 40
1.0
  9
$OSMODE
 70
    15
  9
$ATTMODE
 70
     1
  9
$TEXTSIZE
 40
2.5
  9
$TRACEWID
 40
1.0
  9
$TEXTSTYLE
  7
ED2
  9
$CLAYER
  8
0
  9
$CELTYPE
  6
BYLAYER
  9
$CECOLOR
 62
   256
  9
$CELTSCALE
 40
1.0
  9
$DELOBJ
 70
     1
  9
$DISPSILH
 70
     0
  9
$DIMSCALE
 40
1.0
  9
$DIMASZ
 40
25.0
  9
$DIMEXO
 40
0.625
  9
$DIMDLI
 40
3.75
  9
$DIMRND
 40
0.0
  9
$DIMDLE
 40
0.0
  9
$DIMEXE
 40
1.25
  9
$DIMTP
 40
0.0
  9
$DIMTM
 40
0.0
  9
$DIMTXT
 40
25.0
  9
$DIMCEN
 40
2.5
  9
$DIMTSZ
 40
0.0
  9
$DIMTOL
 70
     0
  9
$DIMLIM
 70
     0
  9
$DIMTIH
 70
     0
  9
$DIMTOH
 70
     0
  9
$DIMSE1
 70
     0
  9
$DIMSE2
 70
     0
  9
$DIMTAD
 70
     1
  9
$DIMZIN
 70
     8
  9
$DIMBLK
  1

  9
$DIMASO
 70
     1
  9
$DIMSHO
 70
     1
  9
$DIMPOST
  1

  9
$DIMAPOST
  1

  9
$DIMALT
 70
     0
  9
$DIMALTD
 70
     4
  9
$DIMALTF
 40
0.0394
  9
$DIMLFAC
 40
1.0
  9
$DIMTOFL
 70
     1
  9
$DIMTVP
 40
0.0
  9
$DIMTIX
 70
     0
  9
$DIMSOXD
 70
     0
  9
$DIMSAH
 70
     1
  9
$DIMBLK1
  1
_OPEN
  9
$DIMBLK2
  1
_OPEN
  9
$DIMSTYLE
  2
ED2
  9
$DIMCLRD
 70
     0
  9
$DIMCLRE
 70
     0
  9
$DIMCLRT
 70
     0
  9
$DIMTFAC
 40
1.0
  9
$DIMGAP
 40
5.0
  9
$DIMJUST
 70
     0
  9
$DIMSD1
 70
     0
  9
$DIMSD2
 70
     0
  9
$DIMTOLJ
 70
     1
  9
$DIMTZIN
 70
     8
  9
$DIMALTZ
 70
     0
  9
$DIMALTTZ
 70
     0
  9
$DIMFIT
 70
     3
  9
$DIMUPT
 70
     0
  9
$DIMUNIT
 70
     2
  9
$DIMDEC
 70
     0
  9
$DIMTDEC
 70
     1
  9
$DIMALTU
 70
     8
  9
$DIMALTTD
 70
     4
  9
$DIMTXSTY
  7
ED2
  9
$DIMAUNIT
 70
     0
  9
$LUNITS
 70
     2
  9
$LUPREC
 70
     4
  9
$SKETCHINC
 40
1.0
  9
$FILLETRAD
 40
10.0
  9
$AUNITS
 70
     0
  9
$AUPREC
 70
     0
  9
$MENU
  1
.
  9
$ELEVATION
 40
0.0
  9
$PELEVATION
 40
0.0
  9
$THICKNESS
 40
0.0
  9
$LIMCHECK
 70
     0
  9
$BLIPMODE
 70
     0
  9
$CHAMFERA
 40
10.0
  9
$CHAMFERB
 40
10.0
  9
$CHAMFERC
 40
20.0
  9
$CHAMFERD
 40
0.0
  9
$SKPOLY
 70
     1
  9
$TDCREATE
 40
2451196.643769328
  9
$TDUPDATE
 40
2453315.433268032
  9
$TDINDWG
 40
0.1384108565
  9
$TDUSRTIMER
 40
0.1384108565
  9
$USRTIMER
 70
     1
  9
$ANGBASE
 50
0.0
  9
$ANGDIR
 70
     0
  9
$PDMODE
 70
     3
  9
$PDSIZE
 40
15.0
  9
$PLINEWID
 40
0.0
  9
$COORDS
 70
     1
  9
$SPLFRAME
 70
     0
  9
$SPLINETYPE
 70
     6
  9
$SPLINESEGS
 70
     8
  9
$ATTDIA
 70
     0
  9
$ATTREQ
 70
     1
  9
$HANDLING
 70
     1
  9
$HANDSEED
  5
DFC
  9
$SURFTAB1
 70
     6
  9
$SURFTAB2
 70
     6
  9
$SURFTYPE
 70
     6
  9
$SURFU
 70
     6
  9
$SURFV
 70
     6
  9
$UCSNAME
  2

  9
$UCSORG
 10
1044.835013434384
 20
-473.8987792018146
 30
0.0
  9
$UCSXDIR
 10
1.0
 20
0.0
 30
0.0
  9
$UCSYDIR
 10
0.0
 20
1.0
 30
0.0
  9
$PUCSNAME
  2

  9
$PUCSORG
 10
0.0
 20
0.0
 30
0.0
  9
$PUCSXDIR
 10
1.0
 20
0.0
 30
0.0
  9
$PUCSYDIR
 10
0.0
 20
1.0
 30
0.0
  9
$USERI1
 70
     0
  9
$USERI2
 70
     0
  9
$USERI3
 70
     0
  9
$USERI4
 70
     0
  9
$USERI5
 70
     0
  9
$USERR1
 40
0.0
  9
$USERR2
 40
0.0
  9
$USERR3
 40
0.0
  9
$USERR4
 40
0.0
  9
$USERR5
 40
0.0
  9
$WORLDVIEW
 70
     1
  9
$SHADEDGE
 70
     3
  9
$SHADEDIF
 70
    70
  9
$TILEMODE
 70
     1
  9
$MAXACTVP
 70
    48
  9
$PINSBASE
 10
0.0
 20
0.0
 30
0.0
  9
$PLIMCHECK
 70
     0
  9
$PEXTMIN
 10
1.000000E+20
 20
1.000000E+20
 30
1.000000E+20
  9
$PEXTMAX
 10
-1.000000E+20
 20
-1.000000E+20
 30
-1.000000E+20
  9
$PLIMMIN
 10
0.0
 20
0.0
  9
$PLIMMAX
 10
420.0
 20
297.0
  9
$UNITMODE
 70
     0
  9
$VISRETAIN
 70
     1
  9
$PLINEGEN
 70
     0
  9
$PSLTSCALE
 70
     1
  9
$TREEDEPTH
 70
  3020
  9
$PICKSTYLE
 70
     1
  9
$CMLSTYLE
  2
STANDARD
  9
$CMLJUST
 70
     0
  9
$CMLSCALE
 40
1.0
  9
$PROXYGRAPHICS
 70
     1
  9
$MEASUREMENT
 70
     1
  0
ENDSEC
  0
SECTION
  2
CLASSES
  0
CLASS
  1
DICTIONARYVAR
  2
AcDbDictionaryVar
  3
"AutoCAD"
 90
        0
280
     0
281
     0
  0
CLASS
  1
LWPOLYLINE
  2
AcDbPolyline
  3
"AutoCAD"
 90
        0
280
     0
281
     1
  0
CLASS
  1
HATCH
  2
AcDbHatch
  3
"ACAD_SEDONA"
 90
        0
280
     0
281
     1
  0
ENDSEC
  0
SECTION
  2
TABLES
  0
TABLE
  2
VPORT
  5
8
100
AcDbSymbolTable
 70
     2
  0
VPORT
  5
DFB
100
AcDbSymbolTableRecord
100
AcDbViewportTableRecord
  2
*ACTIVE
 70
     0
 10
0.0
 20
0.0
 11
1.0
 21
1.0
 12
575.539818
 22
195.243462
 13
0.0
 23
0.0
 14
10.0
 24
10.0
 15
10.0
 25
10.0
 16
0.0
 26
0.0
 36
1.0
 17
0.0
 27
0.0
 37
0.0
 40
1037.123159
 41
1.523346
 42
50.0
 43
0.0
 44
0.0
 50
0.0
 51
0.0
 71
     0
 72
   100
 73
     1
 74
     1
 75
     0
 76
     0
 77
     0
 78
     0
  0
ENDTAB
  0
TABLE
  2
LTYPE
  5
5
100
AcDbSymbolTable
 70
     4
  0
LTYPE
  5
14
100
AcDbSymbolTableRecord
100
AcDbLinetypeTableRecord
  2
BYBLOCK
 70
     0
  3

 72
    65
 73
     0
 40
0.0
  0
LTYPE
  5
15
100
AcDbSymbolTableRecord
100
AcDbLinetypeTableRecord
  2
BYLAYER
 70
     0
  3

 72
    65
 73
     0
 40
0.0
  0
LTYPE
  5
16
100
AcDbSymbolTableRecord
100
AcDbLinetypeTableRecord
  2
CONTINUOUS
 70
     0
  3
Solid line
 72
    65
 73
     0
 40
0.0
  0
LTYPE
  5
7F
100
AcDbSymbolTableRecord
100
AcDbLinetypeTableRecord
  2
DASHDOT
 70
     0
  3
Dash dot __ . __ . __ . __ . __ . __ . __ . __
 72
    65
 73
     4
 40
25.4
 49
12.7
 74
     0
 49
-6.35
 74
     0
 49
0.0
 74
     0
 49
-6.35
 74
     0
  0
LTYPE
  5
80
100
AcDbSymbolTableRecord
100
AcDbLinetypeTableRecord
  2
DASHED
 70
     0
  3
Dashed __ __ __ __ __ __ __ __ __ __ __ __ __ _
 72
    65
 73
     2
 40
19.05
 49
12.7
 74
     0
 49
-6.35
 74
     0
  0
LTYPE
  5
5AA
100
AcDbSymbolTableRecord
100
AcDbLinetypeTableRecord
  2
DOT
 70
     0
  3
Dot . . . . . . . . . . . . . . . . . . . . . .
 72
    65
 73
     2
 40
6.35
 49
0.0
 74
     0
 49
-6.35
 74
     0
  0
ENDTAB
  0
TABLE
  2
LAYER
  5
2
100
AcDbSymbolTable
 70
     6
  0
LAYER
  5
F
100
AcDbSymbolTableRecord
100
AcDbLayerTableRecord
  2
0
 70
     0
 62
     7
  6
CONTINUOUS
  0
LAYER
  5
9E
100
AcDbSymbolTableRecord
100
AcDbLayerTableRecord
  2
DEFPOINTS
 70
     0
 62
     7
  6
CONTINUOUS
  0
LAYER
  5
377
100
AcDbSymbolTableRecord
100
AcDbLayerTableRecord
  2
V0-OBRYS
 70
     0
 62
    90
  6
CONTINUOUS
  0
LAYER
  5
378
100
AcDbSymbolTableRecord
100
AcDbLayerTableRecord
  2
V0-VYPLNE
 70
     0
 62
    52
  6
CONTINUOUS
  0
LAYER
  5
37A
100
AcDbSymbolTableRecord
100
AcDbLayerTableRecord
  2
V0-NAZVY
 70
     0
 62
   210
  6
CONTINUOUS
  0
LAYER
  5
559
100
AcDbSymbolTableRecord
100
AcDbLayerTableRecord
  2
V0-ZBYTEK
 70
     0
 62
    51
  6
CONTINUOUS
  0
ENDTAB
  0
TABLE
  2
STYLE
  5
3
100
AcDbSymbolTable
 70
     6
  0
STYLE
  5
10
100
AcDbSymbolTableRecord
100
AcDbTextStyleTableRecord
  2
STANDARD
 70
     0
 40
0.0
 41
1.0
 50
0.0
 71
     0
 42
2.5
  3
ISOCP
  4

  0
STYLE
  5
331
100
AcDbSymbolTableRecord
100
AcDbTextStyleTableRecord
  2
ED
 70
     0
 40
20.0
 41
1.0
 50
0.0
 71
     0
 42
2.5
  3
ISOCP.shx
  4

  0
STYLE
  5
5B3
100
AcDbSymbolTableRecord
100
AcDbTextStyleTableRecord
  2
EDVENT
 70
     0
 40
10.0
 41
1.0
 50
0.0
 71
     0
 42
2.5
  3
ISOCP.shx
  4

  0
STYLE
  5
5B4
100
AcDbSymbolTableRecord
100
AcDbTextStyleTableRecord
  2
E
 70
     0
 40
25.0
 41
1.0
 50
0.0
 71
     0
 42
2.5
  3
ISOCP.shx
  4

  0
STYLE
  5
5B5
100
AcDbSymbolTableRecord
100
AcDbTextStyleTableRecord
  2
ED-VENT
 70
     0
 40
25.0
 41
1.0
 50
0.0
 71
     0
 42
2.5
  3
ISOCP.shx
  4

  0
STYLE
  5
881
100
AcDbSymbolTableRecord
100
AcDbTextStyleTableRecord
  2
ED2
 70
     0
 40
25.0
 41
1.0
 50
0.0
 71
     0
 42
2.5
  3
ISOCP.shx
  4

  0
ENDTAB
  0
TABLE
  2
VIEW
  5
6
100
AcDbSymbolTable
 70
     0
  0
ENDTAB
  0
TABLE
  2
UCS
  5
7
100
AcDbSymbolTable
 70
     0
  0
ENDTAB
  0
TABLE
  2
APPID
  5
9
100
AcDbSymbolTable
 70
     1
  0
APPID
  5
11
100
AcDbSymbolTableRecord
100
AcDbRegAppTableRecord
  2
ACAD
 70
     0
  0
ENDTAB
  0
TABLE
  2
DIMSTYLE
  5
A
100
AcDbSymbolTable
 70
     3
  0
DIMSTYLE
105
1D
100
AcDbSymbolTableRecord
100
AcDbDimStyleTableRecord
  2
STANDARD
 70
     0
  3

  4

  5

  6
_OPEN
  7
_OPEN
 40
0.0
 41
15.0
 42
0.625
 43
3.75
 44
1.25
 45
0.0
 46
0.0
 47
0.0
 48
0.0
140
15.0
141
2.5
142
0.0
143
0.0394
144
1.0
145
0.0
146
1.0
147
3.0
 71
     0
 72
     0
 73
     0
 74
     0
 75
     0
 76
     0
 77
     1
 78
     8
170
     0
171
     4
172
     1
173
     1
174
     0
175
     0
176
     0
177
     0
178
     0
270
     2
271
     0
272
     1
273
     8
274
     4
340
331
275
     0
280
     0
281
     0
282
     0
283
     1
284
     8
285
     0
286
     0
287
     3
288
     0
  0
DIMSTYLE
105
397
100
AcDbSymbolTableRecord
100
AcDbDimStyleTableRecord
  2
ED
 70
     0
  3

  4

  5

  6
_OPEN
  7
_OPEN
 40
0.0
 41
15.0
 42
0.625
 43
3.75
 44
1.25
 45
0.0
 46
0.0
 47
0.0
 48
0.0
140
15.0
141
2.5
142
0.0
143
0.0394
144
1.0
145
0.0
146
1.0
147
3.0
 71
     0
 72
     0
 73
     0
 74
     0
 75
     0
 76
     0
 77
     1
 78
     8
170
     0
171
     4
172
     1
173
     1
174
     0
175
     0
176
     0
177
     0
178
     0
270
     2
271
     0
272
     1
273
     8
274
     4
340
331
275
     0
280
     0
281
     0
282
     0
283
     1
284
     8
285
     0
286
     0
287
     3
288
     0
  0
DIMSTYLE
105
77C
100
AcDbSymbolTableRecord
100
AcDbDimStyleTableRecord
  2
ED2
 70
     0
  3

  4

  5

  6
_OPEN
  7
_OPEN
 40
0.0
 41
25.0
 42
0.625
 43
3.75
 44
1.25
 45
0.0
 46
0.0
 47
0.0
 48
0.0
140
30.0
141
2.5
142
0.0
143
0.0394
144
1.0
145
0.0
146
1.0
147
5.0
 71
     0
 72
     0
 73
     0
 74
     0
 75
     0
 76
     0
 77
     1
 78
     8
170
     0
171
     4
172
     1
173
     1
174
     0
175
     0
176
     0
177
     0
178
     0
270
     2
271
     0
272
     1
273
     8
274
     4
340
331
275
     0
280
     0
281
     0
282
     0
283
     1
284
     8
285
     0
286
     0
287
     3
288
     0
  0
ENDTAB
  0
TABLE
  2
BLOCK_RECORD
  5
1
100
AcDbSymbolTable
 70
    21
  0
BLOCK_RECORD
  5
1A
100
AcDbSymbolTableRecord
100
AcDbBlockTableRecord
  2
*MODEL_SPACE
  0
BLOCK_RECORD
  5
17
100
AcDbSymbolTableRecord
100
AcDbBlockTableRecord
  2
*PAPER_SPACE
  0
BLOCK_RECORD
  5
90
100
AcDbSymbolTableRecord
100
AcDbBlockTableRecord
  2
_OPEN
  0
BLOCK_RECORD
  5
D72
100
AcDbSymbolTableRecord
100
AcDbBlockTableRecord
  2
*D16
  0
BLOCK_RECORD
  5
D7E
100
AcDbSymbolTableRecord
100
AcDbBlockTableRecord
  2
*D17
  0
BLOCK_RECORD
  5
D8A
100
AcDbSymbolTableRecord
100
AcDbBlockTableRecord
  2
*D18
  0
BLOCK_RECORD
  5
D98
100
AcDbSymbolTableRecord
100
AcDbBlockTableRecord
  2
*D19
  0
BLOCK_RECORD
  5
DA4
100
AcDbSymbolTableRecord
100
AcDbBlockTableRecord
  2
*D20
  0
ENDTAB
  0
ENDSEC
  0
SECTION
  2
BLOCKS
  0
BLOCK
  5
1B
100
AcDbEntity
  8
0
100
AcDbBlockBegin
  2
*MODEL_SPACE
 70
     0
 10
0.0
 20
0.0
 30
0.0
  3
*MODEL_SPACE
  1

  0
ENDBLK
  5
1C
100
AcDbEntity
  8
0
100
AcDbBlockEnd
  0
BLOCK
  5
18
100
AcDbEntity
 67
     1
  8
0
100
AcDbBlockBegin
  2
*PAPER_SPACE
 70
     0
 10
0.0
 20
0.0
 30
0.0
  3
*PAPER_SPACE
  1

  0
ENDBLK
  5
19
100
AcDbEntity
 67
     1
  8
0
100
AcDbBlockEnd
  0
BLOCK
  5
91
100
AcDbEntity
  8
0
100
AcDbBlockBegin
  2
_OPEN
 70
     0
 10
0.0
 20
0.0
 30
0.0
  3
_OPEN
  1

  0
LINE
  5
92
100
AcDbEntity
  8
0
  6
BYBLOCK
 62
     0
100
AcDbLine
 10
-1.0
 20
0.166667
 30
0.0
 11
0.0
 21
0.0
 31
0.0
  0
LINE
  5
93
100
AcDbEntity
  8
0
  6
BYBLOCK
 62
     0
100
AcDbLine
 10
0.0
 20
0.0
 30
0.0
 11
-1.0
 21
-0.166667
 31
0.0
  0
LINE
  5
94
100
AcDbEntity
  8
0
  6
BYBLOCK
 62
     0
100
AcDbLine
 10
0.0
 20
0.0
 30
0.0
 11
-1.0
 21
0.0
 31
0.0
  0
ENDBLK
  5
95
100
AcDbEntity
  8
0
100
AcDbBlockEnd
  0
BLOCK
  5
DB0
100
AcDbEntity
  8
0
100
AcDbBlockBegin
  2
*D16
 70
     1
 10
0.0
 20
0.0
 30
0.0
  3
*D16
  1

  0
LINE
  5
DB1
100
AcDbEntity
  8
0
  6
BYBLOCK
 62
     0
100
AcDbLine
 10
-136.251126
 20
447.805145
 30
0.0
 11
-136.251126
 21
571.774398
 31
0.0
  0
LINE
  5
DB2
100
AcDbEntity
  8
0
  6
BYBLOCK
 62
     0
100
AcDbLine
 10
763.748874
 20
447.805145
 30
0.0
 11
763.748874
 21
571.774398
 31
0.0
  0
LINE
  5
DB3
100
AcDbEntity
  8
0
  6
BYBLOCK
 62
     0
100
AcDbLine
 10
-121.251126
 20
570.524398
 30
0.0
 11
748.748874
 21
570.524398
 31
0.0
  0
INSERT
  5
DB4
100
AcDbEntity
  8
0
  6
BYBLOCK
 62
     0
100
AcDbBlockReference
  2
_OPEN
 10
-136.251126
 20
570.524398
 30
0.0
 41
15.0
 42
15.0
 43
15.0
 50
180.0
  0
INSERT
  5
DB5
100
AcDbEntity
  8
0
  6
BYBLOCK
 62
     0
100
AcDbBlockReference
  2
_OPEN
 10
763.748874
 20
570.524398
 30
0.0
 41
15.0
 42
15.0
 43
15.0
  0
MTEXT
  5
DB6
100
AcDbEntity
  8
0
  6
BYBLOCK
 62
     0
100
AcDbMText
 10
313.748874
 20
586.024398
 30
0.0
 40
25.0
 41
0.0
 71
     5
 72
     1
  1
\A1;900
  7
ED-VENT
  0
POINT
  5
DB7
100
AcDbEntity
  8
DEFPOINTS
  6
BYBLOCK
 62
     0
100
AcDbPoint
 10
-136.251126
 20
447.180145
 30
0.0
  0
POINT
  5
DB8
100
AcDbEntity
  8
DEFPOINTS
  6
BYBLOCK
 62
     0
100
AcDbPoint
 10
763.748874
 20
447.180145
 30
0.0
  0
POINT
  5
DB9
100
AcDbEntity
  8
DEFPOINTS
  6
BYBLOCK
 62
     0
100
AcDbPoint
 10
763.748874
 20
570.524398
 30
0.0
  0
ENDBLK
  5
DBA
100
AcDbEntity
  8
0
100
AcDbBlockEnd
  0
BLOCK
  5
DBB
100
AcDbEntity
  8
0
100
AcDbBlockBegin
  2
*D17
 70
     1
 10
0.0
 20
0.0
 30
0.0
  3
*D17
  1

  0
LINE
  5
DBC
100
AcDbEntity
  8
0
  6
BYBLOCK
 62
     0
100
AcDbLine
 10
-111.251126
 20
505.305145
 30
0.0
 11
-111.251126
 21
533.98759
 31
0.0
  0
LINE
  5
DBD
100
AcDbEntity
  8
0
  6
BYBLOCK
 62
     0
100
AcDbLine
 10
738.748874
 20
505.305145
 30
0.0
 11
738.748874
 21
533.98759
 31
0.0
  0
LINE
  5
DBE
100
AcDbEntity
  8
0
  6
BYBLOCK
 62
     0
100
AcDbLine
 10
-96.251126
 20
532.73759
 30
0.0
 11
723.748874
 21
532.73759
 31
0.0
  0
INSERT
  5
DBF
100
AcDbEntity
  8
0
  6
BYBLOCK
 62
     0
100
AcDbBlockReference
  2
_OPEN
 10
-111.251126
 20
532.73759
 30
0.0
 41
15.0
 42
15.0
 43
15.0
 50
180.0
  0
INSERT
  5
DC0
100
AcDbEntity
  8
0
  6
BYBLOCK
 62
     0
100
AcDbBlockReference
  2
_OPEN
 10
738.748874
 20
532.73759
 30
0.0
 41
15.0
 42
15.0
 43
15.0
  0
MTEXT
  5
DC1
100
AcDbEntity
  8
0
  6
BYBLOCK
 62
     0
100
AcDbMText
 10
313.748874
 20
548.23759
 30
0.0
 40
25.0
 41
0.0
 71
     5
 72
     1
  1
\A1;850
  7
ED-VENT
  0
POINT
  5
DC2
100
AcDbEntity
  8
DEFPOINTS
  6
BYBLOCK
 62
     0
100
AcDbPoint
 10
-111.251126
 20
504.680145
 30
0.0
  0
POINT
  5
DC3
100
AcDbEntity
  8
DEFPOINTS
  6
BYBLOCK
 62
     0
100
AcDbPoint
 10
738.748874
 20
504.680145
 30
0.0
  0
POINT
  5
DC4
100
AcDbEntity
  8
DEFPOINTS
  6
BYBLOCK
 62
     0
100
AcDbPoint
 10
738.748874
 20
532.73759
 30
0.0
  0
ENDBLK
  5
DC5
100
AcDbEntity
  8
0
100
AcDbBlockEnd
  0
BLOCK
  5
DE9
100
AcDbEntity
  8
0
100
AcDbBlockBegin
  2
*D18
 70
     1
 10
0.0
 20
0.0
 30
0.0
  3
*D18
  1

  0
LINE
  5
DEA
100
AcDbEntity
  8
0
  6
BYBLOCK
 62
     0
100
AcDbLine
 10
-136.251126
 20
246.555145
 30
0.0
 11
-136.251126
 21
140.23088
 31
0.0
  0
LINE
  5
DEB
100
AcDbEntity
  8
0
  6
BYBLOCK
 62
     0
100
AcDbLine
 10
-111.251126
 20
189.055145
 30
0.0
 11
-111.251126
 21
140.23088
 31
0.0
  0
LINE
  5
DEC
100
AcDbEntity
  8
0
  6
BYBLOCK
 62
     0
100
AcDbLine
 10
-151.251126
 20
141.48088
 30
0.0
 11
-166.251126
 21
141.48088
 31
0.0
  0
LINE
  5
DED
100
AcDbEntity
  8
0
  6
BYBLOCK
 62
     0
100
AcDbLine
 10
-96.251126
 20
141.48088
 30
0.0
 11
-46.080749
 21
141.48088
 31
0.0
  0
LINE
  5
DEE
100
AcDbEntity
  8
0
  6
BYBLOCK
 62
     0
100
AcDbLine
 10
-136.251126
 20
141.48088
 30
0.0
 11
-111.251126
 21
141.48088
 31
0.0
  0
INSERT
  5
DEF
100
AcDbEntity
  8
0
  6
BYBLOCK
 62
     0
100
AcDbBlockReference
  2
_OPEN
 10
-136.251126
 20
141.48088
 30
0.0
 41
15.0
 42
15.0
 43
15.0
  0
INSERT
  5
DF0
100
AcDbEntity
  8
0
  6
BYBLOCK
 62
     0
100
AcDbBlockReference
  2
_OPEN
 10
-111.251126
 20
141.48088
 30
0.0
 41
15.0
 42
15.0
 43
15.0
 50
180.0
  0
MTEXT
  5
DF1
100
AcDbEntity
  8
0
  6
BYBLOCK
 62
     0
100
AcDbMText
 10
-63.665937
 20
156.983341
 30
0.0
 40
25.0
 41
0.0
 71
     5
 72
     1
  1
\A1;25
  7
ED-VENT
  0
POINT
  5
DF2
100
AcDbEntity
  8
DEFPOINTS
  6
BYBLOCK
 62
     0
100
AcDbPoint
 10
-136.251126
 20
247.180145
 30
0.0
  0
POINT
  5
DF3
100
AcDbEntity
  8
DEFPOINTS
  6
BYBLOCK
 62
     0
100
AcDbPoint
 10
-111.251126
 20
189.680145
 30
0.0
  0
POINT
  5
DF4
100
AcDbEntity
  8
DEFPOINTS
  6
BYBLOCK
 62
     0
100
AcDbPoint
 10
-111.251126
 20
141.48088
 30
0.0
  0
ENDBLK
  5
DF5
100
AcDbEntity
  8
0
100
AcDbBlockEnd
  0
BLOCK
  5
DD3
100
AcDbEntity
  8
0
100
AcDbBlockBegin
  2
*D19
 70
     1
 10
0.0
 20
0.0
 30
0.0
  3
*D19
  1

  0
LINE
  5
DD4
100
AcDbEntity
  8
0
  6
BYBLOCK
 62
     0
100
AcDbLine
 10
764.373874
 20
447.180145
 30
0.0
 11
798.461674
 21
447.180145
 31
0.0
  0
LINE
  5
DD5
100
AcDbEntity
  8
0
  6
BYBLOCK
 62
     0
100
AcDbLine
 10
764.373874
 20
247.180145
 30
0.0
 11
798.461674
 21
247.180145
 31
0.0
  0
LINE
  5
DD6
100
AcDbEntity
  8
0
  6
BYBLOCK
 62
     0
100
AcDbLine
 10
797.211674
 20
432.180145
 30
0.0
 11
797.211674
 21
262.180145
 31
0.0
  0
INSERT
  5
DD7
100
AcDbEntity
  8
0
  6
BYBLOCK
 62
     0
100
AcDbBlockReference
  2
_OPEN
 10
797.211674
 20
447.180145
 30
0.0
 41
15.0
 42
15.0
 43
15.0
 50
90.0
  0
INSERT
  5
DD8
100
AcDbEntity
  8
0
  6
BYBLOCK
 62
     0
100
AcDbBlockReference
  2
_OPEN
 10
797.211674
 20
247.180145
 30
0.0
 41
15.0
 42
15.0
 43
15.0
 50
270.0
  0
MTEXT
  5
DD9
100
AcDbEntity
  8
0
  6
BYBLOCK
 62
     0
100
AcDbMText
 10
781.709213
 20
347.180145
 30
0.0
 40
25.0
 41
0.0
 71
     5
 72
     1
  1
\A1;\U+2205200
  7
ED-VENT
 11
0.0
 21
1.0
 31
0.0
  0
POINT
  5
DDA
100
AcDbEntity
  8
DEFPOINTS
  6
BYBLOCK
 62
     0
100
AcDbPoint
 10
763.748874
 20
447.180145
 30
0.0
  0
POINT
  5
DDB
100
AcDbEntity
  8
DEFPOINTS
  6
BYBLOCK
 62
     0
100
AcDbPoint
 10
763.748874
 20
247.180145
 30
0.0
  0
POINT
  5
DDC
100
AcDbEntity
  8
DEFPOINTS
  6
BYBLOCK
 62
     0
100
AcDbPoint
 10
797.211674
 20
247.180145
 30
0.0
  0
ENDBLK
  5
DDD
100
AcDbEntity
  8
0
100
AcDbBlockEnd
  0
BLOCK
  5
DDE
100
AcDbEntity
  8
0
100
AcDbBlockBegin
  2
*D20
 70
     1
 10
0.0
 20
0.0
 30
0.0
  3
*D20
  1

  0
LINE
  5
DDF
100
AcDbEntity
  8
0
  6
BYBLOCK
 62
     0
100
AcDbLine
 10
739.373874
 20
504.680145
 30
0.0
 11
836.285898
 21
504.680145
 31
0.0
  0
LINE
  5
DE0
100
AcDbEntity
  8
0
  6
BYBLOCK
 62
     0
100
AcDbLine
 10
739.373874
 20
189.680145
 30
0.0
 11
836.285898
 21
189.680145
 31
0.0
  0
LINE
  5
DE1
100
AcDbEntity
  8
0
  6
BYBLOCK
 62
     0
100
AcDbLine
 10
835.035898
 20
489.680145
 30
0.0
 11
835.035898
 21
204.680145
 31
0.0
  0
INSERT
  5
DE2
100
AcDbEntity
  8
0
  6
BYBLOCK
 62
     0
100
AcDbBlockReference
  2
_OPEN
 10
835.035898
 20
504.680145
 30
0.0
 41
15.0
 42
15.0
 43
15.0
 50
90.0
  0
INSERT
  5
DE3
100
AcDbEntity
  8
0
  6
BYBLOCK
 62
     0
100
AcDbBlockReference
  2
_OPEN
 10
835.035898
 20
189.680145
 30
0.0
 41
15.0
 42
15.0
 43
15.0
 50
270.0
  0
MTEXT
  5
DE4
100
AcDbEntity
  8
0
  6
BYBLOCK
 62
     0
100
AcDbMText
 10
819.535898
 20
347.180145
 30
0.0
 40
25.0
 41
0.0
 71
     5
 72
     1
  1
\A1;\U+2205315
  7
ED-VENT
 11
0.0
 21
1.0
 31
0.0
  0
POINT
  5
DE5
100
AcDbEntity
  8
DEFPOINTS
  6
BYBLOCK
 62
     0
100
AcDbPoint
 10
738.748874
 20
504.680145
 30
0.0
  0
POINT
  5
DE6
100
AcDbEntity
  8
DEFPOINTS
  6
BYBLOCK
 62
     0
100
AcDbPoint
 10
738.748874
 20
189.680145
 30
0.0
  0
POINT
  5
DE7
100
AcDbEntity
  8
DEFPOINTS
  6
BYBLOCK
 62
     0
100
AcDbPoint
 10
835.035898
 20
189.680145
 30
0.0
  0
ENDBLK
  5
DE8
100
AcDbEntity
  8
0
100
AcDbBlockEnd
  0
ENDSEC
  0
SECTION
  2
ENTITIES
  0
LINE
  5
D1E
100
AcDbEntity
  8
V0-VYPLNE
  6
DASHDOT
 62
    63
 48
3.0
100
AcDbLine
 10
-151.906846
 20
347.180145
 30
0.0
 11
774.693027
 21
347.180145
 31
0.0
  0
LINE
  5
D1F
100
AcDbEntity
  8
V0-OBRYS
 62
    90
100
AcDbLine
 10
-111.251126
 20
347.180145
 30
0.0
 11
-111.251126
 21
504.680145
 31
0.0
  0
LINE
  5
D20
100
AcDbEntity
  8
V0-OBRYS
 62
    90
100
AcDbLine
 10
-111.251126
 20
504.680145
 30
0.0
 11
163.748874
 21
504.680145
 31
0.0
  0
LINE
  5
D21
100
AcDbEntity
  8
V0-OBRYS
 62
    90
100
AcDbLine
 10
-136.251126
 20
347.180145
 30
0.0
 11
-136.251126
 21
447.180145
 31
0.0
  0
LINE
  5
D22
100
AcDbEntity
  8
V0-OBRYS
 62
    90
100
AcDbLine
 10
-136.251126
 20
447.180145
 30
0.0
 11
-111.251126
 21
447.180145
 31
0.0
  0
LINE
  5
D23
100
AcDbEntity
  8
V0-OBRYS
 62
    90
100
AcDbLine
 10
-131.247705
 20
347.180145
 30
0.0
 11
-131.247705
 21
449.991677
 31
0.0
  0
LINE
  5
D24
100
AcDbEntity
  8
V0-OBRYS
 62
    90
100
AcDbLine
 10
-131.247705
 20
449.991677
 30
0.0
 11
-129.081815
 21
449.991677
 31
0.0
  0
LINE
  5
D25
100
AcDbEntity
  8
V0-OBRYS
 62
    90
100
AcDbLine
 10
-129.081815
 20
449.991677
 30
0.0
 11
-129.081815
 21
347.180145
 31
0.0
  0
LINE
  5
D26
100
AcDbEntity
  8
V0-OBRYS
 62
    90
100
AcDbLine
 10
-111.251126
 20
189.680145
 30
0.0
 11
163.748874
 21
189.680145
 31
0.0
  0
LINE
  5
D27
100
AcDbEntity
  8
V0-OBRYS
 62
    90
100
AcDbLine
 10
-111.251126
 20
347.180145
 30
0.0
 11
-111.251126
 21
189.680145
 31
0.0
  0
LINE
  5
D28
100
AcDbEntity
  8
V0-OBRYS
 62
    90
100
AcDbLine
 10
-136.251126
 20
247.180145
 30
0.0
 11
-111.251126
 21
247.180145
 31
0.0
  0
LINE
  5
D29
100
AcDbEntity
  8
V0-OBRYS
 62
    90
100
AcDbLine
 10
-129.081815
 20
244.368613
 30
0.0
 11
-129.081815
 21
347.180145
 31
0.0
  0
LINE
  5
D2A
100
AcDbEntity
  8
V0-OBRYS
 62
    90
100
AcDbLine
 10
-131.247705
 20
347.180145
 30
0.0
 11
-131.247705
 21
244.368613
 31
0.0
  0
LINE
  5
D2B
100
AcDbEntity
  8
V0-OBRYS
 62
    90
100
AcDbLine
 10
-136.251126
 20
347.180145
 30
0.0
 11
-136.251126
 21
247.180145
 31
0.0
  0
LINE
  5
D2C
100
AcDbEntity
  8
V0-OBRYS
 62
    90
100
AcDbLine
 10
-131.247705
 20
244.368613
 30
0.0
 11
-129.081815
 21
244.368613
 31
0.0
  0
LINE
  5
D2D
100
AcDbEntity
  8
V0-OBRYS
 62
    90
100
AcDbLine
 10
738.748874
 20
189.680145
 30
0.0
 11
163.748874
 21
189.680145
 31
0.0
  0
LINE
  5
D2E
100
AcDbEntity
  8
V0-OBRYS
 62
    90
100
AcDbLine
 10
738.748874
 20
504.680145
 30
0.0
 11
163.748874
 21
504.680145
 31
0.0
  0
LINE
  5
D2F
100
AcDbEntity
  8
V0-OBRYS
 62
    90
100
AcDbLine
 10
763.748874
 20
347.180145
 30
0.0
 11
763.748874
 21
247.180145
 31
0.0
  0
LINE
  5
D30
100
AcDbEntity
  8
V0-OBRYS
 62
    90
100
AcDbLine
 10
758.745453
 20
347.180145
 30
0.0
 11
758.745453
 21
244.368613
 31
0.0
  0
LINE
  5
D31
100
AcDbEntity
  8
V0-OBRYS
 62
    90
100
AcDbLine
 10
756.579564
 20
244.368613
 30
0.0
 11
756.579564
 21
347.180145
 31
0.0
  0
LINE
  5
D32
100
AcDbEntity
  8
V0-OBRYS
 62
    90
100
AcDbLine
 10
738.748874
 20
347.180145
 30
0.0
 11
738.748874
 21
189.680145
 31
0.0
  0
LINE
  5
D33
100
AcDbEntity
  8
V0-OBRYS
 62
    90
100
AcDbLine
 10
763.748874
 20
247.180145
 30
0.0
 11
738.748874
 21
247.180145
 31
0.0
  0
LINE
  5
D34
100
AcDbEntity
  8
V0-OBRYS
 62
    90
100
AcDbLine
 10
758.745453
 20
244.368613
 30
0.0
 11
756.579564
 21
244.368613
 31
0.0
  0
LINE
  5
D35
100
AcDbEntity
  8
V0-OBRYS
 62
    90
100
AcDbLine
 10
738.748874
 20
347.180145
 30
0.0
 11
738.748874
 21
504.680145
 31
0.0
  0
LINE
  5
D36
100
AcDbEntity
  8
V0-OBRYS
 62
    90
100
AcDbLine
 10
763.748874
 20
447.180145
 30
0.0
 11
738.748874
 21
447.180145
 31
0.0
  0
LINE
  5
D37
100
AcDbEntity
  8
V0-OBRYS
 62
    90
100
AcDbLine
 10
756.579564
 20
449.991677
 30
0.0
 11
756.579564
 21
347.180145
 31
0.0
  0
LINE
  5
D38
100
AcDbEntity
  8
V0-OBRYS
 62
    90
100
AcDbLine
 10
758.745453
 20
347.180145
 30
0.0
 11
758.745453
 21
449.991677
 31
0.0
  0
LINE
  5
D39
100
AcDbEntity
  8
V0-OBRYS
 62
    90
100
AcDbLine
 10
763.748874
 20
347.180145
 30
0.0
 11
763.748874
 21
447.180145
 31
0.0
  0
LINE
  5
D3A
100
AcDbEntity
  8
V0-OBRYS
 62
    90
100
AcDbLine
 10
758.745453
 20
449.991677
 30
0.0
 11
756.579564
 21
449.991677
 31
0.0
  0
DIMENSION
  5
D3B
100
AcDbEntity
  8
V0-VYPLNE
 62
    41
100
AcDbDimension
  2
*D16
 10
763.748874
 20
570.524398
 30
0.0
 11
313.748874
 21
586.024398
 31
0.0
 70
    32
  3
STANDARD
100
AcDbAlignedDimension
 13
-136.251126
 23
447.180145
 33
0.0
 14
763.748874
 24
447.180145
 34
0.0
100
AcDbRotatedDimension
1001
ACAD
1000
DSTYLE
1002
{
1070
   140
1040
15.0
1070
   340
1005
5B5
1070
    41
1040
15.0
1002
}
  0
DIMENSION
  5
D3C
100
AcDbEntity
  8
V0-VYPLNE
 62
    41
100
AcDbDimension
  2
*D17
 10
738.748874
 20
532.73759
 30
0.0
 11
313.748874
 21
548.23759
 31
0.0
 70
    32
  3
STANDARD
100
AcDbAlignedDimension
 13
-111.251126
 23
504.680145
 33
0.0
 14
738.748874
 24
504.680145
 34
0.0
100
AcDbRotatedDimension
1001
ACAD
1000
DSTYLE
1002
{
1070
   140
1040
15.0
1070
   340
1005
5B5
1070
    41
1040
15.0
1002
}
  0
DIMENSION
  5
D3D
100
AcDbEntity
  8
V0-VYPLNE
 62
    41
100
AcDbDimension
  2
*D18
 10
-111.251126
 20
141.48088
 30
0.0
 11
-63.665937
 21
141.48088
 31
0.0
 70
   160
  3
STANDARD
100
AcDbAlignedDimension
 13
-136.251126
 23
247.180145
 33
0.0
 14
-111.251126
 24
189.680145
 34
0.0
100
AcDbRotatedDimension
1001
ACAD
1000
DSTYLE
1002
{
1070
   140
1040
15.0
1070
   340
1005
5B5
1070
    41
1040
15.0
1002
}
  0
DIMENSION
  5
D3E
100
AcDbEntity
  8
V0-VYPLNE
 62
    41
100
AcDbDimension
  2
*D19
 10
797.211674
 20
247.180145
 30
0.0
 11
781.709213
 21
347.180145
 31
0.0
 70
    32
  1
%%c<>
  3
STANDARD
100
AcDbAlignedDimension
 13
763.748874
 23
447.180145
 33
0.0
 14
763.748874
 24
247.180145
 34
0.0
 50
90.0
100
AcDbRotatedDimension
1001
ACAD
1000
DSTYLE
1002
{
1070
   140
1040
15.0
1070
   340
1005
5B5
1070
    41
1040
15.0
1002
}
  0
DIMENSION
  5
D3F
100
AcDbEntity
  8
V0-VYPLNE
 62
    41
100
AcDbDimension
  2
*D20
 10
835.035898
 20
189.680145
 30
0.0
 11
819.535898
 21
347.180145
 31
0.0
 70
    32
  1
%%c<>
  3
STANDARD
100
AcDbAlignedDimension
 13
738.748874
 23
504.680145
 33
0.0
 14
738.748874
 24
189.680145
 34
0.0
 50
90.0
100
AcDbRotatedDimension
1001
ACAD
1000
DSTYLE
1002
{
1070
   140
1040
15.0
1070
   340
1005
5B5
1070
    41
1040
15.0
1002
}
  0
LINE
  5
D40
100
AcDbEntity
  8
V0-VYPLNE
  6
DASHDOT
 62
    63
 48
3.0
100
AcDbLine
 10
909.005389
 20
347.180145
 30
0.0
 11
1268.591887
 21
347.180145
 31
0.0
  0
LINE
  5
D42
100
AcDbEntity
  8
V0-VYPLNE
  6
DASHDOT
 62
    63
 48
3.0
100
AcDbLine
 10
1089.099268
 20
526.947197
 30
0.0
 11
1089.099268
 21
151.759766
 31
0.0
  0
TEXT
  5
D43
100
AcDbEntity
  8
V0-ZBYTEK
 62
   130
 48
2.0
100
AcDbText
 10
898.817702
 20
-71.23503
 30
0.0
 40
45.0
  1
TLUMIC HLUKU
 72
     1
 11
1090.180202
 21
-71.23503
 31
0.0
100
AcDbText
  0
TEXT
  5
D44
100
AcDbEntity
  8
V0-ZBYTEK
 62
    51
 48
2.0
100
AcDbText
 10
876.579998
 20
-160.475537
 30
0.0
 40
30.0
  1
PRO KRUHOVA POTRUBI
 72
     1
 11
1088.154998
 21
-160.475537
 31
0.0
100
AcDbText
  0
TEXT
  5
D45
100
AcDbEntity
  8
V0-NAZVY
 62
   210
100
AcDbText
 10
841.05175
 20
21.76497
 30
0.0
 40
60.0
  1
MAA-200-900
 72
     1
 11
1090.180202
 21
21.76497
 31
0.0
100
AcDbText
  0
POINT
  5
D46
100
AcDbEntity
  8
V0-VYPLNE
 62
    52
100
AcDbPoint
 10
-111.251126
 20
347.180145
 30
0.0
  0
POINT
  5
D47
100
AcDbEntity
  8
V0-VYPLNE
 62
    52
100
AcDbPoint
 10
1089.099268
 20
347.180145
 30
0.0
  0
CIRCLE
  5
D48
100
AcDbEntity
  8
V0-OBRYS
 62
    90
100
AcDbCircle
 10
1089.099268
 20
347.180145
 30
0.0
 40
157.5
  0
CIRCLE
  5
D49
100
AcDbEntity
  8
V0-OBRYS
 62
    90
100
AcDbCircle
 10
1089.099268
 20
347.180145
 30
0.0
 40
100.0
  0
CIRCLE
  5
D4A
100
AcDbEntity
  8
V0-OBRYS
 62
    90
100
AcDbCircle
 10
1089.099268
 20
347.180145
 30
0.0
 40
100.0
  0
CIRCLE
  5
D4B
100
AcDbEntity
  8
V0-OBRYS
 62
    90
100
AcDbCircle
 10
1089.099268
 20
347.180145
 30
0.0
 40
100.0
  0
CIRCLE
  5
D4C
100
AcDbEntity
  8
V0-OBRYS
 62
    90
100
AcDbCircle
 10
1089.099268
 20
347.180145
 30
0.0
 40
108.553108
  0
LINE
  5
D4D
100
AcDbEntity
  8
V0-OBRYS
 62
    90
100
AcDbLine
 10
738.748874
 20
62.090965
 30
0.0
 11
163.748874
 21
62.090965
 31
0.0
  0
LINE
  5
D4E
100
AcDbEntity
  8
V0-VYPLNE
  6
DASHDOT
 62
    63
 48
3.0
100
AcDbLine
 10
-151.906846
 20
-95.409035
 30
0.0
 11
774.693027
 21
-95.409035
 31
0.0
  0
LINE
  5
D4F
100
AcDbEntity
  8
V0-OBRYS
 62
    90
100
AcDbLine
 10
738.748874
 20
-252.909035
 30
0.0
 11
163.748874
 21
-252.909035
 31
0.0
  0
LINE
  5
D50
100
AcDbEntity
  8
V0-OBRYS
 62
    90
100
AcDbLine
 10
-111.251126
 20
-95.409035
 30
0.0
 11
-111.251126
 21
-252.909035
 31
0.0
  0
LINE
  5
D51
100
AcDbEntity
  8
V0-OBRYS
 62
    90
100
AcDbLine
 10
-111.251126
 20
-252.909035
 30
0.0
 11
163.748874
 21
-252.909035
 31
0.0
  0
LINE
  5
D52
100
AcDbEntity
  8
V0-OBRYS
 62
    90
100
AcDbLine
 10
-111.251126
 20
62.090965
 30
0.0
 11
163.748874
 21
62.090965
 31
0.0
  0
LINE
  5
D53
100
AcDbEntity
  8
V0-OBRYS
 62
    90
100
AcDbLine
 10
-129.081815
 20
7.402497
 30
0.0
 11
-129.081815
 21
-95.409035
 31
0.0
  0
LINE
  5
D54
100
AcDbEntity
  8
V0-OBRYS
 62
    90
100
AcDbLine
 10
-131.247705
 20
-95.409035
 30
0.0
 11
-131.247705
 21
7.402497
 31
0.0
  0
LINE
  5
D55
100
AcDbEntity
  8
V0-OBRYS
 62
    90
100
AcDbLine
 10
-136.251126
 20
-95.409035
 30
0.0
 11
-136.251126
 21
4.590965
 31
0.0
  0
LINE
  5
D56
100
AcDbEntity
  8
V0-OBRYS
 62
    90
100
AcDbLine
 10
-111.251126
 20
-95.409035
 30
0.0
 11
-111.251126
 21
62.090965
 31
0.0
  0
LINE
  5
D57
100
AcDbEntity
  8
V0-OBRYS
 62
    90
100
AcDbLine
 10
-136.251126
 20
-95.409035
 30
0.0
 11
-136.251126
 21
-195.409035
 31
0.0
  0
LINE
  5
D58
100
AcDbEntity
  8
V0-OBRYS
 62
    90
100
AcDbLine
 10
-131.247705
 20
-95.409035
 30
0.0
 11
-131.247705
 21
-198.220567
 31
0.0
  0
LINE
  5
D59
100
AcDbEntity
  8
V0-OBRYS
 62
    90
100
AcDbLine
 10
-129.081815
 20
-198.220567
 30
0.0
 11
-129.081815
 21
-95.409035
 31
0.0
  0
LINE
  5
D5A
100
AcDbEntity
  8
V0-OBRYS
 62
    90
100
AcDbLine
 10
-136.251126
 20
-195.409035
 30
0.0
 11
-111.251126
 21
-195.409035
 31
0.0
  0
LINE
  5
D5B
100
AcDbEntity
  8
V0-OBRYS
 62
    90
100
AcDbLine
 10
-131.247705
 20
-198.220567
 30
0.0
 11
-129.081815
 21
-198.220567
 31
0.0
  0
POINT
  5
D5C
100
AcDbEntity
  8
V0-VYPLNE
 62
    52
100
AcDbPoint
 10
-111.251126
 20
-95.409035
 30
0.0
  0
LINE
  5
D5D
100
AcDbEntity
  8
V0-OBRYS
 62
    90
100
AcDbLine
 10
-136.251126
 20
4.590965
 30
0.0
 11
-111.251126
 21
4.590965
 31
0.0
  0
LINE
  5
D5E
100
AcDbEntity
  8
V0-OBRYS
 62
    90
100
AcDbLine
 10
-131.247705
 20
7.402497
 30
0.0
 11
-129.081815
 21
7.402497
 31
0.0
  0
LINE
  5
D5F
100
AcDbEntity
  8
V0-OBRYS
 62
    90
100
AcDbLine
 10
738.748874
 20
-95.409035
 30
0.0
 11
738.748874
 21
-252.909035
 31
0.0
  0
LINE
  5
D60
100
AcDbEntity
  8
V0-OBRYS
 62
    90
100
AcDbLine
 10
738.748874
 20
-95.409035
 30
0.0
 11
738.748874
 21
62.090965
 31
0.0
  0
LINE
  5
D61
100
AcDbEntity
  8
V0-OBRYS
 62
    90
100
AcDbLine
 10
756.579564
 20
7.402497
 30
0.0
 11
756.579564
 21
-95.409035
 31
0.0
  0
LINE
  5
D62
100
AcDbEntity
  8
V0-OBRYS
 62
    90
100
AcDbLine
 10
758.745453
 20
-95.409035
 30
0.0
 11
758.745453
 21
7.402497
 31
0.0
  0
LINE
  5
D63
100
AcDbEntity
  8
V0-OBRYS
 62
    90
100
AcDbLine
 10
763.748874
 20
-95.409035
 30
0.0
 11
763.748874
 21
4.590965
 31
0.0
  0
LINE
  5
D64
100
AcDbEntity
  8
V0-OBRYS
 62
    90
100
AcDbLine
 10
763.748874
 20
-95.409035
 30
0.0
 11
763.748874
 21
-195.409035
 31
0.0
  0
LINE
  5
D65
100
AcDbEntity
  8
V0-OBRYS
 62
    90
100
AcDbLine
 10
758.745453
 20
-95.409035
 30
0.0
 11
758.745453
 21
-198.220567
 31
0.0
  0
LINE
  5
D66
100
AcDbEntity
  8
V0-OBRYS
 62
    90
100
AcDbLine
 10
756.579564
 20
-198.220567
 30
0.0
 11
756.579564
 21
-95.409035
 31
0.0
  0
LINE
  5
D67
100
AcDbEntity
  8
V0-OBRYS
 62
    90
100
AcDbLine
 10
763.748874
 20
-195.409035
 30
0.0
 11
738.748874
 21
-195.409035
 31
0.0
  0
LINE
  5
D68
100
AcDbEntity
  8
V0-OBRYS
 62
    90
100
AcDbLine
 10
758.745453
 20
-198.220567
 30
0.0
 11
756.579564
 21
-198.220567
 31
0.0
  0
LINE
  5
D69
100
AcDbEntity
  8
V0-OBRYS
 62
    90
100
AcDbLine
 10
763.748874
 20
4.590965
 30
0.0
 11
738.748874
 21
4.590965
 31
0.0
  0
LINE
  5
D6A
100
AcDbEntity
  8
V0-OBRYS
 62
    90
100
AcDbLine
 10
758.745453
 20
7.402497
 30
0.0
 11
756.579564
 21
7.402497
 31
0.0
  0
TEXT
  5
D6B
100
AcDbEntity
  8
V0-NAZVY
 62
   210
100
AcDbText
 10
143.661111
 20
397.401103
 30
0.0
 40
40.0
  1
MAA-200-900
 72
     1
 11
309.746746
 21
397.401103
 31
0.0
100
AcDbText
  0
TEXT
  5
D6C
100
AcDbEntity
  8
V0-NAZVY
 62
   210
100
AcDbText
 10
146.325744
 20
-73.930619
 30
0.0
 40
40.0
  1
MAA-200-900
 72
     1
 11
312.411379
 21
-73.930619
 31
0.0
100
AcDbText
  0
TEXT
  5
D6D
100
AcDbEntity
  8
V0-NAZVY
 62
   210
100
AcDbText
 10
915.253349
 20
541.245038
 30
0.0
 40
40.0
  1
MAA-200-900
 72
     1
 11
1081.338983
 21
541.245038
 31
0.0
100
AcDbText
  0
LINE
  5
D6E
100
AcDbEntity
  8
V0-VYPLNE
  6
DASHED
 62
    56
 48
3.0
100
AcDbLine
 10
-110.32272
 20
458.580944
 30
0.0
 11
738.562211
 21
458.580944
 31
0.0
  0
LINE
  5
D6F
100
AcDbEntity
  8
V0-VYPLNE
  6
DASHED
 62
    56
 48
3.0
100
AcDbLine
 10
-110.32272
 20
235.779346
 30
0.0
 11
738.562211
 21
235.779346
 31
0.0
  0
LINE
  5
D70
100
AcDbEntity
  8
V0-VYPLNE
  6
DASHED
 62
    56
 48
3.0
100
AcDbLine
 10
-110.32272
 20
15.991764
 30
0.0
 11
738.562211
 21
15.991764
 31
0.0
  0
LINE
  5
D71
100
AcDbEntity
  8
V0-VYPLNE
  6
DASHED
 62
    56
 48
3.0
100
AcDbLine
 10
-110.32272
 20
-206.809834
 30
0.0
 11
738.562211
 21
-206.809834
 31
0.0
  0
VIEWPORT
  5
22
100
AcDbEntity
 67
     1
  8
0
100
AcDbViewport
 10
261.517699
 20
148.5
 30
0.0
 40
523.035398
 41
297.0
 68
    -1
 69
     1
1001
ACAD
1000
MVIEW
1002
{
1070
    16
1010
0.0
1020
0.0
1030
0.0
1010
0.0
1020
0.0
1030
1.0
1040
0.0
1040
297.0
1040
261.517699
1040
148.5
1040
50.0
1040
0.0
1040
0.0
1070
     0
1070
   100
1070
     1
1070
     1
1070
     0
1070
     0
1070
     0
1070
     0
1040
0.0
1040
0.0
1040
0.0
1040
1.0
1040
1.0
1040
10.0
1040
10.0
1070
     0
1002
{
1002
}
1002
}
  0
ENDSEC
  0
SECTION
  2
OBJECTS
  0
DICTIONARY
  5
C
100
AcDbDictionary
  3
ACAD_GROUP
350
D
  3
ACAD_MLINESTYLE
350
E
  3
ACDBVARIABLEDICTIONARY
350
5D
  0
DICTIONARY
  5
D
102
{ACAD_REACTORS
330
C
102
}
100
AcDbDictionary
  0
DICTIONARY
  5
E
102
{ACAD_REACTORS
330
C
102
}
100
AcDbDictionary
  3
STANDARD
350
13
  0
DICTIONARY
  5
5D
102
{ACAD_REACTORS
330
C
102
}
100
AcDbDictionary
  3
DIMADEC
350
5E
  3
SORTENTS
350
3D8
  0
MLINESTYLE
  5
13
102
{ACAD_REACTORS
330
E
102
}
100
AcDbMlineStyle
  2
STANDARD
 70
     0
  3

 62
     0
 51
90.0
 52
90.0
 71
     2
 49
0.5
 62
   256
  6
BYLAYER
 49
-0.5
 62
   256
  6
BYLAYER
  0
DICTIONARYVAR
  5
5E
102
{ACAD_REACTORS
330
5D
102
}
100
DictionaryVariables
280
     0
  1
0
  0
DICTIONARYVAR
  5
3D8
102
{ACAD_REACTORS
330
5D
102
}
100
DictionaryVariables
280
     0
  1
96
  0
ENDSEC
  0
EOF
