  0
SECTION
  2
HEADER
  9
$ACADVER
  1
AC1014
  9
$ACADMAINTVER
 70
     0
  9
$DWGCODEPAGE
  3
ANSI_1250
  9
$INSBASE
 10
0.0
 20
0.0
 30
0.0
  9
$EXTMIN
 10
-88.562381
 20
-109.578758
 30
0.0
  9
$EXTMAX
 10
1366.96392
 20
785.505143
 30
0.0
  9
$LIMMIN
 10
0.0
 20
0.0
  9
$LIMMAX
 10
420.0
 20
297.0
  9
$ORTHOMODE
 70
     1
  9
$REGENMODE
 70
     1
  9
$FILLMODE
 70
     1
  9
$QTEXTMODE
 70
     0
  9
$MIRRTEXT
 70
     1
  9
$DRAGMODE
 70
     2
  9
$LTSCALE
 40
1.0
  9
$OSMODE
 70
    15
  9
$ATTMODE
 70
     1
  9
$TEXTSIZE
 40
2.5
  9
$TRACEWID
 40
1.0
  9
$TEXTSTYLE
  7
ED2
  9
$CLAYER
  8
0
  9
$CELTYPE
  6
BYLAYER
  9
$CECOLOR
 62
   256
  9
$CELTSCALE
 40
1.0
  9
$DELOBJ
 70
     1
  9
$DISPSILH
 70
     0
  9
$DIMSCALE
 40
1.0
  9
$DIMASZ
 40
25.0
  9
$DIMEXO
 40
0.625
  9
$DIMDLI
 40
3.75
  9
$DIMRND
 40
0.0
  9
$DIMDLE
 40
0.0
  9
$DIMEXE
 40
1.25
  9
$DIMTP
 40
0.0
  9
$DIMTM
 40
0.0
  9
$DIMTXT
 40
25.0
  9
$DIMCEN
 40
2.5
  9
$DIMTSZ
 40
0.0
  9
$DIMTOL
 70
     0
  9
$DIMLIM
 70
     0
  9
$DIMTIH
 70
     0
  9
$DIMTOH
 70
     0
  9
$DIMSE1
 70
     0
  9
$DIMSE2
 70
     0
  9
$DIMTAD
 70
     1
  9
$DIMZIN
 70
     8
  9
$DIMBLK
  1

  9
$DIMASO
 70
     1
  9
$DIMSHO
 70
     1
  9
$DIMPOST
  1

  9
$DIMAPOST
  1

  9
$DIMALT
 70
     0
  9
$DIMALTD
 70
     4
  9
$DIMALTF
 40
0.0394
  9
$DIMLFAC
 40
1.0
  9
$DIMTOFL
 70
     1
  9
$DIMTVP
 40
0.0
  9
$DIMTIX
 70
     0
  9
$DIMSOXD
 70
     0
  9
$DIMSAH
 70
     1
  9
$DIMBLK1
  1
_OPEN
  9
$DIMBLK2
  1
_OPEN
  9
$DIMSTYLE
  2
ED2
  9
$DIMCLRD
 70
     0
  9
$DIMCLRE
 70
     0
  9
$DIMCLRT
 70
     0
  9
$DIMTFAC
 40
1.0
  9
$DIMGAP
 40
5.0
  9
$DIMJUST
 70
     0
  9
$DIMSD1
 70
     0
  9
$DIMSD2
 70
     0
  9
$DIMTOLJ
 70
     1
  9
$DIMTZIN
 70
     8
  9
$DIMALTZ
 70
     0
  9
$DIMALTTZ
 70
     0
  9
$DIMFIT
 70
     3
  9
$DIMUPT
 70
     0
  9
$DIMUNIT
 70
     2
  9
$DIMDEC
 70
     0
  9
$DIMTDEC
 70
     1
  9
$DIMALTU
 70
     8
  9
$DIMALTTD
 70
     4
  9
$DIMTXSTY
  7
ED2
  9
$DIMAUNIT
 70
     0
  9
$LUNITS
 70
     2
  9
$LUPREC
 70
     4
  9
$SKETCHINC
 40
1.0
  9
$FILLETRAD
 40
10.0
  9
$AUNITS
 70
     0
  9
$AUPREC
 70
     0
  9
$MENU
  1
.
  9
$ELEVATION
 40
0.0
  9
$PELEVATION
 40
0.0
  9
$THICKNESS
 40
0.0
  9
$LIMCHECK
 70
     0
  9
$BLIPMODE
 70
     0
  9
$CHAMFERA
 40
10.0
  9
$CHAMFERB
 40
10.0
  9
$CHAMFERC
 40
20.0
  9
$CHAMFERD
 40
0.0
  9
$SKPOLY
 70
     1
  9
$TDCREATE
 40
2451196.643769328
  9
$TDUPDATE
 40
2453315.433773263
  9
$TDINDWG
 40
0.1381968287
  9
$TDUSRTIMER
 40
0.1381968287
  9
$USRTIMER
 70
     1
  9
$ANGBASE
 50
0.0
  9
$ANGDIR
 70
     0
  9
$PDMODE
 70
     3
  9
$PDSIZE
 40
15.0
  9
$PLINEWID
 40
0.0
  9
$COORDS
 70
     1
  9
$SPLFRAME
 70
     0
  9
$SPLINETYPE
 70
     6
  9
$SPLINESEGS
 70
     8
  9
$ATTDIA
 70
     0
  9
$ATTREQ
 70
     1
  9
$HANDLING
 70
     1
  9
$HANDSEED
  5
DEF
  9
$SURFTAB1
 70
     6
  9
$SURFTAB2
 70
     6
  9
$SURFTYPE
 70
     6
  9
$SURFU
 70
     6
  9
$SURFV
 70
     6
  9
$UCSNAME
  2

  9
$UCSORG
 10
1044.835013434384
 20
-473.8987792018146
 30
0.0
  9
$UCSXDIR
 10
1.0
 20
0.0
 30
0.0
  9
$UCSYDIR
 10
0.0
 20
1.0
 30
0.0
  9
$PUCSNAME
  2

  9
$PUCSORG
 10
0.0
 20
0.0
 30
0.0
  9
$PUCSXDIR
 10
1.0
 20
0.0
 30
0.0
  9
$PUCSYDIR
 10
0.0
 20
1.0
 30
0.0
  9
$USERI1
 70
     0
  9
$USERI2
 70
     0
  9
$USERI3
 70
     0
  9
$USERI4
 70
     0
  9
$USERI5
 70
     0
  9
$USERR1
 40
0.0
  9
$USERR2
 40
0.0
  9
$USERR3
 40
0.0
  9
$USERR4
 40
0.0
  9
$USERR5
 40
0.0
  9
$WORLDVIEW
 70
     1
  9
$SHADEDGE
 70
     3
  9
$SHADEDIF
 70
    70
  9
$TILEMODE
 70
     1
  9
$MAXACTVP
 70
    48
  9
$PINSBASE
 10
0.0
 20
0.0
 30
0.0
  9
$PLIMCHECK
 70
     0
  9
$PEXTMIN
 10
1.000000E+20
 20
1.000000E+20
 30
1.000000E+20
  9
$PEXTMAX
 10
-1.000000E+20
 20
-1.000000E+20
 30
-1.000000E+20
  9
$PLIMMIN
 10
0.0
 20
0.0
  9
$PLIMMAX
 10
420.0
 20
297.0
  9
$UNITMODE
 70
     0
  9
$VISRETAIN
 70
     1
  9
$PLINEGEN
 70
     0
  9
$PSLTSCALE
 70
     1
  9
$TREEDEPTH
 70
  3020
  9
$PICKSTYLE
 70
     1
  9
$CMLSTYLE
  2
STANDARD
  9
$CMLJUST
 70
     0
  9
$CMLSCALE
 40
1.0
  9
$PROXYGRAPHICS
 70
     1
  9
$MEASUREMENT
 70
     1
  0
ENDSEC
  0
SECTION
  2
CLASSES
  0
CLASS
  1
DICTIONARYVAR
  2
AcDbDictionaryVar
  3
"AutoCAD"
 90
        0
280
     0
281
     0
  0
CLASS
  1
LWPOLYLINE
  2
AcDbPolyline
  3
"AutoCAD"
 90
        0
280
     0
281
     1
  0
CLASS
  1
HATCH
  2
AcDbHatch
  3
"ACAD_SEDONA"
 90
        0
280
     0
281
     1
  0
ENDSEC
  0
SECTION
  2
TABLES
  0
TABLE
  2
VPORT
  5
8
100
AcDbSymbolTable
 70
     2
  0
VPORT
  5
DEE
100
AcDbSymbolTableRecord
100
AcDbViewportTableRecord
  2
*ACTIVE
 70
     0
 10
0.0
 20
0.0
 11
1.0
 21
1.0
 12
637.581166
 22
357.999611
 13
0.0
 23
0.0
 14
10.0
 24
10.0
 15
10.0
 25
10.0
 16
0.0
 26
0.0
 36
1.0
 17
0.0
 27
0.0
 37
0.0
 40
1019.276473
 41
1.523346
 42
50.0
 43
0.0
 44
0.0
 50
0.0
 51
0.0
 71
     0
 72
   100
 73
     1
 74
     1
 75
     0
 76
     0
 77
     0
 78
     0
  0
ENDTAB
  0
TABLE
  2
LTYPE
  5
5
100
AcDbSymbolTable
 70
     4
  0
LTYPE
  5
14
100
AcDbSymbolTableRecord
100
AcDbLinetypeTableRecord
  2
BYBLOCK
 70
     0
  3

 72
    65
 73
     0
 40
0.0
  0
LTYPE
  5
15
100
AcDbSymbolTableRecord
100
AcDbLinetypeTableRecord
  2
BYLAYER
 70
     0
  3

 72
    65
 73
     0
 40
0.0
  0
LTYPE
  5
16
100
AcDbSymbolTableRecord
100
AcDbLinetypeTableRecord
  2
CONTINUOUS
 70
     0
  3
Solid line
 72
    65
 73
     0
 40
0.0
  0
LTYPE
  5
7F
100
AcDbSymbolTableRecord
100
AcDbLinetypeTableRecord
  2
DASHDOT
 70
     0
  3
Dash dot __ . __ . __ . __ . __ . __ . __ . __
 72
    65
 73
     4
 40
25.4
 49
12.7
 74
     0
 49
-6.35
 74
     0
 49
0.0
 74
     0
 49
-6.35
 74
     0
  0
LTYPE
  5
80
100
AcDbSymbolTableRecord
100
AcDbLinetypeTableRecord
  2
DASHED
 70
     0
  3
Dashed __ __ __ __ __ __ __ __ __ __ __ __ __ _
 72
    65
 73
     2
 40
19.05
 49
12.7
 74
     0
 49
-6.35
 74
     0
  0
LTYPE
  5
5AA
100
AcDbSymbolTableRecord
100
AcDbLinetypeTableRecord
  2
DOT
 70
     0
  3
Dot . . . . . . . . . . . . . . . . . . . . . .
 72
    65
 73
     2
 40
6.35
 49
0.0
 74
     0
 49
-6.35
 74
     0
  0
ENDTAB
  0
TABLE
  2
LAYER
  5
2
100
AcDbSymbolTable
 70
     6
  0
LAYER
  5
F
100
AcDbSymbolTableRecord
100
AcDbLayerTableRecord
  2
0
 70
     0
 62
     7
  6
CONTINUOUS
  0
LAYER
  5
9E
100
AcDbSymbolTableRecord
100
AcDbLayerTableRecord
  2
DEFPOINTS
 70
     0
 62
     7
  6
CONTINUOUS
  0
LAYER
  5
377
100
AcDbSymbolTableRecord
100
AcDbLayerTableRecord
  2
V0-OBRYS
 70
     0
 62
    90
  6
CONTINUOUS
  0
LAYER
  5
378
100
AcDbSymbolTableRecord
100
AcDbLayerTableRecord
  2
V0-VYPLNE
 70
     0
 62
    52
  6
CONTINUOUS
  0
LAYER
  5
37A
100
AcDbSymbolTableRecord
100
AcDbLayerTableRecord
  2
V0-NAZVY
 70
     0
 62
   210
  6
CONTINUOUS
  0
LAYER
  5
559
100
AcDbSymbolTableRecord
100
AcDbLayerTableRecord
  2
V0-ZBYTEK
 70
     0
 62
    51
  6
CONTINUOUS
  0
ENDTAB
  0
TABLE
  2
STYLE
  5
3
100
AcDbSymbolTable
 70
     6
  0
STYLE
  5
10
100
AcDbSymbolTableRecord
100
AcDbTextStyleTableRecord
  2
STANDARD
 70
     0
 40
0.0
 41
1.0
 50
0.0
 71
     0
 42
2.5
  3
ISOCP
  4

  0
STYLE
  5
331
100
AcDbSymbolTableRecord
100
AcDbTextStyleTableRecord
  2
ED
 70
     0
 40
20.0
 41
1.0
 50
0.0
 71
     0
 42
2.5
  3
ISOCP.shx
  4

  0
STYLE
  5
5B3
100
AcDbSymbolTableRecord
100
AcDbTextStyleTableRecord
  2
EDVENT
 70
     0
 40
10.0
 41
1.0
 50
0.0
 71
     0
 42
2.5
  3
ISOCP.shx
  4

  0
STYLE
  5
5B4
100
AcDbSymbolTableRecord
100
AcDbTextStyleTableRecord
  2
E
 70
     0
 40
25.0
 41
1.0
 50
0.0
 71
     0
 42
2.5
  3
ISOCP.shx
  4

  0
STYLE
  5
5B5
100
AcDbSymbolTableRecord
100
AcDbTextStyleTableRecord
  2
ED-VENT
 70
     0
 40
25.0
 41
1.0
 50
0.0
 71
     0
 42
2.5
  3
ISOCP.shx
  4

  0
STYLE
  5
881
100
AcDbSymbolTableRecord
100
AcDbTextStyleTableRecord
  2
ED2
 70
     0
 40
25.0
 41
1.0
 50
0.0
 71
     0
 42
2.5
  3
ISOCP.shx
  4

  0
ENDTAB
  0
TABLE
  2
VIEW
  5
6
100
AcDbSymbolTable
 70
     0
  0
ENDTAB
  0
TABLE
  2
UCS
  5
7
100
AcDbSymbolTable
 70
     0
  0
ENDTAB
  0
TABLE
  2
APPID
  5
9
100
AcDbSymbolTable
 70
     1
  0
APPID
  5
11
100
AcDbSymbolTableRecord
100
AcDbRegAppTableRecord
  2
ACAD
 70
     0
  0
ENDTAB
  0
TABLE
  2
DIMSTYLE
  5
A
100
AcDbSymbolTable
 70
     3
  0
DIMSTYLE
105
1D
100
AcDbSymbolTableRecord
100
AcDbDimStyleTableRecord
  2
STANDARD
 70
     0
  3

  4

  5

  6
_OPEN
  7
_OPEN
 40
0.0
 41
15.0
 42
0.625
 43
3.75
 44
1.25
 45
0.0
 46
0.0
 47
0.0
 48
0.0
140
15.0
141
2.5
142
0.0
143
0.0394
144
1.0
145
0.0
146
1.0
147
3.0
 71
     0
 72
     0
 73
     0
 74
     0
 75
     0
 76
     0
 77
     1
 78
     8
170
     0
171
     4
172
     1
173
     1
174
     0
175
     0
176
     0
177
     0
178
     0
270
     2
271
     0
272
     1
273
     8
274
     4
340
331
275
     0
280
     0
281
     0
282
     0
283
     1
284
     8
285
     0
286
     0
287
     3
288
     0
  0
DIMSTYLE
105
397
100
AcDbSymbolTableRecord
100
AcDbDimStyleTableRecord
  2
ED
 70
     0
  3

  4

  5

  6
_OPEN
  7
_OPEN
 40
0.0
 41
15.0
 42
0.625
 43
3.75
 44
1.25
 45
0.0
 46
0.0
 47
0.0
 48
0.0
140
15.0
141
2.5
142
0.0
143
0.0394
144
1.0
145
0.0
146
1.0
147
3.0
 71
     0
 72
     0
 73
     0
 74
     0
 75
     0
 76
     0
 77
     1
 78
     8
170
     0
171
     4
172
     1
173
     1
174
     0
175
     0
176
     0
177
     0
178
     0
270
     2
271
     0
272
     1
273
     8
274
     4
340
331
275
     0
280
     0
281
     0
282
     0
283
     1
284
     8
285
     0
286
     0
287
     3
288
     0
  0
DIMSTYLE
105
77C
100
AcDbSymbolTableRecord
100
AcDbDimStyleTableRecord
  2
ED2
 70
     0
  3

  4

  5

  6
_OPEN
  7
_OPEN
 40
0.0
 41
25.0
 42
0.625
 43
3.75
 44
1.25
 45
0.0
 46
0.0
 47
0.0
 48
0.0
140
30.0
141
2.5
142
0.0
143
0.0394
144
1.0
145
0.0
146
1.0
147
5.0
 71
     0
 72
     0
 73
     0
 74
     0
 75
     0
 76
     0
 77
     1
 78
     8
170
     0
171
     4
172
     1
173
     1
174
     0
175
     0
176
     0
177
     0
178
     0
270
     2
271
     0
272
     1
273
     8
274
     4
340
331
275
     0
280
     0
281
     0
282
     0
283
     1
284
     8
285
     0
286
     0
287
     3
288
     0
  0
ENDTAB
  0
TABLE
  2
BLOCK_RECORD
  5
1
100
AcDbSymbolTable
 70
     6
  0
BLOCK_RECORD
  5
1A
100
AcDbSymbolTableRecord
100
AcDbBlockTableRecord
  2
*MODEL_SPACE
  0
BLOCK_RECORD
  5
17
100
AcDbSymbolTableRecord
100
AcDbBlockTableRecord
  2
*PAPER_SPACE
  0
BLOCK_RECORD
  5
90
100
AcDbSymbolTableRecord
100
AcDbBlockTableRecord
  2
_OPEN
  0
BLOCK_RECORD
  5
D6F
100
AcDbSymbolTableRecord
100
AcDbBlockTableRecord
  2
*D1
  0
BLOCK_RECORD
  5
D7B
100
AcDbSymbolTableRecord
100
AcDbBlockTableRecord
  2
*D2
  0
BLOCK_RECORD
  5
D87
100
AcDbSymbolTableRecord
100
AcDbBlockTableRecord
  2
*D3
  0
BLOCK_RECORD
  5
D95
100
AcDbSymbolTableRecord
100
AcDbBlockTableRecord
  2
*D4
  0
BLOCK_RECORD
  5
DA1
100
AcDbSymbolTableRecord
100
AcDbBlockTableRecord
  2
*D5
  0
ENDTAB
  0
ENDSEC
  0
SECTION
  2
BLOCKS
  0
BLOCK
  5
1B
100
AcDbEntity
  8
0
100
AcDbBlockBegin
  2
*MODEL_SPACE
 70
     0
 10
0.0
 20
0.0
 30
0.0
  3
*MODEL_SPACE
  1

  0
ENDBLK
  5
1C
100
AcDbEntity
  8
0
100
AcDbBlockEnd
  0
BLOCK
  5
18
100
AcDbEntity
 67
     1
  8
0
100
AcDbBlockBegin
  2
*PAPER_SPACE
 70
     0
 10
0.0
 20
0.0
 30
0.0
  3
*PAPER_SPACE
  1

  0
ENDBLK
  5
19
100
AcDbEntity
 67
     1
  8
0
100
AcDbBlockEnd
  0
BLOCK
  5
91
100
AcDbEntity
  8
0
100
AcDbBlockBegin
  2
_OPEN
 70
     0
 10
0.0
 20
0.0
 30
0.0
  3
_OPEN
  1

  0
LINE
  5
92
100
AcDbEntity
  8
0
  6
BYBLOCK
 62
     0
100
AcDbLine
 10
-1.0
 20
0.166667
 30
0.0
 11
0.0
 21
0.0
 31
0.0
  0
LINE
  5
93
100
AcDbEntity
  8
0
  6
BYBLOCK
 62
     0
100
AcDbLine
 10
0.0
 20
0.0
 30
0.0
 11
-1.0
 21
-0.166667
 31
0.0
  0
LINE
  5
94
100
AcDbEntity
  8
0
  6
BYBLOCK
 62
     0
100
AcDbLine
 10
0.0
 20
0.0
 30
0.0
 11
-1.0
 21
0.0
 31
0.0
  0
ENDBLK
  5
95
100
AcDbEntity
  8
0
100
AcDbBlockEnd
  0
BLOCK
  5
DAD
100
AcDbEntity
  8
0
100
AcDbBlockBegin
  2
*D1
 70
     1
 10
0.0
 20
0.0
 30
0.0
  3
*D1
  1

  0
LINE
  5
DAE
100
AcDbEntity
  8
0
  6
BYBLOCK
 62
     0
100
AcDbLine
 10
-58.562381
 20
641.013963
 30
0.0
 11
-58.562381
 21
759.983217
 31
0.0
  0
LINE
  5
DAF
100
AcDbEntity
  8
0
  6
BYBLOCK
 62
     0
100
AcDbLine
 10
841.437619
 20
641.013963
 30
0.0
 11
841.437619
 21
759.983217
 31
0.0
  0
LINE
  5
DB0
100
AcDbEntity
  8
0
  6
BYBLOCK
 62
     0
100
AcDbLine
 10
-43.562381
 20
758.733217
 30
0.0
 11
826.437619
 21
758.733217
 31
0.0
  0
INSERT
  5
DB1
100
AcDbEntity
  8
0
  6
BYBLOCK
 62
     0
100
AcDbBlockReference
  2
_OPEN
 10
-58.562381
 20
758.733217
 30
0.0
 41
15.0
 42
15.0
 43
15.0
 50
180.0
  0
INSERT
  5
DB2
100
AcDbEntity
  8
0
  6
BYBLOCK
 62
     0
100
AcDbBlockReference
  2
_OPEN
 10
841.437619
 20
758.733217
 30
0.0
 41
15.0
 42
15.0
 43
15.0
  0
MTEXT
  5
DB3
100
AcDbEntity
  8
0
  6
BYBLOCK
 62
     0
100
AcDbMText
 10
391.437619
 20
774.233217
 30
0.0
 40
25.0
 41
0.0
 71
     5
 72
     1
  1
\A1;900
  7
ED-VENT
  0
POINT
  5
DB4
100
AcDbEntity
  8
DEFPOINTS
  6
BYBLOCK
 62
     0
100
AcDbPoint
 10
-58.562381
 20
640.388963
 30
0.0
  0
POINT
  5
DB5
100
AcDbEntity
  8
DEFPOINTS
  6
BYBLOCK
 62
     0
100
AcDbPoint
 10
841.437619
 20
640.388963
 30
0.0
  0
POINT
  5
DB6
100
AcDbEntity
  8
DEFPOINTS
  6
BYBLOCK
 62
     0
100
AcDbPoint
 10
841.437619
 20
758.733217
 30
0.0
  0
ENDBLK
  5
DB7
100
AcDbEntity
  8
0
100
AcDbBlockEnd
  0
BLOCK
  5
DB8
100
AcDbEntity
  8
0
100
AcDbBlockBegin
  2
*D2
 70
     1
 10
0.0
 20
0.0
 30
0.0
  3
*D2
  1

  0
LINE
  5
DB9
100
AcDbEntity
  8
0
  6
BYBLOCK
 62
     0
100
AcDbLine
 10
-33.562381
 20
693.513963
 30
0.0
 11
-33.562381
 21
722.196408
 31
0.0
  0
LINE
  5
DBA
100
AcDbEntity
  8
0
  6
BYBLOCK
 62
     0
100
AcDbLine
 10
816.437619
 20
693.513963
 30
0.0
 11
816.437619
 21
722.196408
 31
0.0
  0
LINE
  5
DBB
100
AcDbEntity
  8
0
  6
BYBLOCK
 62
     0
100
AcDbLine
 10
-18.562381
 20
720.946408
 30
0.0
 11
801.437619
 21
720.946408
 31
0.0
  0
INSERT
  5
DBC
100
AcDbEntity
  8
0
  6
BYBLOCK
 62
     0
100
AcDbBlockReference
  2
_OPEN
 10
-33.562381
 20
720.946408
 30
0.0
 41
15.0
 42
15.0
 43
15.0
 50
180.0
  0
INSERT
  5
DBD
100
AcDbEntity
  8
0
  6
BYBLOCK
 62
     0
100
AcDbBlockReference
  2
_OPEN
 10
816.437619
 20
720.946408
 30
0.0
 41
15.0
 42
15.0
 43
15.0
  0
MTEXT
  5
DBE
100
AcDbEntity
  8
0
  6
BYBLOCK
 62
     0
100
AcDbMText
 10
391.437619
 20
736.446408
 30
0.0
 40
25.0
 41
0.0
 71
     5
 72
     1
  1
\A1;850
  7
ED-VENT
  0
POINT
  5
DBF
100
AcDbEntity
  8
DEFPOINTS
  6
BYBLOCK
 62
     0
100
AcDbPoint
 10
-33.562381
 20
692.888963
 30
0.0
  0
POINT
  5
DC0
100
AcDbEntity
  8
DEFPOINTS
  6
BYBLOCK
 62
     0
100
AcDbPoint
 10
816.437619
 20
692.888963
 30
0.0
  0
POINT
  5
DC1
100
AcDbEntity
  8
DEFPOINTS
  6
BYBLOCK
 62
     0
100
AcDbPoint
 10
816.437619
 20
720.946408
 30
0.0
  0
ENDBLK
  5
DC2
100
AcDbEntity
  8
0
100
AcDbBlockEnd
  0
BLOCK
  5
DC3
100
AcDbEntity
  8
0
100
AcDbBlockBegin
  2
*D3
 70
     1
 10
0.0
 20
0.0
 30
0.0
  3
*D3
  1

  0
LINE
  5
DC4
100
AcDbEntity
  8
0
  6
BYBLOCK
 62
     0
100
AcDbLine
 10
-58.562381
 20
389.763963
 30
0.0
 11
-58.562381
 21
283.961155
 31
0.0
  0
LINE
  5
DC5
100
AcDbEntity
  8
0
  6
BYBLOCK
 62
     0
100
AcDbLine
 10
-33.562381
 20
337.263963
 30
0.0
 11
-33.562381
 21
283.961155
 31
0.0
  0
LINE
  5
DC6
100
AcDbEntity
  8
0
  6
BYBLOCK
 62
     0
100
AcDbLine
 10
-73.562381
 20
285.211155
 30
0.0
 11
-88.562381
 21
285.211155
 31
0.0
  0
LINE
  5
DC7
100
AcDbEntity
  8
0
  6
BYBLOCK
 62
     0
100
AcDbLine
 10
-18.562381
 20
285.211155
 30
0.0
 11
31.607996
 21
285.211155
 31
0.0
  0
LINE
  5
DC8
100
AcDbEntity
  8
0
  6
BYBLOCK
 62
     0
100
AcDbLine
 10
-58.562381
 20
285.211155
 30
0.0
 11
-33.562381
 21
285.211155
 31
0.0
  0
INSERT
  5
DC9
100
AcDbEntity
  8
0
  6
BYBLOCK
 62
     0
100
AcDbBlockReference
  2
_OPEN
 10
-58.562381
 20
285.211155
 30
0.0
 41
15.0
 42
15.0
 43
15.0
  0
INSERT
  5
DCA
100
AcDbEntity
  8
0
  6
BYBLOCK
 62
     0
100
AcDbBlockReference
  2
_OPEN
 10
-33.562381
 20
285.211155
 30
0.0
 41
15.0
 42
15.0
 43
15.0
 50
180.0
  0
MTEXT
  5
DCB
100
AcDbEntity
  8
0
  6
BYBLOCK
 62
     0
100
AcDbMText
 10
14.022808
 20
300.713616
 30
0.0
 40
25.0
 41
0.0
 71
     5
 72
     1
  1
\A1;25
  7
ED-VENT
  0
POINT
  5
DCC
100
AcDbEntity
  8
DEFPOINTS
  6
BYBLOCK
 62
     0
100
AcDbPoint
 10
-58.562381
 20
390.388963
 30
0.0
  0
POINT
  5
DCD
100
AcDbEntity
  8
DEFPOINTS
  6
BYBLOCK
 62
     0
100
AcDbPoint
 10
-33.562381
 20
337.888963
 30
0.0
  0
POINT
  5
DCE
100
AcDbEntity
  8
DEFPOINTS
  6
BYBLOCK
 62
     0
100
AcDbPoint
 10
-33.562381
 20
285.211155
 30
0.0
  0
ENDBLK
  5
DCF
100
AcDbEntity
  8
0
100
AcDbBlockEnd
  0
BLOCK
  5
DD0
100
AcDbEntity
  8
0
100
AcDbBlockBegin
  2
*D4
 70
     1
 10
0.0
 20
0.0
 30
0.0
  3
*D4
  1

  0
LINE
  5
DD1
100
AcDbEntity
  8
0
  6
BYBLOCK
 62
     0
100
AcDbLine
 10
842.062619
 20
640.388963
 30
0.0
 11
876.150419
 21
640.388963
 31
0.0
  0
LINE
  5
DD2
100
AcDbEntity
  8
0
  6
BYBLOCK
 62
     0
100
AcDbLine
 10
842.062619
 20
390.388963
 30
0.0
 11
876.150419
 21
390.388963
 31
0.0
  0
LINE
  5
DD3
100
AcDbEntity
  8
0
  6
BYBLOCK
 62
     0
100
AcDbLine
 10
874.900419
 20
625.388963
 30
0.0
 11
874.900419
 21
405.388963
 31
0.0
  0
INSERT
  5
DD4
100
AcDbEntity
  8
0
  6
BYBLOCK
 62
     0
100
AcDbBlockReference
  2
_OPEN
 10
874.900419
 20
640.388963
 30
0.0
 41
15.0
 42
15.0
 43
15.0
 50
90.0
  0
INSERT
  5
DD5
100
AcDbEntity
  8
0
  6
BYBLOCK
 62
     0
100
AcDbBlockReference
  2
_OPEN
 10
874.900419
 20
390.388963
 30
0.0
 41
15.0
 42
15.0
 43
15.0
 50
270.0
  0
MTEXT
  5
DD6
100
AcDbEntity
  8
0
  6
BYBLOCK
 62
     0
100
AcDbMText
 10
859.397958
 20
515.388963
 30
0.0
 40
25.0
 41
0.0
 71
     5
 72
     1
  1
\A1;\U+2205250
  7
ED-VENT
 11
0.0
 21
1.0
 31
0.0
  0
POINT
  5
DD7
100
AcDbEntity
  8
DEFPOINTS
  6
BYBLOCK
 62
     0
100
AcDbPoint
 10
841.437619
 20
640.388963
 30
0.0
  0
POINT
  5
DD8
100
AcDbEntity
  8
DEFPOINTS
  6
BYBLOCK
 62
     0
100
AcDbPoint
 10
841.437619
 20
390.388963
 30
0.0
  0
POINT
  5
DD9
100
AcDbEntity
  8
DEFPOINTS
  6
BYBLOCK
 62
     0
100
AcDbPoint
 10
874.900419
 20
390.388963
 30
0.0
  0
ENDBLK
  5
DDA
100
AcDbEntity
  8
0
100
AcDbBlockEnd
  0
BLOCK
  5
DDB
100
AcDbEntity
  8
0
100
AcDbBlockBegin
  2
*D5
 70
     1
 10
0.0
 20
0.0
 30
0.0
  3
*D5
  1

  0
LINE
  5
DDC
100
AcDbEntity
  8
0
  6
BYBLOCK
 62
     0
100
AcDbLine
 10
817.062619
 20
692.888963
 30
0.0
 11
913.974643
 21
692.888963
 31
0.0
  0
LINE
  5
DDD
100
AcDbEntity
  8
0
  6
BYBLOCK
 62
     0
100
AcDbLine
 10
817.062619
 20
337.888963
 30
0.0
 11
913.974643
 21
337.888963
 31
0.0
  0
LINE
  5
DDE
100
AcDbEntity
  8
0
  6
BYBLOCK
 62
     0
100
AcDbLine
 10
912.724643
 20
677.888963
 30
0.0
 11
912.724643
 21
352.888963
 31
0.0
  0
INSERT
  5
DDF
100
AcDbEntity
  8
0
  6
BYBLOCK
 62
     0
100
AcDbBlockReference
  2
_OPEN
 10
912.724643
 20
692.888963
 30
0.0
 41
15.0
 42
15.0
 43
15.0
 50
90.0
  0
INSERT
  5
DE0
100
AcDbEntity
  8
0
  6
BYBLOCK
 62
     0
100
AcDbBlockReference
  2
_OPEN
 10
912.724643
 20
337.888963
 30
0.0
 41
15.0
 42
15.0
 43
15.0
 50
270.0
  0
MTEXT
  5
DE1
100
AcDbEntity
  8
0
  6
BYBLOCK
 62
     0
100
AcDbMText
 10
897.224643
 20
515.388963
 30
0.0
 40
25.0
 41
0.0
 71
     5
 72
     1
  1
\A1;\U+2205355
  7
ED-VENT
 11
0.0
 21
1.0
 31
0.0
  0
POINT
  5
DE2
100
AcDbEntity
  8
DEFPOINTS
  6
BYBLOCK
 62
     0
100
AcDbPoint
 10
816.437619
 20
692.888963
 30
0.0
  0
POINT
  5
DE3
100
AcDbEntity
  8
DEFPOINTS
  6
BYBLOCK
 62
     0
100
AcDbPoint
 10
816.437619
 20
337.888963
 30
0.0
  0
POINT
  5
DE4
100
AcDbEntity
  8
DEFPOINTS
  6
BYBLOCK
 62
     0
100
AcDbPoint
 10
912.724643
 20
337.888963
 30
0.0
  0
ENDBLK
  5
DE5
100
AcDbEntity
  8
0
100
AcDbBlockEnd
  0
ENDSEC
  0
SECTION
  2
ENTITIES
  0
LINE
  5
D1E
100
AcDbEntity
  8
V0-VYPLNE
  6
DASHDOT
 62
    63
 48
3.0
100
AcDbLine
 10
-74.218101
 20
515.388963
 30
0.0
 11
822.514959
 21
515.388963
 31
0.0
  0
LINE
  5
D1F
100
AcDbEntity
  8
V0-OBRYS
 62
    90
100
AcDbLine
 10
-33.562381
 20
515.388963
 30
0.0
 11
-33.562381
 21
692.888963
 31
0.0
  0
LINE
  5
D20
100
AcDbEntity
  8
V0-OBRYS
 62
    90
100
AcDbLine
 10
-33.562381
 20
692.888963
 30
0.0
 11
241.437619
 21
692.888963
 31
0.0
  0
LINE
  5
D21
100
AcDbEntity
  8
V0-OBRYS
 62
    90
100
AcDbLine
 10
-58.562381
 20
515.388963
 30
0.0
 11
-58.562381
 21
640.388963
 31
0.0
  0
LINE
  5
D22
100
AcDbEntity
  8
V0-OBRYS
 62
    90
100
AcDbLine
 10
-58.562381
 20
640.388963
 30
0.0
 11
-33.562381
 21
640.388963
 31
0.0
  0
LINE
  5
D23
100
AcDbEntity
  8
V0-OBRYS
 62
    90
100
AcDbLine
 10
-53.55896
 20
515.388963
 30
0.0
 11
-53.55896
 21
643.200495
 31
0.0
  0
LINE
  5
D24
100
AcDbEntity
  8
V0-OBRYS
 62
    90
100
AcDbLine
 10
-53.55896
 20
643.200495
 30
0.0
 11
-51.39307
 21
643.200495
 31
0.0
  0
LINE
  5
D25
100
AcDbEntity
  8
V0-OBRYS
 62
    90
100
AcDbLine
 10
-51.39307
 20
643.200495
 30
0.0
 11
-51.39307
 21
515.388963
 31
0.0
  0
LINE
  5
D26
100
AcDbEntity
  8
V0-OBRYS
 62
    90
100
AcDbLine
 10
-33.562381
 20
337.888963
 30
0.0
 11
241.437619
 21
337.888963
 31
0.0
  0
LINE
  5
D27
100
AcDbEntity
  8
V0-OBRYS
 62
    90
100
AcDbLine
 10
-33.562381
 20
515.388963
 30
0.0
 11
-33.562381
 21
337.888963
 31
0.0
  0
LINE
  5
D28
100
AcDbEntity
  8
V0-OBRYS
 62
    90
100
AcDbLine
 10
-58.562381
 20
390.388963
 30
0.0
 11
-33.562381
 21
390.388963
 31
0.0
  0
LINE
  5
D29
100
AcDbEntity
  8
V0-OBRYS
 62
    90
100
AcDbLine
 10
-51.39307
 20
387.577431
 30
0.0
 11
-51.39307
 21
515.388963
 31
0.0
  0
LINE
  5
D2A
100
AcDbEntity
  8
V0-OBRYS
 62
    90
100
AcDbLine
 10
-53.55896
 20
515.388963
 30
0.0
 11
-53.55896
 21
387.577431
 31
0.0
  0
LINE
  5
D2B
100
AcDbEntity
  8
V0-OBRYS
 62
    90
100
AcDbLine
 10
-58.562381
 20
515.388963
 30
0.0
 11
-58.562381
 21
390.388963
 31
0.0
  0
LINE
  5
D2C
100
AcDbEntity
  8
V0-OBRYS
 62
    90
100
AcDbLine
 10
-53.55896
 20
387.577431
 30
0.0
 11
-51.39307
 21
387.577431
 31
0.0
  0
LINE
  5
D2D
100
AcDbEntity
  8
V0-OBRYS
 62
    90
100
AcDbLine
 10
816.437619
 20
337.888963
 30
0.0
 11
241.437619
 21
337.888963
 31
0.0
  0
LINE
  5
D2E
100
AcDbEntity
  8
V0-OBRYS
 62
    90
100
AcDbLine
 10
816.437619
 20
692.888963
 30
0.0
 11
241.437619
 21
692.888963
 31
0.0
  0
LINE
  5
D2F
100
AcDbEntity
  8
V0-OBRYS
 62
    90
100
AcDbLine
 10
841.437619
 20
515.388963
 30
0.0
 11
841.437619
 21
390.388963
 31
0.0
  0
LINE
  5
D30
100
AcDbEntity
  8
V0-OBRYS
 62
    90
100
AcDbLine
 10
836.434198
 20
515.388963
 30
0.0
 11
836.434198
 21
387.577431
 31
0.0
  0
LINE
  5
D31
100
AcDbEntity
  8
V0-OBRYS
 62
    90
100
AcDbLine
 10
834.268309
 20
387.577431
 30
0.0
 11
834.268309
 21
515.388963
 31
0.0
  0
LINE
  5
D32
100
AcDbEntity
  8
V0-OBRYS
 62
    90
100
AcDbLine
 10
816.437619
 20
515.388963
 30
0.0
 11
816.437619
 21
337.888963
 31
0.0
  0
LINE
  5
D33
100
AcDbEntity
  8
V0-OBRYS
 62
    90
100
AcDbLine
 10
841.437619
 20
390.388963
 30
0.0
 11
816.437619
 21
390.388963
 31
0.0
  0
LINE
  5
D34
100
AcDbEntity
  8
V0-OBRYS
 62
    90
100
AcDbLine
 10
836.434198
 20
387.577431
 30
0.0
 11
834.268309
 21
387.577431
 31
0.0
  0
LINE
  5
D35
100
AcDbEntity
  8
V0-OBRYS
 62
    90
100
AcDbLine
 10
816.437619
 20
515.388963
 30
0.0
 11
816.437619
 21
692.888963
 31
0.0
  0
LINE
  5
D36
100
AcDbEntity
  8
V0-OBRYS
 62
    90
100
AcDbLine
 10
841.437619
 20
640.388963
 30
0.0
 11
816.437619
 21
640.388963
 31
0.0
  0
LINE
  5
D37
100
AcDbEntity
  8
V0-OBRYS
 62
    90
100
AcDbLine
 10
834.268309
 20
643.200495
 30
0.0
 11
834.268309
 21
515.388963
 31
0.0
  0
LINE
  5
D38
100
AcDbEntity
  8
V0-OBRYS
 62
    90
100
AcDbLine
 10
836.434198
 20
515.388963
 30
0.0
 11
836.434198
 21
643.200495
 31
0.0
  0
LINE
  5
D39
100
AcDbEntity
  8
V0-OBRYS
 62
    90
100
AcDbLine
 10
841.437619
 20
515.388963
 30
0.0
 11
841.437619
 21
640.388963
 31
0.0
  0
LINE
  5
D3A
100
AcDbEntity
  8
V0-OBRYS
 62
    90
100
AcDbLine
 10
836.434198
 20
643.200495
 30
0.0
 11
834.268309
 21
643.200495
 31
0.0
  0
DIMENSION
  5
D3B
100
AcDbEntity
  8
V0-VYPLNE
 62
    41
100
AcDbDimension
  2
*D1
 10
841.437619
 20
758.733217
 30
0.0
 11
391.437619
 21
774.233217
 31
0.0
 70
    32
  3
STANDARD
100
AcDbAlignedDimension
 13
-58.562381
 23
640.388963
 33
0.0
 14
841.437619
 24
640.388963
 34
0.0
100
AcDbRotatedDimension
1001
ACAD
1000
DSTYLE
1002
{
1070
   140
1040
15.0
1070
   340
1005
5B5
1070
    41
1040
15.0
1002
}
  0
DIMENSION
  5
D3C
100
AcDbEntity
  8
V0-VYPLNE
 62
    41
100
AcDbDimension
  2
*D2
 10
816.437619
 20
720.946408
 30
0.0
 11
391.437619
 21
736.446408
 31
0.0
 70
    32
  3
STANDARD
100
AcDbAlignedDimension
 13
-33.562381
 23
692.888963
 33
0.0
 14
816.437619
 24
692.888963
 34
0.0
100
AcDbRotatedDimension
1001
ACAD
1000
DSTYLE
1002
{
1070
   140
1040
15.0
1070
   340
1005
5B5
1070
    41
1040
15.0
1002
}
  0
DIMENSION
  5
D3D
100
AcDbEntity
  8
V0-VYPLNE
 62
    41
100
AcDbDimension
  2
*D3
 10
-33.562381
 20
285.211155
 30
0.0
 11
14.022808
 21
285.211155
 31
0.0
 70
   160
  3
STANDARD
100
AcDbAlignedDimension
 13
-58.562381
 23
390.388963
 33
0.0
 14
-33.562381
 24
337.888963
 34
0.0
100
AcDbRotatedDimension
1001
ACAD
1000
DSTYLE
1002
{
1070
   140
1040
15.0
1070
   340
1005
5B5
1070
    41
1040
15.0
1002
}
  0
DIMENSION
  5
D3E
100
AcDbEntity
  8
V0-VYPLNE
 62
    41
100
AcDbDimension
  2
*D4
 10
874.900419
 20
390.388963
 30
0.0
 11
859.397958
 21
515.388963
 31
0.0
 70
    32
  1
%%c<>
  3
STANDARD
100
AcDbAlignedDimension
 13
841.437619
 23
640.388963
 33
0.0
 14
841.437619
 24
390.388963
 34
0.0
 50
90.0
100
AcDbRotatedDimension
1001
ACAD
1000
DSTYLE
1002
{
1070
   140
1040
15.0
1070
   340
1005
5B5
1070
    41
1040
15.0
1002
}
  0
DIMENSION
  5
D3F
100
AcDbEntity
  8
V0-VYPLNE
 62
    41
100
AcDbDimension
  2
*D5
 10
912.724643
 20
337.888963
 30
0.0
 11
897.224643
 21
515.388963
 31
0.0
 70
    32
  1
%%c<>
  3
STANDARD
100
AcDbAlignedDimension
 13
816.437619
 23
692.888963
 33
0.0
 14
816.437619
 24
337.888963
 34
0.0
 50
90.0
100
AcDbRotatedDimension
1001
ACAD
1000
DSTYLE
1002
{
1070
   140
1040
15.0
1070
   340
1005
5B5
1070
    41
1040
15.0
1002
}
  0
LINE
  5
D40
100
AcDbEntity
  8
V0-VYPLNE
  6
DASHDOT
 62
    63
 48
3.0
100
AcDbLine
 10
986.694134
 20
515.388963
 30
0.0
 11
1346.280632
 21
515.388963
 31
0.0
  0
LINE
  5
D41
100
AcDbEntity
  8
V0-VYPLNE
  6
DASHDOT
 62
    63
 48
3.0
100
AcDbLine
 10
1166.788013
 20
337.888963
 30
0.0
 11
1166.788013
 21
692.888963
 31
0.0
  0
TEXT
  5
D42
100
AcDbEntity
  8
V0-ZBYTEK
 62
   130
 48
2.0
100
AcDbText
 10
1007.388127
 20
67.339841
 30
0.0
 40
37.5
  1
TLUMIC HLUKU
 72
     1
 11
1166.856877
 21
67.339841
 31
0.0
100
AcDbText
  0
TEXT
  5
D43
100
AcDbEntity
  8
V0-ZBYTEK
 62
    51
 48
2.0
100
AcDbText
 10
988.856706
 20
-7.027248
 30
0.0
 40
25.0
  1
PRO KRUHOVA POTRUBI
 72
     1
 11
1165.169206
 21
-7.027248
 31
0.0
100
AcDbText
  0
TEXT
  5
D44
100
AcDbEntity
  8
V0-NAZVY
 62
   210
100
AcDbText
 10
959.249833
 20
144.839841
 30
0.0
 40
50.0
  1
MAA-250-900
 72
     1
 11
1166.856877
 21
144.839841
 31
0.0
100
AcDbText
  0
POINT
  5
D45
100
AcDbEntity
  8
V0-VYPLNE
 62
    52
100
AcDbPoint
 10
-33.562381
 20
515.388963
 30
0.0
  0
POINT
  5
D46
100
AcDbEntity
  8
V0-VYPLNE
 62
    52
100
AcDbPoint
 10
1166.788013
 20
515.388963
 30
0.0
  0
LINE
  5
D47
100
AcDbEntity
  8
V0-OBRYS
 62
    90
100
AcDbLine
 10
816.437619
 20
-109.578758
 30
0.0
 11
241.437619
 21
-109.578758
 31
0.0
  0
LINE
  5
D48
100
AcDbEntity
  8
V0-OBRYS
 62
    90
100
AcDbLine
 10
816.437619
 20
245.421242
 30
0.0
 11
241.437619
 21
245.421242
 31
0.0
  0
LINE
  5
D49
100
AcDbEntity
  8
V0-VYPLNE
  6
DASHDOT
 62
    63
 48
3.0
100
AcDbLine
 10
-74.218101
 20
67.921242
 30
0.0
 11
852.381772
 21
67.921242
 31
0.0
  0
LINE
  5
D4A
100
AcDbEntity
  8
V0-OBRYS
 62
    90
100
AcDbLine
 10
-33.562381
 20
67.921242
 30
0.0
 11
-33.562381
 21
-109.578758
 31
0.0
  0
LINE
  5
D4B
100
AcDbEntity
  8
V0-OBRYS
 62
    90
100
AcDbLine
 10
-33.562381
 20
-109.578758
 30
0.0
 11
241.437619
 21
-109.578758
 31
0.0
  0
LINE
  5
D4C
100
AcDbEntity
  8
V0-OBRYS
 62
    90
100
AcDbLine
 10
-33.562381
 20
245.421242
 30
0.0
 11
241.437619
 21
245.421242
 31
0.0
  0
LINE
  5
D4D
100
AcDbEntity
  8
V0-OBRYS
 62
    90
100
AcDbLine
 10
-33.562381
 20
67.921242
 30
0.0
 11
-33.562381
 21
245.421242
 31
0.0
  0
LINE
  5
D4E
100
AcDbEntity
  8
V0-OBRYS
 62
    90
100
AcDbLine
 10
-51.39307
 20
-59.89029
 30
0.0
 11
-51.39307
 21
67.921242
 31
0.0
  0
LINE
  5
D4F
100
AcDbEntity
  8
V0-OBRYS
 62
    90
100
AcDbLine
 10
-53.55896
 20
67.921242
 30
0.0
 11
-53.55896
 21
-59.89029
 31
0.0
  0
LINE
  5
D50
100
AcDbEntity
  8
V0-OBRYS
 62
    90
100
AcDbLine
 10
-58.562381
 20
67.921242
 30
0.0
 11
-58.562381
 21
-57.078758
 31
0.0
  0
POINT
  5
D51
100
AcDbEntity
  8
V0-VYPLNE
 62
    52
100
AcDbPoint
 10
-33.562381
 20
67.921242
 30
0.0
  0
LINE
  5
D52
100
AcDbEntity
  8
V0-OBRYS
 62
    90
100
AcDbLine
 10
-58.562381
 20
-57.078758
 30
0.0
 11
-33.562381
 21
-57.078758
 31
0.0
  0
LINE
  5
D53
100
AcDbEntity
  8
V0-OBRYS
 62
    90
100
AcDbLine
 10
-53.55896
 20
-59.89029
 30
0.0
 11
-51.39307
 21
-59.89029
 31
0.0
  0
LINE
  5
D54
100
AcDbEntity
  8
V0-OBRYS
 62
    90
100
AcDbLine
 10
-58.562381
 20
67.921242
 30
0.0
 11
-58.562381
 21
192.921242
 31
0.0
  0
LINE
  5
D55
100
AcDbEntity
  8
V0-OBRYS
 62
    90
100
AcDbLine
 10
-53.55896
 20
67.921242
 30
0.0
 11
-53.55896
 21
195.732774
 31
0.0
  0
LINE
  5
D56
100
AcDbEntity
  8
V0-OBRYS
 62
    90
100
AcDbLine
 10
-51.39307
 20
195.732774
 30
0.0
 11
-51.39307
 21
67.921242
 31
0.0
  0
LINE
  5
D57
100
AcDbEntity
  8
V0-OBRYS
 62
    90
100
AcDbLine
 10
-58.562381
 20
192.921242
 30
0.0
 11
-33.562381
 21
192.921242
 31
0.0
  0
LINE
  5
D58
100
AcDbEntity
  8
V0-OBRYS
 62
    90
100
AcDbLine
 10
-53.55896
 20
195.732774
 30
0.0
 11
-51.39307
 21
195.732774
 31
0.0
  0
LINE
  5
D59
100
AcDbEntity
  8
V0-OBRYS
 62
    90
100
AcDbLine
 10
816.437619
 20
67.921242
 30
0.0
 11
816.437619
 21
-109.578758
 31
0.0
  0
LINE
  5
D5A
100
AcDbEntity
  8
V0-OBRYS
 62
    90
100
AcDbLine
 10
816.437619
 20
67.921242
 30
0.0
 11
816.437619
 21
245.421242
 31
0.0
  0
LINE
  5
D5B
100
AcDbEntity
  8
V0-OBRYS
 62
    90
100
AcDbLine
 10
841.437619
 20
-57.078758
 30
0.0
 11
816.437619
 21
-57.078758
 31
0.0
  0
LINE
  5
D5C
100
AcDbEntity
  8
V0-OBRYS
 62
    90
100
AcDbLine
 10
841.437619
 20
192.921242
 30
0.0
 11
816.437619
 21
192.921242
 31
0.0
  0
LINE
  5
D5D
100
AcDbEntity
  8
V0-OBRYS
 62
    90
100
AcDbLine
 10
841.437619
 20
67.921242
 30
0.0
 11
841.437619
 21
-57.078758
 31
0.0
  0
LINE
  5
D5E
100
AcDbEntity
  8
V0-OBRYS
 62
    90
100
AcDbLine
 10
836.434198
 20
67.921242
 30
0.0
 11
836.434198
 21
-59.89029
 31
0.0
  0
LINE
  5
D5F
100
AcDbEntity
  8
V0-OBRYS
 62
    90
100
AcDbLine
 10
834.268309
 20
-59.89029
 30
0.0
 11
834.268309
 21
67.921242
 31
0.0
  0
LINE
  5
D60
100
AcDbEntity
  8
V0-OBRYS
 62
    90
100
AcDbLine
 10
836.434198
 20
-59.89029
 30
0.0
 11
834.268309
 21
-59.89029
 31
0.0
  0
LINE
  5
D61
100
AcDbEntity
  8
V0-OBRYS
 62
    90
100
AcDbLine
 10
834.268309
 20
195.732774
 30
0.0
 11
834.268309
 21
67.921242
 31
0.0
  0
LINE
  5
D62
100
AcDbEntity
  8
V0-OBRYS
 62
    90
100
AcDbLine
 10
836.434198
 20
67.921242
 30
0.0
 11
836.434198
 21
195.732774
 31
0.0
  0
LINE
  5
D63
100
AcDbEntity
  8
V0-OBRYS
 62
    90
100
AcDbLine
 10
841.437619
 20
67.921242
 30
0.0
 11
841.437619
 21
192.921242
 31
0.0
  0
LINE
  5
D64
100
AcDbEntity
  8
V0-OBRYS
 62
    90
100
AcDbLine
 10
836.434198
 20
195.732774
 30
0.0
 11
834.268309
 21
195.732774
 31
0.0
  0
CIRCLE
  5
D65
100
AcDbEntity
  8
V0-OBRYS
 62
    90
100
AcDbCircle
 10
1166.788013
 20
515.388963
 30
0.0
 40
125.0
  0
CIRCLE
  5
D66
100
AcDbEntity
  8
V0-OBRYS
 62
    90
100
AcDbCircle
 10
1166.788013
 20
515.388963
 30
0.0
 40
177.5
  0
CIRCLE
  5
D67
100
AcDbEntity
  8
V0-OBRYS
 62
    90
100
AcDbCircle
 10
1166.788013
 20
515.388963
 30
0.0
 40
130.0
  0
TEXT
  5
D68
100
AcDbEntity
  8
V0-NAZVY
 62
   210
100
AcDbText
 10
266.070216
 20
552.973632
 30
0.0
 40
30.0
  1
MAA-250-900
 72
     1
 11
390.634442
 21
552.973632
 31
0.0
100
AcDbText
  0
TEXT
  5
D69
100
AcDbEntity
  8
V0-NAZVY
 62
   210
100
AcDbText
 10
266.070216
 20
85.449187
 30
0.0
 40
30.0
  1
MAA-250-900
 72
     1
 11
390.634442
 21
85.449187
 31
0.0
100
AcDbText
  0
TEXT
  5
D6A
100
AcDbEntity
  8
V0-NAZVY
 62
   210
100
AcDbText
 10
1042.316842
 20
713.644952
 30
0.0
 40
30.0
  1
MAA-250-900
 72
     1
 11
1166.881068
 21
713.644952
 31
0.0
100
AcDbText
  0
LINE
  5
D6B
100
AcDbEntity
  8
V0-VYPLNE
  6
DASHED
 62
    56
 48
3.0
100
AcDbLine
 10
-31.365466
 20
648.226731
 30
0.0
 11
816.520436
 21
648.226731
 31
0.0
  0
LINE
  5
D6C
100
AcDbEntity
  8
V0-VYPLNE
  6
DASHED
 62
    56
 48
3.0
100
AcDbLine
 10
-31.365466
 20
382.551196
 30
0.0
 11
816.520436
 21
382.551196
 31
0.0
  0
LINE
  5
D6D
100
AcDbEntity
  8
V0-VYPLNE
  6
DASHED
 62
    56
 48
3.0
100
AcDbLine
 10
-31.365466
 20
200.75901
 30
0.0
 11
816.520436
 21
200.75901
 31
0.0
  0
LINE
  5
D6E
100
AcDbEntity
  8
V0-VYPLNE
  6
DASHED
 62
    56
 48
3.0
100
AcDbLine
 10
-31.365466
 20
-64.916525
 30
0.0
 11
816.520436
 21
-64.916525
 31
0.0
  0
VIEWPORT
  5
22
100
AcDbEntity
 67
     1
  8
0
100
AcDbViewport
 10
261.517699
 20
148.5
 30
0.0
 40
523.035398
 41
297.0
 68
    -1
 69
     1
1001
ACAD
1000
MVIEW
1002
{
1070
    16
1010
0.0
1020
0.0
1030
0.0
1010
0.0
1020
0.0
1030
1.0
1040
0.0
1040
297.0
1040
261.517699
1040
148.5
1040
50.0
1040
0.0
1040
0.0
1070
     0
1070
   100
1070
     1
1070
     1
1070
     0
1070
     0
1070
     0
1070
     0
1040
0.0
1040
0.0
1040
0.0
1040
1.0
1040
1.0
1040
10.0
1040
10.0
1070
     0
1002
{
1002
}
1002
}
  0
ENDSEC
  0
SECTION
  2
OBJECTS
  0
DICTIONARY
  5
C
100
AcDbDictionary
  3
ACAD_GROUP
350
D
  3
ACAD_MLINESTYLE
350
E
  3
ACDBVARIABLEDICTIONARY
350
5D
  0
DICTIONARY
  5
D
102
{ACAD_REACTORS
330
C
102
}
100
AcDbDictionary
  0
DICTIONARY
  5
E
102
{ACAD_REACTORS
330
C
102
}
100
AcDbDictionary
  3
STANDARD
350
13
  0
DICTIONARY
  5
5D
102
{ACAD_REACTORS
330
C
102
}
100
AcDbDictionary
  3
DIMADEC
350
5E
  3
SORTENTS
350
3D8
  0
MLINESTYLE
  5
13
102
{ACAD_REACTORS
330
E
102
}
100
AcDbMlineStyle
  2
STANDARD
 70
     0
  3

 62
     0
 51
90.0
 52
90.0
 71
     2
 49
0.5
 62
   256
  6
BYLAYER
 49
-0.5
 62
   256
  6
BYLAYER
  0
DICTIONARYVAR
  5
5E
102
{ACAD_REACTORS
330
5D
102
}
100
DictionaryVariables
280
     0
  1
0
  0
DICTIONARYVAR
  5
3D8
102
{ACAD_REACTORS
330
5D
102
}
100
DictionaryVariables
280
     0
  1
96
  0
ENDSEC
  0
EOF
