  0
SECTION
  2
HEADER
  9
$ACADVER
  1
AC1014
  9
$ACADMAINTVER
 70
     0
  9
$DWGCODEPAGE
  3
ANSI_1250
  9
$INSBASE
 10
0.0
 20
0.0
 30
0.0
  9
$EXTMIN
 10
-764.0
 20
-599.860654
 30
0.0
  9
$EXTMAX
 10
-321.675
 20
-235.402043
 30
0.0
  9
$LIMMIN
 10
-1040.805314
 20
-347.068924
  9
$LIMMAX
 10
643.686187
 20
495.293187
  9
$ORTHOMODE
 70
     0
  9
$REGENMODE
 70
     1
  9
$FILLMODE
 70
     1
  9
$QTEXTMODE
 70
     0
  9
$MIRRTEXT
 70
     1
  9
$DRAGMODE
 70
     2
  9
$LTSCALE
 40
15.0
  9
$OSMODE
 70
  1023
  9
$ATTMODE
 70
     1
  9
$TEXTSIZE
 40
15.0
  9
$TRACEWID
 40
5.0
  9
$TEXTSTYLE
  7
STANDARD
  9
$CLAYER
  8
0
  9
$CELTYPE
  6
BYLAYER
  9
$CECOLOR
 62
   256
  9
$CELTSCALE
 40
2.0
  9
$DELOBJ
 70
     1
  9
$DISPSILH
 70
     0
  9
$DIMSCALE
 40
1.0
  9
$DIMASZ
 40
10.0
  9
$DIMEXO
 40
0.0625
  9
$DIMDLI
 40
0.38
  9
$DIMRND
 40
0.0
  9
$DIMDLE
 40
0.0
  9
$DIMEXE
 40
0.18
  9
$DIMTP
 40
0.0
  9
$DIMTM
 40
0.0
  9
$DIMTXT
 40
10.0
  9
$DIMCEN
 40
0.0
  9
$DIMTSZ
 40
0.0
  9
$DIMTOL
 70
     0
  9
$DIMLIM
 70
     0
  9
$DIMTIH
 70
     0
  9
$DIMTOH
 70
     0
  9
$DIMSE1
 70
     0
  9
$DIMSE2
 70
     0
  9
$DIMTAD
 70
     1
  9
$DIMZIN
 70
     0
  9
$DIMBLK
  1

  9
$DIMASO
 70
     1
  9
$DIMSHO
 70
     1
  9
$DIMPOST
  1

  9
$DIMAPOST
  1

  9
$DIMALT
 70
     0
  9
$DIMALTD
 70
     2
  9
$DIMALTF
 40
25.4
  9
$DIMLFAC
 40
1.0
  9
$DIMTOFL
 70
     0
  9
$DIMTVP
 40
0.0
  9
$DIMTIX
 70
     0
  9
$DIMSOXD
 70
     0
  9
$DIMSAH
 70
     1
  9
$DIMBLK1
  1
_OPEN
  9
$DIMBLK2
  1
_OPEN
  9
$DIMSTYLE
  2
STANDARD
  9
$DIMCLRD
 70
     0
  9
$DIMCLRE
 70
     0
  9
$DIMCLRT
 70
     0
  9
$DIMTFAC
 40
1.0
  9
$DIMGAP
 40
0.625
  9
$DIMJUST
 70
     0
  9
$DIMSD1
 70
     0
  9
$DIMSD2
 70
     0
  9
$DIMTOLJ
 70
     1
  9
$DIMTZIN
 70
     0
  9
$DIMALTZ
 70
     0
  9
$DIMALTTZ
 70
     0
  9
$DIMFIT
 70
     0
  9
$DIMUPT
 70
     0
  9
$DIMUNIT
 70
     2
  9
$DIMDEC
 70
     0
  9
$DIMTDEC
 70
     4
  9
$DIMALTU
 70
     2
  9
$DIMALTTD
 70
     2
  9
$DIMTXSTY
  7
STANDARD
  9
$DIMAUNIT
 70
     0
  9
$LUNITS
 70
     2
  9
$LUPREC
 70
     4
  9
$SKETCHINC
 40
1.0
  9
$FILLETRAD
 40
3.0
  9
$AUNITS
 70
     0
  9
$AUPREC
 70
     0
  9
$MENU
  1
.
  9
$ELEVATION
 40
0.0
  9
$PELEVATION
 40
0.0
  9
$THICKNESS
 40
0.0
  9
$LIMCHECK
 70
     0
  9
$BLIPMODE
 70
     1
  9
$CHAMFERA
 40
10.0
  9
$CHAMFERB
 40
10.0
  9
$CHAMFERC
 40
20.0
  9
$CHAMFERD
 40
0.0
  9
$SKPOLY
 70
     0
  9
$TDCREATE
 40
2450763.421427893
  9
$TDUPDATE
 40
2453315.712822916
  9
$TDINDWG
 40
1.4079827546
  9
$TDUSRTIMER
 40
1.4079827546
  9
$USRTIMER
 70
     1
  9
$ANGBASE
 50
0.0
  9
$ANGDIR
 70
     0
  9
$PDMODE
 70
     3
  9
$PDSIZE
 40
0.0
  9
$PLINEWID
 40
0.0
  9
$COORDS
 70
     2
  9
$SPLFRAME
 70
     0
  9
$SPLINETYPE
 70
     6
  9
$SPLINESEGS
 70
     8
  9
$ATTDIA
 70
     0
  9
$ATTREQ
 70
     1
  9
$HANDLING
 70
     1
  9
$HANDSEED
  5
2F99
  9
$SURFTAB1
 70
     6
  9
$SURFTAB2
 70
     6
  9
$SURFTYPE
 70
     6
  9
$SURFU
 70
     6
  9
$SURFV
 70
     6
  9
$UCSNAME
  2

  9
$UCSORG
 10
-645.0
 20
-655.8606538708552
 30
0.0
  9
$UCSXDIR
 10
1.0
 20
0.0
 30
0.0
  9
$UCSYDIR
 10
0.0
 20
1.0
 30
0.0
  9
$PUCSNAME
  2

  9
$PUCSORG
 10
0.0
 20
0.0
 30
0.0
  9
$PUCSXDIR
 10
1.0
 20
0.0
 30
0.0
  9
$PUCSYDIR
 10
0.0
 20
1.0
 30
0.0
  9
$USERI1
 70
     0
  9
$USERI2
 70
     0
  9
$USERI3
 70
     0
  9
$USERI4
 70
     0
  9
$USERI5
 70
     0
  9
$USERR1
 40
0.0
  9
$USERR2
 40
0.0
  9
$USERR3
 40
0.0
  9
$USERR4
 40
0.0
  9
$USERR5
 40
0.0
  9
$WORLDVIEW
 70
     1
  9
$SHADEDGE
 70
     3
  9
$SHADEDIF
 70
    70
  9
$TILEMODE
 70
     1
  9
$MAXACTVP
 70
    16
  9
$PINSBASE
 10
0.0
 20
0.0
 30
0.0
  9
$PLIMCHECK
 70
     0
  9
$PEXTMIN
 10
131.177948
 20
159.528081
 30
0.0
  9
$PEXTMAX
 10
254.393018
 20
159.528081
 30
0.0
  9
$PLIMMIN
 10
0.0
 20
0.0
  9
$PLIMMAX
 10
420.0
 20
297.0
  9
$UNITMODE
 70
     0
  9
$VISRETAIN
 70
     0
  9
$PLINEGEN
 70
     0
  9
$PSLTSCALE
 70
     0
  9
$TREEDEPTH
 70
  3020
  9
$PICKSTYLE
 70
     1
  9
$CMLSTYLE
  2
STANDARD
  9
$CMLJUST
 70
     0
  9
$CMLSCALE
 40
1.0
  9
$PROXYGRAPHICS
 70
     1
  9
$MEASUREMENT
 70
     1
  0
ENDSEC
  0
SECTION
  2
CLASSES
  0
CLASS
  1
LWPOLYLINE
  2
AcDbPolyline
  3
"AutoCAD"
 90
        0
280
     0
281
     1
  0
CLASS
  1
DICTIONARYVAR
  2
AcDbDictionaryVar
  3
"AutoCAD"
 90
        0
280
     0
281
     0
  0
CLASS
  1
HATCH
  2
AcDbHatch
  3
"ACAD_SEDONA"
 90
        0
280
     0
281
     1
  0
ENDSEC
  0
SECTION
  2
TABLES
  0
TABLE
  2
VPORT
  5
8
100
AcDbSymbolTable
 70
     3
  0
VPORT
  5
2F98
100
AcDbSymbolTableRecord
100
AcDbViewportTableRecord
  2
*ACTIVE
 70
     0
 10
0.0
 20
0.0
 11
1.0
 21
1.0
 12
-534.196029
 22
-409.948964
 13
0.0
 23
0.0
 14
1.0
 24
1.0
 15
50.0
 25
50.0
 16
0.0
 26
0.0
 36
1.0
 17
0.0
 27
0.0
 37
0.0
 40
425.823379
 41
1.523346
 42
50.0
 43
0.0
 44
0.0
 50
0.0
 51
0.0
 71
     0
 72
   100
 73
     1
 74
     0
 75
     1
 76
     0
 77
     0
 78
     0
  0
ENDTAB
  0
TABLE
  2
LTYPE
  5
5
100
AcDbSymbolTable
 70
     4
  0
LTYPE
  5
14
100
AcDbSymbolTableRecord
100
AcDbLinetypeTableRecord
  2
BYBLOCK
 70
     0
  3

 72
    65
 73
     0
 40
0.0
  0
LTYPE
  5
15
100
AcDbSymbolTableRecord
100
AcDbLinetypeTableRecord
  2
BYLAYER
 70
     0
  3

 72
    65
 73
     0
 40
0.0
  0
LTYPE
  5
16
100
AcDbSymbolTableRecord
100
AcDbLinetypeTableRecord
  2
CONTINUOUS
 70
     0
  3
Solid line
 72
    65
 73
     0
 40
0.0
  0
LTYPE
  5
1D7
100
AcDbSymbolTableRecord
100
AcDbLinetypeTableRecord
  2
DASHED
 70
     0
  3
__ __ __ __ __ __ __ __ __ __ __ __ __ __ __ __
 72
    65
 73
     2
 40
0.75
 49
0.5
 74
     0
 49
-0.25
 74
     0
  0
LTYPE
  5
492
100
AcDbSymbolTableRecord
100
AcDbLinetypeTableRecord
  2
DASHDOT
 70
     0
  3
__ . __ . __ . __ . __ . __ . __ . __ . __ . __
 72
    65
 73
     4
 40
1.0
 49
0.5
 74
     0
 49
-0.25
 74
     0
 49
0.0
 74
     0
 49
-0.25
 74
     0
  0
LTYPE
  5
2CE7
100
AcDbSymbolTableRecord
100
AcDbLinetypeTableRecord
  2
DOT
 70
     0
  3
Dot . . . . . . . . . . . . . . . . . . . . . .
 72
    65
 73
     2
 40
6.35
 49
0.0
 74
     0
 49
-6.35
 74
     0
  0
ENDTAB
  0
TABLE
  2
LAYER
  5
2
100
AcDbSymbolTable
 70
     6
  0
LAYER
  5
F
100
AcDbSymbolTableRecord
100
AcDbLayerTableRecord
  2
0
 70
     0
 62
     7
  6
CONTINUOUS
  0
LAYER
  5
1A22
100
AcDbSymbolTableRecord
100
AcDbLayerTableRecord
  2
DEFPOINTS
 70
     0
 62
     7
  6
CONTINUOUS
  0
LAYER
  5
2CE8
100
AcDbSymbolTableRecord
100
AcDbLayerTableRecord
  2
V0-OBRYS
 70
     0
 62
    90
  6
CONTINUOUS
  0
LAYER
  5
2CE9
100
AcDbSymbolTableRecord
100
AcDbLayerTableRecord
  2
V0-VYPLNE
 70
     0
 62
    52
  6
CONTINUOUS
  0
LAYER
  5
2CEA
100
AcDbSymbolTableRecord
100
AcDbLayerTableRecord
  2
V0-NAZVY
 70
     0
 62
   210
  6
CONTINUOUS
  0
LAYER
  5
2CEB
100
AcDbSymbolTableRecord
100
AcDbLayerTableRecord
  2
V0-ZBYTEK
 70
     0
 62
    51
  6
CONTINUOUS
  0
ENDTAB
  0
TABLE
  2
STYLE
  5
3
100
AcDbSymbolTable
 70
     6
  0
STYLE
  5
10
100
AcDbSymbolTableRecord
100
AcDbTextStyleTableRecord
  2
STANDARD
 70
     0
 40
0.0
 41
1.0
 50
0.0
 71
     0
 42
15.0
  3
ISOCP.shx
  4

  0
STYLE
  5
2CEC
100
AcDbSymbolTableRecord
100
AcDbTextStyleTableRecord
  2
ED
 70
     0
 40
20.0
 41
1.0
 50
0.0
 71
     0
 42
2.5
  3
ISOCP.shx
  4

  0
STYLE
  5
2CED
100
AcDbSymbolTableRecord
100
AcDbTextStyleTableRecord
  2
EDVENT
 70
     0
 40
10.0
 41
1.0
 50
0.0
 71
     0
 42
2.5
  3
ISOCP.shx
  4

  0
STYLE
  5
2CEE
100
AcDbSymbolTableRecord
100
AcDbTextStyleTableRecord
  2
E
 70
     0
 40
25.0
 41
1.0
 50
0.0
 71
     0
 42
2.5
  3
ISOCP.shx
  4

  0
STYLE
  5
2CEF
100
AcDbSymbolTableRecord
100
AcDbTextStyleTableRecord
  2
ED-VENT
 70
     0
 40
25.0
 41
1.0
 50
0.0
 71
     0
 42
2.5
  3
ISOCP.shx
  4

  0
STYLE
  5
2CF0
100
AcDbSymbolTableRecord
100
AcDbTextStyleTableRecord
  2
ED2
 70
     0
 40
25.0
 41
1.0
 50
0.0
 71
     0
 42
2.5
  3
ISOCP.shx
  4

  0
ENDTAB
  0
TABLE
  2
VIEW
  5
6
100
AcDbSymbolTable
 70
     0
  0
ENDTAB
  0
TABLE
  2
UCS
  5
7
100
AcDbSymbolTable
 70
     0
  0
ENDTAB
  0
TABLE
  2
APPID
  5
9
100
AcDbSymbolTable
 70
     4
  0
APPID
  5
11
100
AcDbSymbolTableRecord
100
AcDbRegAppTableRecord
  2
ACAD
 70
     0
  0
APPID
  5
906
100
AcDbSymbolTableRecord
100
AcDbRegAppTableRecord
  2
CONTENTTABDATA
 70
     0
  0
APPID
  5
907
100
AcDbSymbolTableRecord
100
AcDbRegAppTableRecord
  2
CONTENTCURRENTTAB
 70
     0
  0
APPID
  5
908
100
AcDbSymbolTableRecord
100
AcDbRegAppTableRecord
  2
CONTENTBLOCKDESCRIPTION
 70
     0
  0
ENDTAB
  0
TABLE
  2
DIMSTYLE
  5
A
100
AcDbSymbolTable
 70
     3
  0
DIMSTYLE
105
1D
102
{ACAD_REACTORS
330
2AE5
330
2ACB
330
2AD8
330
2AF2
330
2B01
330
2B2A
330
2B1D
102
}
100
AcDbSymbolTableRecord
100
AcDbDimStyleTableRecord
  2
STANDARD
 70
     0
  3

  4

  5

  6
_OPEN
  7
_OPEN
 40
5.0
 41
3.5
 42
0.0625
 43
0.38
 44
0.18
 45
0.0
 46
0.0
 47
0.0
 48
0.0
140
3.5
141
0.0
142
0.0
143
25.4
144
1.0
145
0.0
146
1.0
147
0.625
 71
     0
 72
     0
 73
     0
 74
     0
 75
     0
 76
     0
 77
     1
 78
     0
170
     0
171
     2
172
     0
173
     1
174
     0
175
     0
176
     0
177
     0
178
     0
270
     2
271
     0
272
     4
273
     2
274
     2
340
10
275
     0
280
     0
281
     0
282
     0
283
     1
284
     0
285
     0
286
     0
287
     0
288
     0
  0
DIMSTYLE
105
2CF1
100
AcDbSymbolTableRecord
100
AcDbDimStyleTableRecord
  2
ED
 70
     0
  3

  4

  5

  6
_OPEN
  7
_OPEN
 40
0.0
 41
15.0
 42
0.625
 43
3.75
 44
1.25
 45
0.0
 46
0.0
 47
0.0
 48
0.0
140
15.0
141
2.5
142
0.0
143
0.0394
144
1.0
145
0.0
146
1.0
147
3.0
 71
     0
 72
     0
 73
     0
 74
     0
 75
     0
 76
     0
 77
     1
 78
     8
170
     0
171
     4
172
     1
173
     1
174
     0
175
     0
176
     0
177
     0
178
     0
270
     2
271
     0
272
     1
273
     8
274
     4
340
2CEC
275
     0
280
     0
281
     0
282
     0
283
     1
284
     8
285
     0
286
     0
287
     3
288
     0
  0
DIMSTYLE
105
2CF2
100
AcDbSymbolTableRecord
100
AcDbDimStyleTableRecord
  2
ED2
 70
     0
  3

  4

  5

  6
_OPEN
  7
_OPEN
 40
0.0
 41
25.0
 42
0.625
 43
3.75
 44
1.25
 45
0.0
 46
0.0
 47
0.0
 48
0.0
140
30.0
141
2.5
142
0.0
143
0.0394
144
1.0
145
0.0
146
1.0
147
5.0
 71
     0
 72
     0
 73
     0
 74
     0
 75
     0
 76
     0
 77
     1
 78
     8
170
     0
171
     4
172
     1
173
     1
174
     0
175
     0
176
     0
177
     0
178
     0
270
     2
271
     0
272
     1
273
     8
274
     4
340
2CEC
275
     0
280
     0
281
     0
282
     0
283
     1
284
     8
285
     0
286
     0
287
     3
288
     0
  0
ENDTAB
  0
TABLE
  2
BLOCK_RECORD
  5
1
100
AcDbSymbolTable
 70
    15
  0
BLOCK_RECORD
  5
1A
100
AcDbSymbolTableRecord
100
AcDbBlockTableRecord
  2
*MODEL_SPACE
  0
BLOCK_RECORD
  5
17
100
AcDbSymbolTableRecord
100
AcDbBlockTableRecord
  2
*PAPER_SPACE
  0
BLOCK_RECORD
  5
1A05
100
AcDbSymbolTableRecord
100
AcDbBlockTableRecord
  2
_OPEN
  0
BLOCK_RECORD
  5
2ED6
100
AcDbSymbolTableRecord
100
AcDbBlockTableRecord
  2
*D8
  0
BLOCK_RECORD
  5
2EE2
100
AcDbSymbolTableRecord
100
AcDbBlockTableRecord
  2
*D9
  0
BLOCK_RECORD
  5
2EEE
100
AcDbSymbolTableRecord
100
AcDbBlockTableRecord
  2
*D10
  0
BLOCK_RECORD
  5
2EFA
100
AcDbSymbolTableRecord
100
AcDbBlockTableRecord
  2
*D11
  0
BLOCK_RECORD
  5
2F54
100
AcDbSymbolTableRecord
100
AcDbBlockTableRecord
  2
*D12
  0
BLOCK_RECORD
  5
2F60
100
AcDbSymbolTableRecord
100
AcDbBlockTableRecord
  2
*D13
  0
BLOCK_RECORD
  5
2F6C
100
AcDbSymbolTableRecord
100
AcDbBlockTableRecord
  2
*D14
  0
ENDTAB
  0
ENDSEC
  0
SECTION
  2
BLOCKS
  0
BLOCK
  5
1B
100
AcDbEntity
  8
0
100
AcDbBlockBegin
  2
*MODEL_SPACE
 70
     0
 10
0.0
 20
0.0
 30
0.0
  3
*MODEL_SPACE
  1

  0
ENDBLK
  5
1C
100
AcDbEntity
  8
0
100
AcDbBlockEnd
  0
BLOCK
  5
18
100
AcDbEntity
 67
     1
  8
0
100
AcDbBlockBegin
  2
*PAPER_SPACE
 70
     0
 10
0.0
 20
0.0
 30
0.0
  3
*PAPER_SPACE
  1

  0
ENDBLK
  5
19
100
AcDbEntity
 67
     1
  8
0
100
AcDbBlockEnd
  0
BLOCK
  5
1A09
100
AcDbEntity
  8
0
100
AcDbBlockBegin
  2
_OPEN
 70
     0
 10
0.0
 20
0.0
 30
0.0
  3
_OPEN
  1

  0
LINE
  5
1A06
100
AcDbEntity
  8
0
  6
BYBLOCK
 62
     0
100
AcDbLine
 10
-1.0
 20
0.166667
 30
0.0
 11
0.0
 21
0.0
 31
0.0
  0
LINE
  5
1A07
100
AcDbEntity
  8
0
  6
BYBLOCK
 62
     0
100
AcDbLine
 10
0.0
 20
0.0
 30
0.0
 11
-1.0
 21
-0.166667
 31
0.0
  0
LINE
  5
1A08
100
AcDbEntity
  8
0
  6
BYBLOCK
 62
     0
100
AcDbLine
 10
0.0
 20
0.0
 30
0.0
 11
-1.0
 21
0.0
 31
0.0
  0
ENDBLK
  5
1A0A
100
AcDbEntity
  8
0
100
AcDbBlockEnd
  0
BLOCK
  5
2ED7
100
AcDbEntity
  8
0
 48
2.0
100
AcDbBlockBegin
  2
*D8
 70
     1
 10
0.0
 20
0.0
 30
0.0
  3
*D8
  1

  0
LINE
  5
2ED8
100
AcDbEntity
  8
0
  6
BYBLOCK
 62
     0
 48
2.0
100
AcDbLine
 10
-742.0
 20
-452.923154
 30
0.0
 11
-742.0
 21
-494.75282
 31
0.0
  0
LINE
  5
2ED9
100
AcDbEntity
  8
0
  6
BYBLOCK
 62
     0
 48
2.0
100
AcDbLine
 10
-548.0
 20
-452.923154
 30
0.0
 11
-548.0
 21
-494.75282
 31
0.0
  0
LINE
  5
2EDA
100
AcDbEntity
  8
0
  6
BYBLOCK
 62
     0
 48
2.0
100
AcDbLine
 10
-732.0
 20
-494.57282
 30
0.0
 11
-558.0
 21
-494.57282
 31
0.0
  0
INSERT
  5
2EDB
100
AcDbEntity
  8
0
  6
BYBLOCK
 62
     0
 48
2.0
100
AcDbBlockReference
  2
_OPEN
 10
-742.0
 20
-494.57282
 30
0.0
 41
10.0
 42
10.0
 43
10.0
 50
180.0
  0
INSERT
  5
2EDC
100
AcDbEntity
  8
0
  6
BYBLOCK
 62
     0
 48
2.0
100
AcDbBlockReference
  2
_OPEN
 10
-548.0
 20
-494.57282
 30
0.0
 41
10.0
 42
10.0
 43
10.0
  0
MTEXT
  5
2EDD
100
AcDbEntity
  8
0
  6
BYBLOCK
 62
     0
 48
2.0
100
AcDbMText
 10
-645.0
 20
-488.94782
 30
0.0
 40
10.0
 41
0.0
 71
     5
 72
     1
  1
\A1;194
  0
POINT
  5
2EDE
100
AcDbEntity
  8
DEFPOINTS
  6
BYBLOCK
 62
     0
 48
2.0
100
AcDbPoint
 10
-742.0
 20
-452.860654
 30
0.0
  0
POINT
  5
2EDF
100
AcDbEntity
  8
DEFPOINTS
  6
BYBLOCK
 62
     0
 48
2.0
100
AcDbPoint
 10
-548.0
 20
-452.860654
 30
0.0
  0
POINT
  5
2EE0
100
AcDbEntity
  8
DEFPOINTS
  6
BYBLOCK
 62
     0
 48
2.0
100
AcDbPoint
 10
-548.0
 20
-494.57282
 30
0.0
  0
ENDBLK
  5
2EE1
100
AcDbEntity
  8
0
 48
2.0
100
AcDbBlockEnd
  0
BLOCK
  5
2EE3
100
AcDbEntity
  8
0
 48
2.0
100
AcDbBlockBegin
  2
*D9
 70
     1
 10
0.0
 20
0.0
 30
0.0
  3
*D9
  1

  0
LINE
  5
2EE4
100
AcDbEntity
  8
0
  6
BYBLOCK
 62
     0
 48
2.0
100
AcDbLine
 10
-547.9375
 20
-258.860654
 30
0.0
 11
-507.42482
 21
-258.860654
 31
0.0
  0
LINE
  5
2EE5
100
AcDbEntity
  8
0
  6
BYBLOCK
 62
     0
 48
2.0
100
AcDbLine
 10
-547.9375
 20
-452.860654
 30
0.0
 11
-507.42482
 21
-452.860654
 31
0.0
  0
LINE
  5
2EE6
100
AcDbEntity
  8
0
  6
BYBLOCK
 62
     0
 48
2.0
100
AcDbLine
 10
-507.60482
 20
-268.860654
 30
0.0
 11
-507.60482
 21
-442.860654
 31
0.0
  0
INSERT
  5
2EE7
100
AcDbEntity
  8
0
  6
BYBLOCK
 62
     0
 48
2.0
100
AcDbBlockReference
  2
_OPEN
 10
-507.60482
 20
-258.860654
 30
0.0
 41
10.0
 42
10.0
 43
10.0
 50
90.0
  0
INSERT
  5
2EE8
100
AcDbEntity
  8
0
  6
BYBLOCK
 62
     0
 48
2.0
100
AcDbBlockReference
  2
_OPEN
 10
-507.60482
 20
-452.860654
 30
0.0
 41
10.0
 42
10.0
 43
10.0
 50
270.0
  0
MTEXT
  5
2EE9
100
AcDbEntity
  8
0
  6
BYBLOCK
 62
     0
 48
2.0
100
AcDbMText
 10
-513.22982
 20
-355.860654
 30
0.0
 40
10.0
 41
0.0
 71
     5
 72
     1
  1
\A1;194
 11
0.0
 21
1.0
 31
0.0
  0
POINT
  5
2EEA
100
AcDbEntity
  8
DEFPOINTS
  6
BYBLOCK
 62
     0
 48
2.0
100
AcDbPoint
 10
-548.0
 20
-258.860654
 30
0.0
  0
POINT
  5
2EEB
100
AcDbEntity
  8
DEFPOINTS
  6
BYBLOCK
 62
     0
 48
2.0
100
AcDbPoint
 10
-548.0
 20
-452.860654
 30
0.0
  0
POINT
  5
2EEC
100
AcDbEntity
  8
DEFPOINTS
  6
BYBLOCK
 62
     0
 48
2.0
100
AcDbPoint
 10
-507.60482
 20
-452.860654
 30
0.0
  0
ENDBLK
  5
2EED
100
AcDbEntity
  8
0
 48
2.0
100
AcDbBlockEnd
  0
BLOCK
  5
2EEF
100
AcDbEntity
  8
0
 48
2.0
100
AcDbBlockBegin
  2
*D10
 70
     1
 10
0.0
 20
0.0
 30
0.0
  3
*D10
  1

  0
LINE
  5
2EF0
100
AcDbEntity
  8
0
  6
BYBLOCK
 62
     0
 48
2.0
100
AcDbLine
 10
-567.9375
 20
-285.860654
 30
0.0
 11
-527.956939
 21
-285.860654
 31
0.0
  0
LINE
  5
2EF1
100
AcDbEntity
  8
0
  6
BYBLOCK
 62
     0
 48
2.0
100
AcDbLine
 10
-567.9375
 20
-425.860654
 30
0.0
 11
-527.956939
 21
-425.860654
 31
0.0
  0
LINE
  5
2EF2
100
AcDbEntity
  8
0
  6
BYBLOCK
 62
     0
 48
2.0
100
AcDbLine
 10
-528.136939
 20
-295.860654
 30
0.0
 11
-528.136939
 21
-415.860654
 31
0.0
  0
INSERT
  5
2EF3
100
AcDbEntity
  8
0
  6
BYBLOCK
 62
     0
 48
2.0
100
AcDbBlockReference
  2
_OPEN
 10
-528.136939
 20
-285.860654
 30
0.0
 41
10.0
 42
10.0
 43
10.0
 50
90.0
  0
INSERT
  5
2EF4
100
AcDbEntity
  8
0
  6
BYBLOCK
 62
     0
 48
2.0
100
AcDbBlockReference
  2
_OPEN
 10
-528.136939
 20
-425.860654
 30
0.0
 41
10.0
 42
10.0
 43
10.0
 50
270.0
  0
MTEXT
  5
2EF5
100
AcDbEntity
  8
0
  6
BYBLOCK
 62
     0
 48
2.0
100
AcDbMText
 10
-533.761939
 20
-355.860654
 30
0.0
 40
10.0
 41
0.0
 71
     5
 72
     1
  1
\A1;140
 11
0.0
 21
1.0
 31
0.0
  0
POINT
  5
2EF6
100
AcDbEntity
  8
DEFPOINTS
  6
BYBLOCK
 62
     0
 48
2.0
100
AcDbPoint
 10
-568.0
 20
-285.860654
 30
0.0
  0
POINT
  5
2EF7
100
AcDbEntity
  8
DEFPOINTS
  6
BYBLOCK
 62
     0
 48
2.0
100
AcDbPoint
 10
-568.0
 20
-425.860654
 30
0.0
  0
POINT
  5
2EF8
100
AcDbEntity
  8
DEFPOINTS
  6
BYBLOCK
 62
     0
 48
2.0
100
AcDbPoint
 10
-528.136939
 20
-425.860654
 30
0.0
  0
ENDBLK
  5
2EF9
100
AcDbEntity
  8
0
 48
2.0
100
AcDbBlockEnd
  0
BLOCK
  5
2EFB
100
AcDbEntity
  8
0
 48
2.0
100
AcDbBlockBegin
  2
*D11
 70
     1
 10
0.0
 20
0.0
 30
0.0
  3
*D11
  1

  0
LINE
  5
2EFC
100
AcDbEntity
  8
0
  6
BYBLOCK
 62
     0
 48
2.0
100
AcDbLine
 10
-715.0
 20
-430.923154
 30
0.0
 11
-715.0
 21
-475.028768
 31
0.0
  0
LINE
  5
2EFD
100
AcDbEntity
  8
0
  6
BYBLOCK
 62
     0
 48
2.0
100
AcDbLine
 10
-575.0
 20
-430.923154
 30
0.0
 11
-575.0
 21
-475.028768
 31
0.0
  0
LINE
  5
2EFE
100
AcDbEntity
  8
0
  6
BYBLOCK
 62
     0
 48
2.0
100
AcDbLine
 10
-705.0
 20
-474.848768
 30
0.0
 11
-585.0
 21
-474.848768
 31
0.0
  0
INSERT
  5
2EFF
100
AcDbEntity
  8
0
  6
BYBLOCK
 62
     0
 48
2.0
100
AcDbBlockReference
  2
_OPEN
 10
-715.0
 20
-474.848768
 30
0.0
 41
10.0
 42
10.0
 43
10.0
 50
180.0
  0
INSERT
  5
2F00
100
AcDbEntity
  8
0
  6
BYBLOCK
 62
     0
 48
2.0
100
AcDbBlockReference
  2
_OPEN
 10
-575.0
 20
-474.848768
 30
0.0
 41
10.0
 42
10.0
 43
10.0
  0
MTEXT
  5
2F01
100
AcDbEntity
  8
0
  6
BYBLOCK
 62
     0
 48
2.0
100
AcDbMText
 10
-645.0
 20
-469.223768
 30
0.0
 40
10.0
 41
0.0
 71
     5
 72
     1
  1
\A1;140
  0
POINT
  5
2F02
100
AcDbEntity
  8
DEFPOINTS
  6
BYBLOCK
 62
     0
 48
2.0
100
AcDbPoint
 10
-715.0
 20
-430.860654
 30
0.0
  0
POINT
  5
2F03
100
AcDbEntity
  8
DEFPOINTS
  6
BYBLOCK
 62
     0
 48
2.0
100
AcDbPoint
 10
-575.0
 20
-430.860654
 30
0.0
  0
POINT
  5
2F04
100
AcDbEntity
  8
DEFPOINTS
  6
BYBLOCK
 62
     0
 48
2.0
100
AcDbPoint
 10
-575.0
 20
-474.848768
 30
0.0
  0
ENDBLK
  5
2F05
100
AcDbEntity
  8
0
 48
2.0
100
AcDbBlockEnd
  0
BLOCK
  5
2F55
100
AcDbEntity
  8
0
 48
2.0
100
AcDbBlockBegin
  2
*D12
 70
     1
 10
0.0
 20
0.0
 30
0.0
  3
*D12
  1

  0
LINE
  5
2F56
100
AcDbEntity
  8
0
  6
BYBLOCK
 62
     0
 48
2.0
100
AcDbLine
 10
-430.0625
 20
-275.860654
 30
0.0
 11
-452.175737
 21
-275.860654
 31
0.0
  0
LINE
  5
2F57
100
AcDbEntity
  8
0
  6
BYBLOCK
 62
     0
 48
2.0
100
AcDbLine
 10
-430.0625
 20
-435.860654
 30
0.0
 11
-452.175737
 21
-435.860654
 31
0.0
  0
LINE
  5
2F58
100
AcDbEntity
  8
0
  6
BYBLOCK
 62
     0
 48
2.0
100
AcDbLine
 10
-451.995737
 20
-285.860654
 30
0.0
 11
-451.995737
 21
-425.860654
 31
0.0
  0
INSERT
  5
2F59
100
AcDbEntity
  8
0
  6
BYBLOCK
 62
     0
 48
2.0
100
AcDbBlockReference
  2
_OPEN
 10
-451.995737
 20
-275.860654
 30
0.0
 41
10.0
 42
10.0
 43
10.0
 50
90.0
  0
INSERT
  5
2F5A
100
AcDbEntity
  8
0
  6
BYBLOCK
 62
     0
 48
2.0
100
AcDbBlockReference
  2
_OPEN
 10
-451.995737
 20
-435.860654
 30
0.0
 41
10.0
 42
10.0
 43
10.0
 50
270.0
  0
MTEXT
  5
2F5B
100
AcDbEntity
  8
0
  6
BYBLOCK
 62
     0
 48
2.0
100
AcDbMText
 10
-457.620737
 20
-355.860654
 30
0.0
 40
10.0
 41
0.0
 71
     5
 72
     1
  1
\A1;\U+2205160
 11
0.0
 21
1.0
 31
0.0
  0
POINT
  5
2F5C
100
AcDbEntity
  8
DEFPOINTS
  6
BYBLOCK
 62
     0
 48
2.0
100
AcDbPoint
 10
-430.0
 20
-275.860654
 30
0.0
  0
POINT
  5
2F5D
100
AcDbEntity
  8
DEFPOINTS
  6
BYBLOCK
 62
     0
 48
2.0
100
AcDbPoint
 10
-430.0
 20
-435.860654
 30
0.0
  0
POINT
  5
2F5E
100
AcDbEntity
  8
DEFPOINTS
  6
BYBLOCK
 62
     0
 48
2.0
100
AcDbPoint
 10
-451.995737
 20
-435.860654
 30
0.0
  0
ENDBLK
  5
2F5F
100
AcDbEntity
  8
0
 48
2.0
100
AcDbBlockEnd
  0
BLOCK
  5
2F61
100
AcDbEntity
  8
0
 48
2.0
100
AcDbBlockBegin
  2
*D13
 70
     1
 10
0.0
 20
0.0
 30
0.0
  3
*D13
  1

  0
LINE
  5
2F62
100
AcDbEntity
  8
0
  6
BYBLOCK
 62
     0
 48
2.0
100
AcDbLine
 10
-430.0
 20
-435.923154
 30
0.0
 11
-430.0
 21
-493.174896
 31
0.0
  0
LINE
  5
2F63
100
AcDbEntity
  8
0
  6
BYBLOCK
 62
     0
 48
2.0
100
AcDbLine
 10
-380.0
 20
-452.923154
 30
0.0
 11
-380.0
 21
-493.174896
 31
0.0
  0
LINE
  5
2F64
100
AcDbEntity
  8
0
  6
BYBLOCK
 62
     0
 48
2.0
100
AcDbLine
 10
-420.0
 20
-492.994896
 30
0.0
 11
-390.0
 21
-492.994896
 31
0.0
  0
INSERT
  5
2F65
100
AcDbEntity
  8
0
  6
BYBLOCK
 62
     0
 48
2.0
100
AcDbBlockReference
  2
_OPEN
 10
-430.0
 20
-492.994896
 30
0.0
 41
10.0
 42
10.0
 43
10.0
 50
180.0
  0
INSERT
  5
2F66
100
AcDbEntity
  8
0
  6
BYBLOCK
 62
     0
 48
2.0
100
AcDbBlockReference
  2
_OPEN
 10
-380.0
 20
-492.994896
 30
0.0
 41
10.0
 42
10.0
 43
10.0
  0
MTEXT
  5
2F67
100
AcDbEntity
  8
0
  6
BYBLOCK
 62
     0
 48
2.0
100
AcDbMText
 10
-405.0
 20
-487.369896
 30
0.0
 40
10.0
 41
0.0
 71
     5
 72
     1
  1
\A1;50
  0
POINT
  5
2F68
100
AcDbEntity
  8
DEFPOINTS
  6
BYBLOCK
 62
     0
 48
2.0
100
AcDbPoint
 10
-430.0
 20
-435.860654
 30
0.0
  0
POINT
  5
2F69
100
AcDbEntity
  8
DEFPOINTS
  6
BYBLOCK
 62
     0
 48
2.0
100
AcDbPoint
 10
-380.0
 20
-452.860654
 30
0.0
  0
POINT
  5
2F6A
100
AcDbEntity
  8
DEFPOINTS
  6
BYBLOCK
 62
     0
 48
2.0
100
AcDbPoint
 10
-380.0
 20
-492.994896
 30
0.0
  0
ENDBLK
  5
2F6B
100
AcDbEntity
  8
0
 48
2.0
100
AcDbBlockEnd
  0
BLOCK
  5
2F6D
100
AcDbEntity
  8
0
 48
2.0
100
AcDbBlockBegin
  2
*D14
 70
     1
 10
0.0
 20
0.0
 30
0.0
  3
*D14
  1

  0
LINE
  5
2F6E
100
AcDbEntity
  8
0
  6
BYBLOCK
 62
     0
 48
2.0
100
AcDbLine
 10
-402.0
 20
-452.923154
 30
0.0
 11
-402.0
 21
-474.239806
 31
0.0
  0
LINE
  5
2F6F
100
AcDbEntity
  8
0
  6
BYBLOCK
 62
     0
 48
2.0
100
AcDbLine
 10
-380.0
 20
-452.923154
 30
0.0
 11
-380.0
 21
-474.239806
 31
0.0
  0
LINE
  5
2F70
100
AcDbEntity
  8
0
  6
BYBLOCK
 62
     0
 48
2.0
100
AcDbLine
 10
-392.0
 20
-474.059806
 30
0.0
 11
-390.0
 21
-474.059806
 31
0.0
  0
INSERT
  5
2F71
100
AcDbEntity
  8
0
  6
BYBLOCK
 62
     0
 48
2.0
100
AcDbBlockReference
  2
_OPEN
 10
-402.0
 20
-474.059806
 30
0.0
 41
10.0
 42
10.0
 43
10.0
 50
180.0
  0
INSERT
  5
2F72
100
AcDbEntity
  8
0
  6
BYBLOCK
 62
     0
 48
2.0
100
AcDbBlockReference
  2
_OPEN
 10
-380.0
 20
-474.059806
 30
0.0
 41
10.0
 42
10.0
 43
10.0
  0
MTEXT
  5
2F73
100
AcDbEntity
  8
0
  6
BYBLOCK
 62
     0
 48
2.0
100
AcDbMText
 10
-391.0
 20
-468.433822
 30
0.0
 40
10.0
 41
0.0
 71
     5
 72
     1
  1
\A1;22
  0
POINT
  5
2F74
100
AcDbEntity
  8
DEFPOINTS
  6
BYBLOCK
 62
     0
 48
2.0
100
AcDbPoint
 10
-402.0
 20
-452.860654
 30
0.0
  0
POINT
  5
2F75
100
AcDbEntity
  8
DEFPOINTS
  6
BYBLOCK
 62
     0
 48
2.0
100
AcDbPoint
 10
-380.0
 20
-452.860654
 30
0.0
  0
POINT
  5
2F76
100
AcDbEntity
  8
DEFPOINTS
  6
BYBLOCK
 62
     0
 48
2.0
100
AcDbPoint
 10
-380.0
 20
-474.059806
 30
0.0
  0
ENDBLK
  5
2F77
100
AcDbEntity
  8
0
 48
2.0
100
AcDbBlockEnd
  0
ENDSEC
  0
SECTION
  2
ENTITIES
  0
LINE
  5
29FD
100
AcDbEntity
  8
V0-OBRYS
  6
CONTINUOUS
 62
    90
100
AcDbLine
 10
-742.0
 20
-355.860654
 30
0.0
 11
-742.0
 21
-258.860654
 31
0.0
  0
LINE
  5
29FE
100
AcDbEntity
  8
V0-OBRYS
  6
CONTINUOUS
 62
    90
100
AcDbLine
 10
-742.0
 20
-258.860654
 30
0.0
 11
-645.0
 21
-258.860654
 31
0.0
  0
CIRCLE
  5
2A01
100
AcDbEntity
  8
V0-OBRYS
  6
CONTINUOUS
 62
    90
100
AcDbCircle
 10
-715.0
 20
-285.860654
 30
0.0
 40
2.5
  0
LINE
  5
2A02
100
AcDbEntity
  8
V0-OBRYS
  6
CONTINUOUS
 62
    90
100
AcDbLine
 10
-732.0
 20
-355.860654
 30
0.0
 11
-732.0
 21
-268.860654
 31
0.0
  0
LINE
  5
2A13
100
AcDbEntity
  8
V0-OBRYS
  6
CONTINUOUS
 62
    90
100
AcDbLine
 10
-558.0
 20
-355.860654
 30
0.0
 11
-558.0
 21
-268.860654
 31
0.0
  0
LINE
  5
2A14
100
AcDbEntity
  8
V0-OBRYS
  6
CONTINUOUS
 62
    90
100
AcDbLine
 10
-645.0
 20
-268.860654
 30
0.0
 11
-732.0
 21
-268.860654
 31
0.0
  0
LINE
  5
2A15
100
AcDbEntity
  8
V0-OBRYS
  6
CONTINUOUS
 62
    90
100
AcDbLine
 10
-645.0
 20
-268.860654
 30
0.0
 11
-558.0
 21
-268.860654
 31
0.0
  0
LINE
  5
2A16
100
AcDbEntity
  8
V0-OBRYS
  6
CONTINUOUS
 62
    90
100
AcDbLine
 10
-380.0
 20
-258.860654
 30
0.0
 11
-402.0
 21
-258.860654
 31
0.0
  0
LINE
  5
2A17
100
AcDbEntity
  8
V0-OBRYS
  6
CONTINUOUS
 62
    90
100
AcDbLine
 10
-558.0
 20
-355.860654
 30
0.0
 11
-558.0
 21
-268.860654
 31
0.0
  0
LINE
  5
2A18
100
AcDbEntity
  8
V0-OBRYS
  6
CONTINUOUS
 62
    90
100
AcDbLine
 10
-548.0
 20
-355.860654
 30
0.0
 11
-548.0
 21
-258.860654
 31
0.0
  0
CIRCLE
  5
2A1A
100
AcDbEntity
  8
V0-OBRYS
  6
CONTINUOUS
 62
    90
100
AcDbCircle
 10
-575.0
 20
-285.860654
 30
0.0
 40
2.5
  0
LINE
  5
2A1C
100
AcDbEntity
  8
V0-OBRYS
  6
CONTINUOUS
 62
    90
100
AcDbLine
 10
-645.0
 20
-442.860654
 30
0.0
 11
-732.0
 21
-442.860654
 31
0.0
  0
LINE
  5
2A1D
100
AcDbEntity
  8
V0-OBRYS
  6
CONTINUOUS
 62
    90
100
AcDbLine
 10
-742.0
 20
-452.860654
 30
0.0
 11
-645.0
 21
-452.860654
 31
0.0
  0
LINE
  5
2A1E
100
AcDbEntity
  8
V0-OBRYS
  6
CONTINUOUS
 62
    90
100
AcDbLine
 10
-732.0
 20
-355.860654
 30
0.0
 11
-732.0
 21
-442.860654
 31
0.0
  0
LINE
  5
2A1F
100
AcDbEntity
  8
V0-OBRYS
  6
CONTINUOUS
 62
    90
100
AcDbLine
 10
-742.0
 20
-355.860654
 30
0.0
 11
-742.0
 21
-452.860654
 31
0.0
  0
LINE
  5
2A21
100
AcDbEntity
  8
V0-OBRYS
  6
CONTINUOUS
 62
    90
100
AcDbLine
 10
-380.0
 20
-452.860654
 30
0.0
 11
-402.0
 21
-452.860654
 31
0.0
  0
LINE
  5
2A22
100
AcDbEntity
  8
V0-OBRYS
  6
CONTINUOUS
 62
    90
100
AcDbLine
 10
-645.0
 20
-442.860654
 30
0.0
 11
-558.0
 21
-442.860654
 31
0.0
  0
CIRCLE
  5
2A24
100
AcDbEntity
  8
V0-OBRYS
  6
CONTINUOUS
 62
    90
100
AcDbCircle
 10
-715.0
 20
-425.860654
 30
0.0
 40
2.5
  0
LINE
  5
2A26
100
AcDbEntity
  8
V0-OBRYS
  6
CONTINUOUS
 62
    90
100
AcDbLine
 10
-558.0
 20
-355.860654
 30
0.0
 11
-558.0
 21
-442.860654
 31
0.0
  0
LINE
  5
2A27
100
AcDbEntity
  8
V0-OBRYS
  6
CONTINUOUS
 62
    90
100
AcDbLine
 10
-548.0
 20
-355.860654
 30
0.0
 11
-548.0
 21
-452.860654
 31
0.0
  0
LINE
  5
2A28
100
AcDbEntity
  8
V0-OBRYS
  6
CONTINUOUS
 62
    90
100
AcDbLine
 10
-558.0
 20
-355.860654
 30
0.0
 11
-558.0
 21
-442.860654
 31
0.0
  0
CIRCLE
  5
2A29
100
AcDbEntity
  8
V0-OBRYS
  6
CONTINUOUS
 62
    90
100
AcDbCircle
 10
-575.0
 20
-425.860654
 30
0.0
 40
2.5
  0
LINE
  5
2A2D
100
AcDbEntity
  8
V0-VYPLNE
  6
DASHDOT
 62
    63
 48
3.0
100
AcDbLine
 10
-764.0
 20
-355.860654
 30
0.0
 11
-544.720572
 21
-355.860654
 31
0.0
  0
LINE
  5
2A2F
100
AcDbEntity
  8
V0-VYPLNE
  6
DASHDOT
 62
    63
 48
3.0
100
AcDbLine
 10
-645.0
 20
-245.860654
 30
0.0
 11
-645.0
 21
-312.860654
 31
0.0
  0
LINE
  5
2A3E
100
AcDbEntity
  8
V0-OBRYS
  6
CONTINUOUS
 62
    90
100
AcDbLine
 10
-733.0
 20
-421.860654
 30
0.0
 11
-558.0
 21
-421.860654
 31
0.0
  0
LINE
  5
2A3F
100
AcDbEntity
  8
V0-OBRYS
  6
CONTINUOUS
 62
    90
100
AcDbLine
 10
-733.0
 20
-402.860654
 30
0.0
 11
-558.0
 21
-402.860654
 31
0.0
  0
LINE
  5
2A40
100
AcDbEntity
  8
V0-OBRYS
  6
CONTINUOUS
 62
    90
100
AcDbLine
 10
-733.0
 20
-383.860654
 30
0.0
 11
-558.0
 21
-383.860654
 31
0.0
  0
LINE
  5
2A41
100
AcDbEntity
  8
V0-OBRYS
  6
CONTINUOUS
 62
    90
100
AcDbLine
 10
-733.0
 20
-364.860654
 30
0.0
 11
-558.0
 21
-364.860654
 31
0.0
  0
LINE
  5
2A42
100
AcDbEntity
  8
V0-OBRYS
  6
CONTINUOUS
 62
    90
100
AcDbLine
 10
-733.0
 20
-345.860654
 30
0.0
 11
-558.0
 21
-345.860654
 31
0.0
  0
LINE
  5
2A43
100
AcDbEntity
  8
V0-OBRYS
  6
CONTINUOUS
 62
    90
100
AcDbLine
 10
-733.0
 20
-326.860654
 30
0.0
 11
-691.0
 21
-326.860654
 31
0.0
  0
LINE
  5
2A44
100
AcDbEntity
  8
V0-OBRYS
  6
CONTINUOUS
 62
    90
100
AcDbLine
 10
-733.0
 20
-307.860654
 30
0.0
 11
-558.0
 21
-307.860654
 31
0.0
  0
LINE
  5
2A45
100
AcDbEntity
  8
V0-OBRYS
  6
CONTINUOUS
 62
    90
100
AcDbLine
 10
-733.0
 20
-288.860654
 30
0.0
 11
-558.0
 21
-288.860654
 31
0.0
  0
CIRCLE
  5
2A47
100
AcDbEntity
  8
V0-VYPLNE
  6
DASHED
 62
    56
 48
3.0
100
AcDbCircle
 10
-645.0
 20
-355.860654
 30
0.0
 40
80.0
  0
LINE
  5
2A48
100
AcDbEntity
  8
V0-OBRYS
  6
CONTINUOUS
 62
    90
100
AcDbLine
 10
-380.0
 20
-258.860654
 30
0.0
 11
-380.0
 21
-452.860654
 31
0.0
  0
LINE
  5
2A49
100
AcDbEntity
  8
V0-OBRYS
  6
CONTINUOUS
 62
    90
100
AcDbLine
 10
-402.0
 20
-355.860654
 30
0.0
 11
-402.0
 21
-258.860654
 31
0.0
  0
LINE
  5
2A4B
100
AcDbEntity
  8
V0-OBRYS
  6
CONTINUOUS
 62
    90
100
AcDbLine
 10
-402.0
 20
-355.860654
 30
0.0
 11
-402.0
 21
-452.860654
 31
0.0
  0
LINE
  5
2A4C
100
AcDbEntity
  8
V0-OBRYS
  6
CONTINUOUS
 62
    90
100
AcDbLine
 10
-548.0
 20
-258.860654
 30
0.0
 11
-645.0
 21
-258.860654
 31
0.0
  0
LINE
  5
2A52
100
AcDbEntity
  8
V0-VYPLNE
  6
DASHDOT
 62
    63
 48
3.0
100
AcDbLine
 10
-435.412104
 20
-355.860654
 30
0.0
 11
-380.0
 21
-355.860654
 31
0.0
  0
LINE
  5
2A56
100
AcDbEntity
  8
V0-OBRYS
  6
CONTINUOUS
 62
    90
100
AcDbLine
 10
-548.0
 20
-452.860654
 30
0.0
 11
-645.0
 21
-452.860654
 31
0.0
  0
LINE
  5
2A58
100
AcDbEntity
  8
V0-VYPLNE
  6
DASHED
 62
    56
 48
2.0
100
AcDbLine
 10
-384.240592
 20
-289.44269
 30
0.0
 11
-380.731701
 21
-294.993264
 31
0.0
  0
LINE
  5
2A59
100
AcDbEntity
  8
V0-OBRYS
  6
CONTINUOUS
 62
    90
100
AcDbLine
 10
-376.462282
 20
-306.129441
 30
0.0
 11
-378.712715
 21
-308.37778
 31
0.0
  0
ARC
  5
2A5A
100
AcDbEntity
  8
V0-OBRYS
  6
CONTINUOUS
 62
    90
100
AcDbCircle
 10
-378.582614
 20
-304.007133
 30
0.0
 40
3.0
100
AcDbArc
 50
314.973323
 51
32.29973
  0
CIRCLE
  5
2A5B
100
AcDbEntity
  8
V0-VYPLNE
  6
DASHED
 62
    56
 48
2.0
100
AcDbCircle
 10
-383.205988
 20
-291.251311
 30
0.0
 40
0.85041
  0
LINE
  5
2A5F
100
AcDbEntity
  8
V0-VYPLNE
  6
DASHED
 62
    56
 48
2.0
100
AcDbLine
 10
-388.189077
 20
-268.981842
 30
0.0
 11
-388.189077
 21
-458.280564
 31
0.0
  0
CIRCLE
  5
2A74
100
AcDbEntity
  8
V0-VYPLNE
  6
DASHED
 62
    56
 48
2.0
100
AcDbCircle
 10
-383.205988
 20
-424.251311
 30
0.0
 40
0.85041
  0
LINE
  5
2A83
100
AcDbEntity
  8
V0-OBRYS
  6
CONTINUOUS
 62
    90
100
AcDbLine
 10
-402.0
 20
-275.860654
 30
0.0
 11
-430.0
 21
-275.860654
 31
0.0
  0
LINE
  5
2A84
100
AcDbEntity
  8
V0-OBRYS
  6
CONTINUOUS
 62
    90
100
AcDbLine
 10
-430.0
 20
-275.860654
 30
0.0
 11
-430.0
 21
-355.860654
 31
0.0
  0
LINE
  5
2A85
100
AcDbEntity
  8
V0-OBRYS
  6
CONTINUOUS
 62
    90
100
AcDbLine
 10
-402.0
 20
-435.860654
 30
0.0
 11
-430.0
 21
-435.860654
 31
0.0
  0
LINE
  5
2A86
100
AcDbEntity
  8
V0-OBRYS
  6
CONTINUOUS
 62
    90
100
AcDbLine
 10
-430.0
 20
-435.860654
 30
0.0
 11
-430.0
 21
-355.860654
 31
0.0
  0
LINE
  5
2A87
100
AcDbEntity
  8
V0-OBRYS
  6
CONTINUOUS
 62
    90
100
AcDbLine
 10
-379.880326
 20
-296.34002
 30
0.0
 11
-376.046821
 21
-302.404088
 31
0.0
  0
LINE
  5
2A88
100
AcDbEntity
  8
V0-VYPLNE
  6
DASHED
 62
    56
 48
2.0
100
AcDbLine
 10
-385.225213
 20
-288.493938
 30
0.0
 11
-388.104108
 21
-288.493938
 31
0.0
  0
CIRCLE
  5
2A89
100
AcDbEntity
  8
V0-VYPLNE
  6
DASHED
 62
    56
 48
2.0
100
AcDbCircle
 10
-383.205988
 20
-310.251311
 30
0.0
 40
0.85041
  0
LINE
  5
2A8A
100
AcDbEntity
  8
V0-VYPLNE
  6
DASHED
 62
    56
 48
2.0
100
AcDbLine
 10
-384.240592
 20
-308.44269
 30
0.0
 11
-380.731701
 21
-313.993264
 31
0.0
  0
LINE
  5
2A8B
100
AcDbEntity
  8
V0-VYPLNE
  6
DASHED
 62
    56
 48
2.0
100
AcDbLine
 10
-385.225213
 20
-307.493938
 30
0.0
 11
-388.104108
 21
-307.493938
 31
0.0
  0
LINE
  5
2A8E
100
AcDbEntity
  8
V0-VYPLNE
  6
DASHED
 62
    56
 48
2.0
100
AcDbLine
 10
-384.240592
 20
-346.44269
 30
0.0
 11
-380.731701
 21
-351.993264
 31
0.0
  0
CIRCLE
  5
2A8F
100
AcDbEntity
  8
V0-VYPLNE
  6
DASHED
 62
    56
 48
2.0
100
AcDbCircle
 10
-383.205988
 20
-329.251311
 30
0.0
 40
0.85041
  0
LINE
  5
2A90
100
AcDbEntity
  8
V0-VYPLNE
  6
DASHED
 62
    56
 48
2.0
100
AcDbLine
 10
-384.240592
 20
-327.44269
 30
0.0
 11
-380.731701
 21
-332.993264
 31
0.0
  0
LINE
  5
2A91
100
AcDbEntity
  8
V0-VYPLNE
  6
DASHED
 62
    56
 48
2.0
100
AcDbLine
 10
-385.225213
 20
-345.493938
 30
0.0
 11
-388.104108
 21
-345.493938
 31
0.0
  0
CIRCLE
  5
2A92
100
AcDbEntity
  8
V0-VYPLNE
  6
DASHED
 62
    56
 48
2.0
100
AcDbCircle
 10
-383.205988
 20
-348.251311
 30
0.0
 40
0.85041
  0
LINE
  5
2A93
100
AcDbEntity
  8
V0-VYPLNE
  6
DASHED
 62
    56
 48
2.0
100
AcDbLine
 10
-385.225213
 20
-326.493938
 30
0.0
 11
-388.104108
 21
-326.493938
 31
0.0
  0
LINE
  5
2A94
100
AcDbEntity
  8
V0-VYPLNE
  6
DASHED
 62
    56
 48
2.0
100
AcDbLine
 10
-384.240592
 20
-384.44269
 30
0.0
 11
-380.731701
 21
-389.993264
 31
0.0
  0
CIRCLE
  5
2A95
100
AcDbEntity
  8
V0-VYPLNE
  6
DASHED
 62
    56
 48
2.0
100
AcDbCircle
 10
-383.205988
 20
-424.251311
 30
0.0
 40
0.85041
  0
LINE
  5
2A96
100
AcDbEntity
  8
V0-VYPLNE
  6
DASHED
 62
    56
 48
2.0
100
AcDbLine
 10
-385.225213
 20
-421.493938
 30
0.0
 11
-388.104108
 21
-421.493938
 31
0.0
  0
LINE
  5
2A97
100
AcDbEntity
  8
V0-VYPLNE
  6
DASHED
 62
    56
 48
2.0
100
AcDbLine
 10
-384.240592
 20
-422.44269
 30
0.0
 11
-380.731701
 21
-427.993264
 31
0.0
  0
LINE
  5
2A98
100
AcDbEntity
  8
V0-VYPLNE
  6
DASHED
 62
    56
 48
2.0
100
AcDbLine
 10
-385.225213
 20
-402.493938
 30
0.0
 11
-388.104108
 21
-402.493938
 31
0.0
  0
LINE
  5
2A99
100
AcDbEntity
  8
V0-VYPLNE
  6
DASHED
 62
    56
 48
2.0
100
AcDbLine
 10
-384.240592
 20
-403.44269
 30
0.0
 11
-380.731701
 21
-408.993264
 31
0.0
  0
CIRCLE
  5
2A9A
100
AcDbEntity
  8
V0-VYPLNE
  6
DASHED
 62
    56
 48
2.0
100
AcDbCircle
 10
-383.205988
 20
-405.251311
 30
0.0
 40
0.85041
  0
CIRCLE
  5
2A9B
100
AcDbEntity
  8
V0-VYPLNE
  6
DASHED
 62
    56
 48
2.0
100
AcDbCircle
 10
-383.205988
 20
-367.251311
 30
0.0
 40
0.85041
  0
LINE
  5
2A9C
100
AcDbEntity
  8
V0-VYPLNE
  6
DASHED
 62
    56
 48
2.0
100
AcDbLine
 10
-384.240592
 20
-365.44269
 30
0.0
 11
-380.731701
 21
-370.993264
 31
0.0
  0
LINE
  5
2A9D
100
AcDbEntity
  8
V0-VYPLNE
  6
DASHED
 62
    56
 48
2.0
100
AcDbLine
 10
-385.225213
 20
-383.493938
 30
0.0
 11
-388.104108
 21
-383.493938
 31
0.0
  0
CIRCLE
  5
2A9E
100
AcDbEntity
  8
V0-VYPLNE
  6
DASHED
 62
    56
 48
2.0
100
AcDbCircle
 10
-383.205988
 20
-386.251311
 30
0.0
 40
0.85041
  0
LINE
  5
2A9F
100
AcDbEntity
  8
V0-VYPLNE
  6
DASHED
 62
    56
 48
2.0
100
AcDbLine
 10
-385.225213
 20
-364.493938
 30
0.0
 11
-388.104108
 21
-364.493938
 31
0.0
  0
LINE
  5
2AA0
100
AcDbEntity
  8
V0-OBRYS
  6
CONTINUOUS
 62
    90
100
AcDbLine
 10
-379.880326
 20
-315.34002
 30
0.0
 11
-376.046821
 21
-321.404088
 31
0.0
  0
LINE
  5
2AA1
100
AcDbEntity
  8
V0-OBRYS
  6
CONTINUOUS
 62
    90
100
AcDbLine
 10
-376.462282
 20
-325.129441
 30
0.0
 11
-378.712715
 21
-327.37778
 31
0.0
  0
ARC
  5
2AA2
100
AcDbEntity
  8
V0-OBRYS
  6
CONTINUOUS
 62
    90
100
AcDbCircle
 10
-378.582614
 20
-323.007133
 30
0.0
 40
3.0
100
AcDbArc
 50
314.973323
 51
32.29973
  0
LINE
  5
2AA3
100
AcDbEntity
  8
V0-OBRYS
  6
CONTINUOUS
 62
    90
100
AcDbLine
 10
-376.462282
 20
-363.129441
 30
0.0
 11
-378.712715
 21
-365.37778
 31
0.0
  0
LINE
  5
2AA4
100
AcDbEntity
  8
V0-OBRYS
  6
CONTINUOUS
 62
    90
100
AcDbLine
 10
-379.880326
 20
-353.34002
 30
0.0
 11
-376.046821
 21
-359.404088
 31
0.0
  0
LINE
  5
2AA5
100
AcDbEntity
  8
V0-OBRYS
  6
CONTINUOUS
 62
    90
100
AcDbLine
 10
-379.880326
 20
-334.34002
 30
0.0
 11
-376.046821
 21
-340.404088
 31
0.0
  0
LINE
  5
2AA6
100
AcDbEntity
  8
V0-OBRYS
  6
CONTINUOUS
 62
    90
100
AcDbLine
 10
-376.462282
 20
-344.129441
 30
0.0
 11
-378.712715
 21
-346.37778
 31
0.0
  0
ARC
  5
2AA7
100
AcDbEntity
  8
V0-OBRYS
  6
CONTINUOUS
 62
    90
100
AcDbCircle
 10
-378.582614
 20
-361.007133
 30
0.0
 40
3.0
100
AcDbArc
 50
314.973323
 51
32.29973
  0
ARC
  5
2AA8
100
AcDbEntity
  8
V0-OBRYS
  6
CONTINUOUS
 62
    90
100
AcDbCircle
 10
-378.582614
 20
-342.007133
 30
0.0
 40
3.0
100
AcDbArc
 50
314.973323
 51
32.29973
  0
LINE
  5
2AA9
100
AcDbEntity
  8
V0-OBRYS
  6
CONTINUOUS
 62
    90
100
AcDbLine
 10
-376.462282
 20
-420.129441
 30
0.0
 11
-378.712715
 21
-422.37778
 31
0.0
  0
LINE
  5
2AAA
100
AcDbEntity
  8
V0-OBRYS
  6
CONTINUOUS
 62
    90
100
AcDbLine
 10
-379.880326
 20
-410.34002
 30
0.0
 11
-376.046821
 21
-416.404088
 31
0.0
  0
LINE
  5
2AAB
100
AcDbEntity
  8
V0-OBRYS
  6
CONTINUOUS
 62
    90
100
AcDbLine
 10
-379.880326
 20
-429.34002
 30
0.0
 11
-376.046821
 21
-435.404088
 31
0.0
  0
LINE
  5
2AAC
100
AcDbEntity
  8
V0-OBRYS
  6
CONTINUOUS
 62
    90
100
AcDbLine
 10
-376.462282
 20
-439.129441
 30
0.0
 11
-378.712715
 21
-441.37778
 31
0.0
  0
LINE
  5
2AAD
100
AcDbEntity
  8
V0-OBRYS
  6
CONTINUOUS
 62
    90
100
AcDbLine
 10
-376.462282
 20
-401.129441
 30
0.0
 11
-378.712715
 21
-403.37778
 31
0.0
  0
LINE
  5
2AAE
100
AcDbEntity
  8
V0-OBRYS
  6
CONTINUOUS
 62
    90
100
AcDbLine
 10
-379.880326
 20
-391.34002
 30
0.0
 11
-376.046821
 21
-397.404088
 31
0.0
  0
LINE
  5
2AAF
100
AcDbEntity
  8
V0-OBRYS
  6
CONTINUOUS
 62
    90
100
AcDbLine
 10
-379.880326
 20
-372.34002
 30
0.0
 11
-376.046821
 21
-378.404088
 31
0.0
  0
LINE
  5
2AB0
100
AcDbEntity
  8
V0-OBRYS
  6
CONTINUOUS
 62
    90
100
AcDbLine
 10
-376.462282
 20
-382.129441
 30
0.0
 11
-378.712715
 21
-384.37778
 31
0.0
  0
ARC
  5
2AB1
100
AcDbEntity
  8
V0-OBRYS
  6
CONTINUOUS
 62
    90
100
AcDbCircle
 10
-378.582614
 20
-437.007133
 30
0.0
 40
3.0
100
AcDbArc
 50
314.973323
 51
32.29973
  0
ARC
  5
2AB2
100
AcDbEntity
  8
V0-OBRYS
  6
CONTINUOUS
 62
    90
100
AcDbCircle
 10
-378.582614
 20
-418.007133
 30
0.0
 40
3.0
100
AcDbArc
 50
314.973323
 51
32.29973
  0
ARC
  5
2AB3
100
AcDbEntity
  8
V0-OBRYS
  6
CONTINUOUS
 62
    90
100
AcDbCircle
 10
-378.582614
 20
-399.007133
 30
0.0
 40
3.0
100
AcDbArc
 50
314.973323
 51
32.29973
  0
ARC
  5
2AB4
100
AcDbEntity
  8
V0-OBRYS
  6
CONTINUOUS
 62
    90
100
AcDbCircle
 10
-378.582614
 20
-380.007133
 30
0.0
 40
3.0
100
AcDbArc
 50
314.973323
 51
32.29973
  0
LINE
  5
2AB5
100
AcDbEntity
  8
V0-OBRYS
  6
CONTINUOUS
 62
    90
100
AcDbLine
 10
-379.880326
 20
-277.34002
 30
0.0
 11
-376.046821
 21
-283.404088
 31
0.0
  0
LINE
  5
2AB6
100
AcDbEntity
  8
V0-OBRYS
  6
CONTINUOUS
 62
    90
100
AcDbLine
 10
-376.462282
 20
-287.129441
 30
0.0
 11
-378.712715
 21
-289.37778
 31
0.0
  0
CIRCLE
  5
2AB7
100
AcDbEntity
  8
V0-VYPLNE
  6
DASHED
 62
    56
 48
2.0
100
AcDbCircle
 10
-383.205988
 20
-272.251311
 30
0.0
 40
0.85041
  0
LINE
  5
2AB8
100
AcDbEntity
  8
V0-VYPLNE
  6
DASHED
 62
    56
 48
2.0
100
AcDbLine
 10
-384.240592
 20
-270.44269
 30
0.0
 11
-380.731701
 21
-275.993264
 31
0.0
  0
ARC
  5
2AB9
100
AcDbEntity
  8
V0-OBRYS
  6
CONTINUOUS
 62
    90
100
AcDbCircle
 10
-378.582614
 20
-285.007133
 30
0.0
 40
3.0
100
AcDbArc
 50
314.973323
 51
32.29973
  0
LINE
  5
2ABA
100
AcDbEntity
  8
V0-VYPLNE
  6
DASHED
 62
    56
 48
2.0
100
AcDbLine
 10
-385.225213
 20
-269.493938
 30
0.0
 11
-388.104108
 21
-269.493938
 31
0.0
  0
DIMENSION
  5
2ACB
100
AcDbEntity
  8
V0-VYPLNE
  6
CONTINUOUS
 62
    41
 48
2.0
100
AcDbDimension
  2
*D9
 10
-507.60482
 20
-452.860654
 30
0.0
 11
-513.22982
 21
-355.860654
 31
0.0
 70
    32
  3
STANDARD
100
AcDbAlignedDimension
 13
-548.0
 23
-258.860654
 33
0.0
 14
-548.0
 24
-452.860654
 34
0.0
 50
90.0
100
AcDbRotatedDimension
1001
ACAD
1000
DSTYLE
1002
{
1070
   140
1040
10.0
1070
    40
1040
1.0
1070
    41
1040
10.0
1002
}
  0
DIMENSION
  5
2AD8
100
AcDbEntity
  8
V0-VYPLNE
  6
CONTINUOUS
 62
    41
 48
2.0
100
AcDbDimension
  2
*D10
 10
-528.136939
 20
-425.860654
 30
0.0
 11
-533.761939
 21
-355.860654
 31
0.0
 70
    32
  3
STANDARD
100
AcDbAlignedDimension
 13
-568.0
 23
-285.860654
 33
0.0
 14
-568.0
 24
-425.860654
 34
0.0
 50
90.0
100
AcDbRotatedDimension
1001
ACAD
1000
DSTYLE
1002
{
1070
   140
1040
10.0
1070
    40
1040
1.0
1070
    41
1040
10.0
1002
}
  0
DIMENSION
  5
2AE5
100
AcDbEntity
  8
V0-VYPLNE
  6
CONTINUOUS
 62
    41
 48
2.0
100
AcDbDimension
  2
*D8
 10
-548.0
 20
-494.57282
 30
0.0
 11
-645.0
 21
-488.94782
 31
0.0
 70
    32
  3
STANDARD
100
AcDbAlignedDimension
 13
-742.0
 23
-452.860654
 33
0.0
 14
-548.0
 24
-452.860654
 34
0.0
100
AcDbRotatedDimension
1001
ACAD
1000
DSTYLE
1002
{
1070
   140
1040
10.0
1070
    40
1040
1.0
1070
    41
1040
10.0
1002
}
  0
DIMENSION
  5
2AF2
100
AcDbEntity
  8
V0-VYPLNE
  6
CONTINUOUS
 62
    41
 48
2.0
100
AcDbDimension
  2
*D11
 10
-575.0
 20
-474.848768
 30
0.0
 11
-645.0
 21
-469.223768
 31
0.0
 70
    32
  3
STANDARD
100
AcDbAlignedDimension
 13
-715.0
 23
-430.860654
 33
0.0
 14
-575.0
 24
-430.860654
 34
0.0
100
AcDbRotatedDimension
1001
ACAD
1000
DSTYLE
1002
{
1070
   140
1040
10.0
1070
    40
1040
1.0
1070
    41
1040
10.0
1002
}
  0
LEADER
  5
2AF3
100
AcDbEntity
  8
V0-VYPLNE
  6
CONTINUOUS
 62
    41
 48
2.0
100
AcDbLeader
  3
STANDARD
 73
     0
 74
     0
 75
     1
 40
10.0
 41
13.414214
 76
     3
 10
-712.136316
 20
-284.708918
 30
0.0
 10
-670.806019
 20
-245.527043
 30
0.0
 10
-660.806019
 20
-245.527043
 30
0.0
 77
    41
340
2AF4
1001
ACAD
1000
DSTYLE
1002
{
1070
   140
1040
10.0
1070
    40
1040
1.0
1070
    41
1040
10.0
1002
}
  0
MTEXT
  5
2AF4
102
{ACAD_REACTORS
330
2AF3
102
}
100
AcDbEntity
  8
V0-VYPLNE
  6
CONTINUOUS
 62
    41
 48
2.0
100
AcDbMText
 10
-660.181019
 20
-239.902043
 30
0.0
 40
10.0
 41
0.0
 71
     4
 72
     1
  1
%%c5
  0
DIMENSION
  5
2B01
100
AcDbEntity
  8
V0-VYPLNE
  6
CONTINUOUS
 62
    41
 48
2.0
100
AcDbDimension
  2
*D12
 10
-451.995737
 20
-435.860654
 30
0.0
 11
-457.620737
 21
-355.860654
 31
0.0
 70
    32
  1
%%c160
  3
STANDARD
100
AcDbAlignedDimension
 13
-430.0
 23
-275.860654
 33
0.0
 14
-430.0
 24
-435.860654
 34
0.0
 50
90.0
100
AcDbRotatedDimension
1001
ACAD
1000
DSTYLE
1002
{
1070
   140
1040
10.0
1070
    40
1040
1.0
1070
    41
1040
10.0
1002
}
  0
DIMENSION
  5
2B1D
100
AcDbEntity
  8
V0-VYPLNE
  6
CONTINUOUS
 62
    41
 48
2.0
100
AcDbDimension
  2
*D14
 10
-380.0
 20
-474.059806
 30
0.0
 11
-391.0
 21
-468.433822
 31
0.0
 70
    32
  3
STANDARD
100
AcDbAlignedDimension
 13
-402.0
 23
-452.860654
 33
0.0
 14
-380.0
 24
-452.860654
 34
0.0
100
AcDbRotatedDimension
1001
ACAD
1000
DSTYLE
1002
{
1070
   140
1040
10.0
1070
    40
1040
1.0
1070
    41
1040
10.0
1002
}
  0
DIMENSION
  5
2B2A
100
AcDbEntity
  8
V0-VYPLNE
  6
CONTINUOUS
 62
    41
 48
2.0
100
AcDbDimension
  2
*D13
 10
-380.0
 20
-492.994896
 30
0.0
 11
-405.0
 21
-487.369896
 31
0.0
 70
    32
  3
STANDARD
100
AcDbAlignedDimension
 13
-430.0
 23
-435.860654
 33
0.0
 14
-380.0
 24
-452.860654
 34
0.0
100
AcDbRotatedDimension
1001
ACAD
1000
DSTYLE
1002
{
1070
   140
1040
10.0
1070
    40
1040
1.0
1070
    41
1040
10.0
1002
}
  0
LINE
  5
2B45
100
AcDbEntity
  8
V0-OBRYS
  6
CONTINUOUS
 62
    90
100
AcDbLine
 10
-565.0
 20
-545.860654
 30
0.0
 11
-645.0
 21
-545.860654
 31
0.0
  0
LINE
  5
2B47
100
AcDbEntity
  8
V0-OBRYS
  6
CONTINUOUS
 62
    90
100
AcDbLine
 10
-645.0
 20
-573.860654
 30
0.0
 11
-548.0
 21
-573.860654
 31
0.0
  0
LINE
  5
2B48
100
AcDbEntity
  8
V0-OBRYS
  6
CONTINUOUS
 62
    90
100
AcDbLine
 10
-742.0
 20
-595.860654
 30
0.0
 11
-548.0
 21
-595.860654
 31
0.0
  0
LINE
  5
2B4E
100
AcDbEntity
  8
V0-OBRYS
  6
CONTINUOUS
 62
    90
100
AcDbLine
 10
-548.0
 20
-595.860654
 30
0.0
 11
-548.0
 21
-573.860654
 31
0.0
  0
LINE
  5
2B4F
100
AcDbEntity
  8
V0-OBRYS
  6
CONTINUOUS
 62
    90
100
AcDbLine
 10
-565.0
 20
-573.860654
 30
0.0
 11
-565.0
 21
-545.860654
 31
0.0
  0
LINE
  5
2B66
100
AcDbEntity
  8
V0-OBRYS
  6
CONTINUOUS
 62
    90
100
AcDbLine
 10
-725.0
 20
-545.860654
 30
0.0
 11
-645.0
 21
-545.860654
 31
0.0
  0
LINE
  5
2B68
100
AcDbEntity
  8
V0-OBRYS
  6
CONTINUOUS
 62
    90
100
AcDbLine
 10
-645.0
 20
-573.860654
 30
0.0
 11
-742.0
 21
-573.860654
 31
0.0
  0
LINE
  5
2B6F
100
AcDbEntity
  8
V0-VYPLNE
  6
DASHDOT
 62
    63
 48
3.0
100
AcDbLine
 10
-645.0
 20
-540.44855
 30
0.0
 11
-645.0
 21
-595.860654
 31
0.0
  0
LINE
  5
2B76
100
AcDbEntity
  8
V0-OBRYS
  6
CONTINUOUS
 62
    90
100
AcDbLine
 10
-725.0
 20
-573.860654
 30
0.0
 11
-725.0
 21
-545.860654
 31
0.0
  0
LINE
  5
2B7E
100
AcDbEntity
  8
V0-OBRYS
  6
CONTINUOUS
 62
    90
100
AcDbLine
 10
-742.0
 20
-595.860654
 30
0.0
 11
-742.0
 21
-573.860654
 31
0.0
  0
LINE
  5
2B86
100
AcDbEntity
  8
V0-OBRYS
  6
CONTINUOUS
 62
    90
100
AcDbLine
 10
-733.0
 20
-595.860654
 30
0.0
 11
-733.0
 21
-599.860654
 31
0.0
  0
LINE
  5
2B87
100
AcDbEntity
  8
V0-OBRYS
  6
CONTINUOUS
 62
    90
100
AcDbLine
 10
-733.0
 20
-599.860654
 30
0.0
 11
-645.0
 21
-599.860654
 31
0.0
  0
LINE
  5
2B88
100
AcDbEntity
  8
V0-OBRYS
  6
CONTINUOUS
 62
    90
100
AcDbLine
 10
-557.0
 20
-595.860654
 30
0.0
 11
-557.0
 21
-599.860654
 31
0.0
  0
LINE
  5
2B89
100
AcDbEntity
  8
V0-OBRYS
  6
CONTINUOUS
 62
    90
100
AcDbLine
 10
-557.0
 20
-599.860654
 30
0.0
 11
-645.0
 21
-599.860654
 31
0.0
  0
TEXT
  5
2B90
100
AcDbEntity
  8
V0-ZBYTEK
  6
CONTINUOUS
 62
    51
100
AcDbText
 10
-483.225068
 20
-599.493566
 30
0.0
 40
10.0
  1
ELEKTRICKY OVLADANA
 72
     1
 11
-411.675068
 21
-599.493566
 31
0.0
100
AcDbText
  0
TEXT
  5
2B91
100
AcDbEntity
  8
V0-NAZVY
  6
CONTINUOUS
 62
   210
100
AcDbText
 10
-462.007874
 20
-538.74673
 30
0.0
 40
20.0
  1
PAR-160
 72
     1
 11
-411.0
 21
-538.74673
 31
0.0
100
AcDbText
  0
TEXT
  5
2B92
100
AcDbEntity
  8
V0-ZBYTEK
  6
CONTINUOUS
 62
   120
100
AcDbText
 10
-502.575
 20
-569.74673
 30
0.0
 40
15.0
  1
ZALUZIOVA KLAPKA
 72
     1
 11
-411.0
 21
-569.74673
 31
0.0
100
AcDbText
  0
TEXT
  5
2B9C
100
AcDbEntity
  8
V0-NAZVY
  6
CONTINUOUS
 62
   210
100
AcDbText
 10
-683.255906
 20
-331.860654
 30
0.0
 40
15.0
  1
PAR-160
 72
     1
 11
-645.0
 21
-331.860654
 31
0.0
100
AcDbText
  0
LINE
  5
2B9D
100
AcDbEntity
  8
V0-OBRYS
  6
CONTINUOUS
 62
    90
100
AcDbLine
 10
-600.0
 20
-326.860654
 30
0.0
 11
-558.0
 21
-326.860654
 31
0.0
  0
LINE
  5
2B9E
100
AcDbEntity
  8
V0-VYPLNE
  6
DASHDOT
 62
    63
 48
3.0
100
AcDbLine
 10
-645.0
 20
-339.860654
 30
0.0
 11
-645.0
 21
-448.813022
 31
0.0
  0
TEXT
  5
2B9F
100
AcDbEntity
  8
V0-NAZVY
  6
CONTINUOUS
 62
   210
100
AcDbText
 10
-681.255906
 20
-538.860654
 30
0.0
 40
15.0
  1
PAR-160
 72
     1
 11
-643.0
 21
-538.860654
 31
0.0
100
AcDbText
  0
TEXT
  5
2BA0
100
AcDbEntity
  8
V0-NAZVY
  6
CONTINUOUS
 62
   210
100
AcDbText
 10
-352.0
 20
-395.116559
 30
0.0
 40
15.0
  1
PAR-160
 50
90.0
 72
     1
 11
-352.0
 21
-356.860654
 31
0.0
100
AcDbText
  0
LINE
  5
2BA1
100
AcDbEntity
  8
V0-VYPLNE
  6
CONTINUOUS
 62
    52
100
AcDbLine
 10
-412.0
 20
-355.860654
 30
0.0
 11
-423.9
 21
-364.960654
 31
0.0
  0
LINE
  5
2BA2
100
AcDbEntity
  8
V0-VYPLNE
  6
CONTINUOUS
 62
    52
100
AcDbLine
 10
-423.9
 20
-364.960654
 30
0.0
 11
-423.9
 21
-355.860654
 31
0.0
  0
LINE
  5
2BA3
100
AcDbEntity
  8
V0-VYPLNE
  6
CONTINUOUS
 62
    52
100
AcDbLine
 10
-412.0
 20
-355.860654
 30
0.0
 11
-423.9
 21
-346.760654
 31
0.0
  0
LINE
  5
2BA4
100
AcDbEntity
  8
V0-VYPLNE
  6
CONTINUOUS
 62
    52
100
AcDbLine
 10
-423.9
 20
-346.760654
 30
0.0
 11
-423.9
 21
-355.860654
 31
0.0
  0
LINE
  5
2BA7
100
AcDbEntity
  8
V0-VYPLNE
  6
CONTINUOUS
 62
    52
100
AcDbLine
 10
-645.0
 20
-596.860654
 30
0.0
 11
-636.0
 21
-584.860654
 31
0.0
  0
LINE
  5
2BA8
100
AcDbEntity
  8
V0-VYPLNE
  6
CONTINUOUS
 62
    52
100
AcDbLine
 10
-636.0
 20
-584.860654
 30
0.0
 11
-645.0
 21
-584.860654
 31
0.0
  0
LINE
  5
2BA9
100
AcDbEntity
  8
V0-VYPLNE
  6
CONTINUOUS
 62
    52
100
AcDbLine
 10
-645.0
 20
-596.860654
 30
0.0
 11
-654.0
 21
-584.860654
 31
0.0
  0
LINE
  5
2BAA
100
AcDbEntity
  8
V0-VYPLNE
  6
CONTINUOUS
 62
    52
100
AcDbLine
 10
-654.0
 20
-584.860654
 30
0.0
 11
-645.0
 21
-584.860654
 31
0.0
  0
POINT
  5
2CD4
100
AcDbEntity
  8
V0-VYPLNE
  6
CONTINUOUS
 62
    52
100
AcDbPoint
 10
-645.0
 20
-355.860654
 30
0.0
  0
POINT
  5
2CD9
100
AcDbEntity
  8
V0-VYPLNE
  6
CONTINUOUS
 62
    52
100
AcDbPoint
 10
-402.0
 20
-355.860654
 30
0.0
  0
POINT
  5
2CDA
100
AcDbEntity
  8
V0-VYPLNE
  6
CONTINUOUS
 62
    52
100
AcDbPoint
 10
-645.0
 20
-573.860654
 30
0.0
  0
VIEWPORT
  5
22
100
AcDbEntity
 67
     1
  8
0
100
AcDbViewport
 10
261.517699
 20
165.390006
 30
0.0
 40
523.035398
 41
330.780011
 68
    -1
 69
     1
1001
ACAD
1000
MVIEW
1002
{
1070
    16
1010
0.0
1020
0.0
1030
0.0
1010
0.0
1020
0.0
1030
1.0
1040
0.0
1040
330.780011
1040
261.517699
1040
165.390006
1040
50.0
1040
0.0
1040
0.0
1070
     0
1070
   100
1070
     1
1070
     0
1070
     0
1070
     0
1070
     0
1070
     0
1040
0.0
1040
0.0
1040
0.0
1040
1.0
1040
1.0
1040
10.0
1040
10.0
1070
     0
1002
{
1002
}
1002
}
  0
ENDSEC
  0
SECTION
  2
OBJECTS
  0
DICTIONARY
  5
C
100
AcDbDictionary
  3
ACAD_GROUP
350
D
  3
ACAD_MLINESTYLE
350
E
  3
ACDBVARIABLEDICTIONARY
350
86C
  3
CONTENTDICTIONARY
350
905
  0
DICTIONARY
  5
D
102
{ACAD_REACTORS
330
C
102
}
100
AcDbDictionary
  0
DICTIONARY
  5
E
102
{ACAD_REACTORS
330
C
102
}
100
AcDbDictionary
  3
STANDARD
350
13
  0
DICTIONARY
  5
86C
102
{ACAD_REACTORS
330
C
102
}
100
AcDbDictionary
  3
SORTENTS
350
86D
  0
DICTIONARY
  5
905
102
{ACAD_REACTORS
330
C
102
}
100
AcDbDictionary
  0
MLINESTYLE
  5
13
102
{ACAD_REACTORS
330
E
102
}
100
AcDbMlineStyle
  2
STANDARD
 70
     0
  3

 62
     0
 51
90.0
 52
90.0
 71
     2
 49
0.5
 62
   256
  6
BYLAYER
 49
-0.5
 62
   256
  6
BYLAYER
  0
DICTIONARYVAR
  5
86D
102
{ACAD_REACTORS
330
86C
102
}
100
DictionaryVariables
280
     0
  1
96
  0
ENDSEC
  0
EOF
