  0
SECTION
  2
HEADER
  9
$ACADVER
  1
AC1014
  9
$ACADMAINTVER
 70
     0
  9
$DWGCODEPAGE
  3
ANSI_1250
  9
$INSBASE
 10
0.0
 20
0.0
 30
0.0
  9
$EXTMIN
 10
-1035.354927
 20
-805.313215
 30
0.0
  9
$EXTMAX
 10
-279.169607
 20
-70.959926
 30
0.0
  9
$LIMMIN
 10
-1040.805314
 20
-347.068924
  9
$LIMMAX
 10
643.686187
 20
495.293187
  9
$ORTHOMODE
 70
     0
  9
$REGENMODE
 70
     1
  9
$FILLMODE
 70
     1
  9
$QTEXTMODE
 70
     0
  9
$MIRRTEXT
 70
     1
  9
$DRAGMODE
 70
     2
  9
$LTSCALE
 40
15.0
  9
$OSMODE
 70
  1023
  9
$ATTMODE
 70
     1
  9
$TEXTSIZE
 40
15.0
  9
$TRACEWID
 40
5.0
  9
$TEXTSTYLE
  7
STANDARD
  9
$CLAYER
  8
0
  9
$CELTYPE
  6
BYLAYER
  9
$CECOLOR
 62
   256
  9
$CELTSCALE
 40
2.0
  9
$DELOBJ
 70
     1
  9
$DISPSILH
 70
     0
  9
$DIMSCALE
 40
1.0
  9
$DIMASZ
 40
20.0
  9
$DIMEXO
 40
0.0625
  9
$DIMDLI
 40
0.38
  9
$DIMRND
 40
0.0
  9
$DIMDLE
 40
0.0
  9
$DIMEXE
 40
0.18
  9
$DIMTP
 40
0.0
  9
$DIMTM
 40
0.0
  9
$DIMTXT
 40
20.0
  9
$DIMCEN
 40
0.0
  9
$DIMTSZ
 40
0.0
  9
$DIMTOL
 70
     0
  9
$DIMLIM
 70
     0
  9
$DIMTIH
 70
     0
  9
$DIMTOH
 70
     0
  9
$DIMSE1
 70
     0
  9
$DIMSE2
 70
     0
  9
$DIMTAD
 70
     1
  9
$DIMZIN
 70
     0
  9
$DIMBLK
  1

  9
$DIMASO
 70
     1
  9
$DIMSHO
 70
     1
  9
$DIMPOST
  1

  9
$DIMAPOST
  1

  9
$DIMALT
 70
     0
  9
$DIMALTD
 70
     2
  9
$DIMALTF
 40
25.4
  9
$DIMLFAC
 40
1.0
  9
$DIMTOFL
 70
     0
  9
$DIMTVP
 40
0.0
  9
$DIMTIX
 70
     0
  9
$DIMSOXD
 70
     0
  9
$DIMSAH
 70
     1
  9
$DIMBLK1
  1
_OPEN
  9
$DIMBLK2
  1
_OPEN
  9
$DIMSTYLE
  2
STANDARD
  9
$DIMCLRD
 70
     0
  9
$DIMCLRE
 70
     0
  9
$DIMCLRT
 70
     0
  9
$DIMTFAC
 40
1.0
  9
$DIMGAP
 40
0.625
  9
$DIMJUST
 70
     0
  9
$DIMSD1
 70
     0
  9
$DIMSD2
 70
     0
  9
$DIMTOLJ
 70
     1
  9
$DIMTZIN
 70
     0
  9
$DIMALTZ
 70
     0
  9
$DIMALTTZ
 70
     0
  9
$DIMFIT
 70
     0
  9
$DIMUPT
 70
     0
  9
$DIMUNIT
 70
     2
  9
$DIMDEC
 70
     0
  9
$DIMTDEC
 70
     4
  9
$DIMALTU
 70
     2
  9
$DIMALTTD
 70
     2
  9
$DIMTXSTY
  7
STANDARD
  9
$DIMAUNIT
 70
     0
  9
$LUNITS
 70
     2
  9
$LUPREC
 70
     4
  9
$SKETCHINC
 40
1.0
  9
$FILLETRAD
 40
3.0
  9
$AUNITS
 70
     0
  9
$AUPREC
 70
     0
  9
$MENU
  1
.
  9
$ELEVATION
 40
0.0
  9
$PELEVATION
 40
0.0
  9
$THICKNESS
 40
0.0
  9
$LIMCHECK
 70
     0
  9
$BLIPMODE
 70
     1
  9
$CHAMFERA
 40
10.0
  9
$CHAMFERB
 40
10.0
  9
$CHAMFERC
 40
20.0
  9
$CHAMFERD
 40
0.0
  9
$SKPOLY
 70
     0
  9
$TDCREATE
 40
2450763.421427893
  9
$TDUPDATE
 40
2453315.713506423
  9
$TDINDWG
 40
1.4572036458
  9
$TDUSRTIMER
 40
1.4572036458
  9
$USRTIMER
 70
     1
  9
$ANGBASE
 50
0.0
  9
$ANGDIR
 70
     0
  9
$PDMODE
 70
     3
  9
$PDSIZE
 40
0.0
  9
$PLINEWID
 40
0.0
  9
$COORDS
 70
     2
  9
$SPLFRAME
 70
     0
  9
$SPLINETYPE
 70
     6
  9
$SPLINESEGS
 70
     8
  9
$ATTDIA
 70
     0
  9
$ATTREQ
 70
     1
  9
$HANDLING
 70
     1
  9
$HANDSEED
  5
37DC
  9
$SURFTAB1
 70
     6
  9
$SURFTAB2
 70
     6
  9
$SURFTYPE
 70
     6
  9
$SURFU
 70
     6
  9
$SURFV
 70
     6
  9
$UCSNAME
  2

  9
$UCSORG
 10
-784.2724497370601
 20
-355.8606538708551
 30
0.0
  9
$UCSXDIR
 10
1.0
 20
0.0
 30
0.0
  9
$UCSYDIR
 10
0.0
 20
1.0
 30
0.0
  9
$PUCSNAME
  2

  9
$PUCSORG
 10
0.0
 20
0.0
 30
0.0
  9
$PUCSXDIR
 10
1.0
 20
0.0
 30
0.0
  9
$PUCSYDIR
 10
0.0
 20
1.0
 30
0.0
  9
$USERI1
 70
     0
  9
$USERI2
 70
     0
  9
$USERI3
 70
     0
  9
$USERI4
 70
     0
  9
$USERI5
 70
     0
  9
$USERR1
 40
0.0
  9
$USERR2
 40
0.0
  9
$USERR3
 40
0.0
  9
$USERR4
 40
0.0
  9
$USERR5
 40
0.0
  9
$WORLDVIEW
 70
     1
  9
$SHADEDGE
 70
     3
  9
$SHADEDIF
 70
    70
  9
$TILEMODE
 70
     1
  9
$MAXACTVP
 70
    16
  9
$PINSBASE
 10
0.0
 20
0.0
 30
0.0
  9
$PLIMCHECK
 70
     0
  9
$PEXTMIN
 10
131.177948
 20
159.528081
 30
0.0
  9
$PEXTMAX
 10
254.393018
 20
159.528081
 30
0.0
  9
$PLIMMIN
 10
0.0
 20
0.0
  9
$PLIMMAX
 10
420.0
 20
297.0
  9
$UNITMODE
 70
     0
  9
$VISRETAIN
 70
     0
  9
$PLINEGEN
 70
     0
  9
$PSLTSCALE
 70
     0
  9
$TREEDEPTH
 70
  3020
  9
$PICKSTYLE
 70
     1
  9
$CMLSTYLE
  2
STANDARD
  9
$CMLJUST
 70
     0
  9
$CMLSCALE
 40
1.0
  9
$PROXYGRAPHICS
 70
     1
  9
$MEASUREMENT
 70
     1
  0
ENDSEC
  0
SECTION
  2
CLASSES
  0
CLASS
  1
LWPOLYLINE
  2
AcDbPolyline
  3
"AutoCAD"
 90
        0
280
     0
281
     1
  0
CLASS
  1
DICTIONARYVAR
  2
AcDbDictionaryVar
  3
"AutoCAD"
 90
        0
280
     0
281
     0
  0
CLASS
  1
HATCH
  2
AcDbHatch
  3
"ACAD_SEDONA"
 90
        0
280
     0
281
     1
  0
ENDSEC
  0
SECTION
  2
TABLES
  0
TABLE
  2
VPORT
  5
8
100
AcDbSymbolTable
 70
     2
  0
VPORT
  5
37DB
100
AcDbSymbolTableRecord
100
AcDbViewportTableRecord
  2
*ACTIVE
 70
     0
 10
0.0
 20
0.0
 11
1.0
 21
1.0
 12
-645.85508
 22
-415.880218
 13
0.0
 23
0.0
 14
1.0
 24
1.0
 15
50.0
 25
50.0
 16
0.0
 26
0.0
 36
1.0
 17
0.0
 27
0.0
 37
0.0
 40
793.17844
 41
1.523346
 42
50.0
 43
0.0
 44
0.0
 50
0.0
 51
0.0
 71
     0
 72
   100
 73
     1
 74
     0
 75
     0
 76
     0
 77
     0
 78
     0
  0
ENDTAB
  0
TABLE
  2
LTYPE
  5
5
100
AcDbSymbolTable
 70
     4
  0
LTYPE
  5
14
100
AcDbSymbolTableRecord
100
AcDbLinetypeTableRecord
  2
BYBLOCK
 70
     0
  3

 72
    65
 73
     0
 40
0.0
  0
LTYPE
  5
15
100
AcDbSymbolTableRecord
100
AcDbLinetypeTableRecord
  2
BYLAYER
 70
     0
  3

 72
    65
 73
     0
 40
0.0
  0
LTYPE
  5
16
100
AcDbSymbolTableRecord
100
AcDbLinetypeTableRecord
  2
CONTINUOUS
 70
     0
  3
Solid line
 72
    65
 73
     0
 40
0.0
  0
LTYPE
  5
1D7
100
AcDbSymbolTableRecord
100
AcDbLinetypeTableRecord
  2
DASHED
 70
     0
  3
__ __ __ __ __ __ __ __ __ __ __ __ __ __ __ __
 72
    65
 73
     2
 40
0.75
 49
0.5
 74
     0
 49
-0.25
 74
     0
  0
LTYPE
  5
492
100
AcDbSymbolTableRecord
100
AcDbLinetypeTableRecord
  2
DASHDOT
 70
     0
  3
__ . __ . __ . __ . __ . __ . __ . __ . __ . __
 72
    65
 73
     4
 40
1.0
 49
0.5
 74
     0
 49
-0.25
 74
     0
 49
0.0
 74
     0
 49
-0.25
 74
     0
  0
LTYPE
  5
36CB
100
AcDbSymbolTableRecord
100
AcDbLinetypeTableRecord
  2
DOT
 70
     0
  3
Dot . . . . . . . . . . . . . . . . . . . . . .
 72
    65
 73
     2
 40
6.35
 49
0.0
 74
     0
 49
-6.35
 74
     0
  0
ENDTAB
  0
TABLE
  2
LAYER
  5
2
100
AcDbSymbolTable
 70
     6
  0
LAYER
  5
F
100
AcDbSymbolTableRecord
100
AcDbLayerTableRecord
  2
0
 70
     0
 62
     7
  6
CONTINUOUS
  0
LAYER
  5
1A22
100
AcDbSymbolTableRecord
100
AcDbLayerTableRecord
  2
DEFPOINTS
 70
     0
 62
     7
  6
CONTINUOUS
  0
LAYER
  5
36CC
100
AcDbSymbolTableRecord
100
AcDbLayerTableRecord
  2
V0-OBRYS
 70
     0
 62
    90
  6
CONTINUOUS
  0
LAYER
  5
36CD
100
AcDbSymbolTableRecord
100
AcDbLayerTableRecord
  2
V0-VYPLNE
 70
     0
 62
    52
  6
CONTINUOUS
  0
LAYER
  5
36CE
100
AcDbSymbolTableRecord
100
AcDbLayerTableRecord
  2
V0-NAZVY
 70
     0
 62
   210
  6
CONTINUOUS
  0
LAYER
  5
36CF
100
AcDbSymbolTableRecord
100
AcDbLayerTableRecord
  2
V0-ZBYTEK
 70
     0
 62
    51
  6
CONTINUOUS
  0
ENDTAB
  0
TABLE
  2
STYLE
  5
3
100
AcDbSymbolTable
 70
     6
  0
STYLE
  5
10
100
AcDbSymbolTableRecord
100
AcDbTextStyleTableRecord
  2
STANDARD
 70
     0
 40
0.0
 41
1.0
 50
0.0
 71
     0
 42
15.0
  3
ISOCP.shx
  4

  0
STYLE
  5
36D0
100
AcDbSymbolTableRecord
100
AcDbTextStyleTableRecord
  2
ED
 70
     0
 40
20.0
 41
1.0
 50
0.0
 71
     0
 42
2.5
  3
ISOCP.shx
  4

  0
STYLE
  5
36D1
100
AcDbSymbolTableRecord
100
AcDbTextStyleTableRecord
  2
EDVENT
 70
     0
 40
10.0
 41
1.0
 50
0.0
 71
     0
 42
2.5
  3
ISOCP.shx
  4

  0
STYLE
  5
36D2
100
AcDbSymbolTableRecord
100
AcDbTextStyleTableRecord
  2
E
 70
     0
 40
25.0
 41
1.0
 50
0.0
 71
     0
 42
2.5
  3
ISOCP.shx
  4

  0
STYLE
  5
36D3
100
AcDbSymbolTableRecord
100
AcDbTextStyleTableRecord
  2
ED-VENT
 70
     0
 40
25.0
 41
1.0
 50
0.0
 71
     0
 42
2.5
  3
ISOCP.shx
  4

  0
STYLE
  5
36D4
100
AcDbSymbolTableRecord
100
AcDbTextStyleTableRecord
  2
ED2
 70
     0
 40
25.0
 41
1.0
 50
0.0
 71
     0
 42
2.5
  3
ISOCP.shx
  4

  0
ENDTAB
  0
TABLE
  2
VIEW
  5
6
100
AcDbSymbolTable
 70
     0
  0
ENDTAB
  0
TABLE
  2
UCS
  5
7
100
AcDbSymbolTable
 70
     0
  0
ENDTAB
  0
TABLE
  2
APPID
  5
9
100
AcDbSymbolTable
 70
     4
  0
APPID
  5
11
100
AcDbSymbolTableRecord
100
AcDbRegAppTableRecord
  2
ACAD
 70
     0
  0
APPID
  5
906
100
AcDbSymbolTableRecord
100
AcDbRegAppTableRecord
  2
CONTENTTABDATA
 70
     0
  0
APPID
  5
907
100
AcDbSymbolTableRecord
100
AcDbRegAppTableRecord
  2
CONTENTCURRENTTAB
 70
     0
  0
APPID
  5
908
100
AcDbSymbolTableRecord
100
AcDbRegAppTableRecord
  2
CONTENTBLOCKDESCRIPTION
 70
     0
  0
ENDTAB
  0
TABLE
  2
DIMSTYLE
  5
A
100
AcDbSymbolTable
 70
     3
  0
DIMSTYLE
105
1D
102
{ACAD_REACTORS
330
321D
330
3441
330
3242
330
345E
330
346B
330
3500
330
350E
102
}
100
AcDbSymbolTableRecord
100
AcDbDimStyleTableRecord
  2
STANDARD
 70
     0
  3

  4

  5

  6
_OPEN
  7
_OPEN
 40
5.0
 41
3.5
 42
0.0625
 43
0.38
 44
0.18
 45
0.0
 46
0.0
 47
0.0
 48
0.0
140
3.5
141
0.0
142
0.0
143
25.4
144
1.0
145
0.0
146
1.0
147
0.625
 71
     0
 72
     0
 73
     0
 74
     0
 75
     0
 76
     0
 77
     1
 78
     0
170
     0
171
     2
172
     0
173
     1
174
     0
175
     0
176
     0
177
     0
178
     0
270
     2
271
     0
272
     4
273
     2
274
     2
340
10
275
     0
280
     0
281
     0
282
     0
283
     1
284
     0
285
     0
286
     0
287
     0
288
     0
  0
DIMSTYLE
105
36D5
100
AcDbSymbolTableRecord
100
AcDbDimStyleTableRecord
  2
ED
 70
     0
  3

  4

  5

  6
_OPEN
  7
_OPEN
 40
0.0
 41
15.0
 42
0.625
 43
3.75
 44
1.25
 45
0.0
 46
0.0
 47
0.0
 48
0.0
140
15.0
141
2.5
142
0.0
143
0.0394
144
1.0
145
0.0
146
1.0
147
3.0
 71
     0
 72
     0
 73
     0
 74
     0
 75
     0
 76
     0
 77
     1
 78
     8
170
     0
171
     4
172
     1
173
     1
174
     0
175
     0
176
     0
177
     0
178
     0
270
     2
271
     0
272
     1
273
     8
274
     4
340
36D0
275
     0
280
     0
281
     0
282
     0
283
     1
284
     8
285
     0
286
     0
287
     3
288
     0
  0
DIMSTYLE
105
36D6
100
AcDbSymbolTableRecord
100
AcDbDimStyleTableRecord
  2
ED2
 70
     0
  3

  4

  5

  6
_OPEN
  7
_OPEN
 40
0.0
 41
25.0
 42
0.625
 43
3.75
 44
1.25
 45
0.0
 46
0.0
 47
0.0
 48
0.0
140
30.0
141
2.5
142
0.0
143
0.0394
144
1.0
145
0.0
146
1.0
147
5.0
 71
     0
 72
     0
 73
     0
 74
     0
 75
     0
 76
     0
 77
     1
 78
     8
170
     0
171
     4
172
     1
173
     1
174
     0
175
     0
176
     0
177
     0
178
     0
270
     2
271
     0
272
     1
273
     8
274
     4
340
36D0
275
     0
280
     0
281
     0
282
     0
283
     1
284
     8
285
     0
286
     0
287
     3
288
     0
  0
ENDTAB
  0
TABLE
  2
BLOCK_RECORD
  5
1
100
AcDbSymbolTable
 70
    15
  0
BLOCK_RECORD
  5
1A
100
AcDbSymbolTableRecord
100
AcDbBlockTableRecord
  2
*MODEL_SPACE
  0
BLOCK_RECORD
  5
17
100
AcDbSymbolTableRecord
100
AcDbBlockTableRecord
  2
*PAPER_SPACE
  0
BLOCK_RECORD
  5
1A05
100
AcDbSymbolTableRecord
100
AcDbBlockTableRecord
  2
_OPEN
  0
BLOCK_RECORD
  5
371D
100
AcDbSymbolTableRecord
100
AcDbBlockTableRecord
  2
*D8
  0
BLOCK_RECORD
  5
3729
100
AcDbSymbolTableRecord
100
AcDbBlockTableRecord
  2
*D9
  0
BLOCK_RECORD
  5
3732
100
AcDbSymbolTableRecord
100
AcDbBlockTableRecord
  2
*D10
  0
BLOCK_RECORD
  5
373E
100
AcDbSymbolTableRecord
100
AcDbBlockTableRecord
  2
*D11
  0
BLOCK_RECORD
  5
374A
100
AcDbSymbolTableRecord
100
AcDbBlockTableRecord
  2
*D12
  0
BLOCK_RECORD
  5
37A4
100
AcDbSymbolTableRecord
100
AcDbBlockTableRecord
  2
*D13
  0
BLOCK_RECORD
  5
37B1
100
AcDbSymbolTableRecord
100
AcDbBlockTableRecord
  2
*D14
  0
ENDTAB
  0
ENDSEC
  0
SECTION
  2
BLOCKS
  0
BLOCK
  5
1B
100
AcDbEntity
  8
0
100
AcDbBlockBegin
  2
*MODEL_SPACE
 70
     0
 10
0.0
 20
0.0
 30
0.0
  3
*MODEL_SPACE
  1

  0
ENDBLK
  5
1C
100
AcDbEntity
  8
0
100
AcDbBlockEnd
  0
BLOCK
  5
18
100
AcDbEntity
 67
     1
  8
0
100
AcDbBlockBegin
  2
*PAPER_SPACE
 70
     0
 10
0.0
 20
0.0
 30
0.0
  3
*PAPER_SPACE
  1

  0
ENDBLK
  5
19
100
AcDbEntity
 67
     1
  8
0
100
AcDbBlockEnd
  0
BLOCK
  5
1A09
100
AcDbEntity
  8
0
100
AcDbBlockBegin
  2
_OPEN
 70
     0
 10
0.0
 20
0.0
 30
0.0
  3
_OPEN
  1

  0
LINE
  5
1A06
100
AcDbEntity
  8
0
  6
BYBLOCK
 62
     0
100
AcDbLine
 10
-1.0
 20
0.166667
 30
0.0
 11
0.0
 21
0.0
 31
0.0
  0
LINE
  5
1A07
100
AcDbEntity
  8
0
  6
BYBLOCK
 62
     0
100
AcDbLine
 10
0.0
 20
0.0
 30
0.0
 11
-1.0
 21
-0.166667
 31
0.0
  0
LINE
  5
1A08
100
AcDbEntity
  8
0
  6
BYBLOCK
 62
     0
100
AcDbLine
 10
0.0
 20
0.0
 30
0.0
 11
-1.0
 21
0.0
 31
0.0
  0
ENDBLK
  5
1A0A
100
AcDbEntity
  8
0
100
AcDbBlockEnd
  0
BLOCK
  5
371E
100
AcDbEntity
  8
0
 48
2.0
100
AcDbBlockBegin
  2
*D8
 70
     1
 10
0.0
 20
0.0
 30
0.0
  3
*D8
  1

  0
LINE
  5
371F
100
AcDbEntity
  8
0
  6
BYBLOCK
 62
     0
 48
2.0
100
AcDbLine
 10
-554.791973
 20
-126.442677
 30
0.0
 11
-483.853121
 21
-126.442677
 31
0.0
  0
LINE
  5
3720
100
AcDbEntity
  8
0
  6
BYBLOCK
 62
     0
 48
2.0
100
AcDbLine
 10
-554.791973
 20
-585.27863
 30
0.0
 11
-483.853121
 21
-585.27863
 31
0.0
  0
LINE
  5
3721
100
AcDbEntity
  8
0
  6
BYBLOCK
 62
     0
 48
2.0
100
AcDbLine
 10
-484.033121
 20
-146.442677
 30
0.0
 11
-484.033121
 21
-565.27863
 31
0.0
  0
INSERT
  5
3722
100
AcDbEntity
  8
0
  6
BYBLOCK
 62
     0
 48
2.0
100
AcDbBlockReference
  2
_OPEN
 10
-484.033121
 20
-126.442677
 30
0.0
 41
20.0
 42
20.0
 43
20.0
 50
90.0
  0
INSERT
  5
3723
100
AcDbEntity
  8
0
  6
BYBLOCK
 62
     0
 48
2.0
100
AcDbBlockReference
  2
_OPEN
 10
-484.033121
 20
-585.27863
 30
0.0
 41
20.0
 42
20.0
 43
20.0
 50
270.0
  0
MTEXT
  5
3724
100
AcDbEntity
  8
0
  6
BYBLOCK
 62
     0
 48
2.0
100
AcDbMText
 10
-494.658121
 20
-355.860654
 30
0.0
 40
20.0
 41
0.0
 71
     5
 72
     1
  1
\A1;459
 11
0.0
 21
1.0
 31
0.0
  0
POINT
  5
3725
100
AcDbEntity
  8
DEFPOINTS
  6
BYBLOCK
 62
     0
 48
2.0
100
AcDbPoint
 10
-554.854473
 20
-126.442677
 30
0.0
  0
POINT
  5
3726
100
AcDbEntity
  8
DEFPOINTS
  6
BYBLOCK
 62
     0
 48
2.0
100
AcDbPoint
 10
-554.854473
 20
-585.27863
 30
0.0
  0
POINT
  5
3727
100
AcDbEntity
  8
DEFPOINTS
  6
BYBLOCK
 62
     0
 48
2.0
100
AcDbPoint
 10
-484.033121
 20
-585.27863
 30
0.0
  0
ENDBLK
  5
3728
100
AcDbEntity
  8
0
 48
2.0
100
AcDbBlockEnd
  0
BLOCK
  5
372A
100
AcDbEntity
  8
0
 48
2.0
100
AcDbBlockBegin
  2
*D9
 70
     1
 10
0.0
 20
0.0
 30
0.0
  3
*D9
  1

  0
LINE
  5
372B
100
AcDbEntity
  8
0
  6
BYBLOCK
 62
     0
 48
2.0
100
AcDbLine
 10
-971.082933
 20
-390.528268
 30
0.0
 11
-597.461967
 21
-321.19304
 31
0.0
  0
INSERT
  5
372C
100
AcDbEntity
  8
0
  6
BYBLOCK
 62
     0
 48
2.0
100
AcDbBlockReference
  2
_OPEN
 10
-990.747194
 20
-394.177491
 30
0.0
 41
20.0
 42
20.0
 43
20.0
 50
190.513146
  0
INSERT
  5
372D
100
AcDbEntity
  8
0
  6
BYBLOCK
 62
     0
 48
2.0
100
AcDbBlockReference
  2
_OPEN
 10
-577.797705
 20
-317.543817
 30
0.0
 41
20.0
 42
20.0
 43
20.0
 50
10.513146
  0
MTEXT
  5
372E
100
AcDbEntity
  8
0
  6
BYBLOCK
 62
     0
 48
2.0
100
AcDbMText
 10
-714.74585
 20
-332.14975
 30
0.0
 40
20.0
 41
0.0
 71
     5
 72
     1
  1
\A1;\U+2205420
 11
0.983213
 21
0.182461
 31
0.0
  0
POINT
  5
372F
100
AcDbEntity
  8
DEFPOINTS
  6
BYBLOCK
 62
     0
 48
2.0
100
AcDbPoint
 10
-577.797705
 20
-317.543817
 30
0.0
  0
POINT
  5
3730
100
AcDbEntity
  8
DEFPOINTS
  6
BYBLOCK
 62
     0
 48
2.0
100
AcDbPoint
 10
-990.747194
 20
-394.177491
 30
0.0
  0
ENDBLK
  5
3731
100
AcDbEntity
  8
0
 48
2.0
100
AcDbBlockEnd
  0
BLOCK
  5
3733
100
AcDbEntity
  8
0
 48
2.0
100
AcDbBlockBegin
  2
*D10
 70
     1
 10
0.0
 20
0.0
 30
0.0
  3
*D10
  1

  0
LINE
  5
3734
100
AcDbEntity
  8
0
  6
BYBLOCK
 62
     0
 48
2.0
100
AcDbLine
 10
-1013.690426
 20
-585.34113
 30
0.0
 11
-1013.690426
 21
-655.562417
 31
0.0
  0
LINE
  5
3735
100
AcDbEntity
  8
0
  6
BYBLOCK
 62
     0
 48
2.0
100
AcDbLine
 10
-554.854473
 20
-585.34113
 30
0.0
 11
-554.854473
 21
-655.562417
 31
0.0
  0
LINE
  5
3736
100
AcDbEntity
  8
0
  6
BYBLOCK
 62
     0
 48
2.0
100
AcDbLine
 10
-993.690426
 20
-655.382417
 30
0.0
 11
-574.854473
 21
-655.382417
 31
0.0
  0
INSERT
  5
3737
100
AcDbEntity
  8
0
  6
BYBLOCK
 62
     0
 48
2.0
100
AcDbBlockReference
  2
_OPEN
 10
-1013.690426
 20
-655.382417
 30
0.0
 41
20.0
 42
20.0
 43
20.0
 50
180.0
  0
INSERT
  5
3738
100
AcDbEntity
  8
0
  6
BYBLOCK
 62
     0
 48
2.0
100
AcDbBlockReference
  2
_OPEN
 10
-554.854473
 20
-655.382417
 30
0.0
 41
20.0
 42
20.0
 43
20.0
  0
MTEXT
  5
3739
100
AcDbEntity
  8
0
  6
BYBLOCK
 62
     0
 48
2.0
100
AcDbMText
 10
-784.27245
 20
-644.757417
 30
0.0
 40
20.0
 41
0.0
 71
     5
 72
     1
  1
\A1;459
  0
POINT
  5
373A
100
AcDbEntity
  8
DEFPOINTS
  6
BYBLOCK
 62
     0
 48
2.0
100
AcDbPoint
 10
-1013.690426
 20
-585.27863
 30
0.0
  0
POINT
  5
373B
100
AcDbEntity
  8
DEFPOINTS
  6
BYBLOCK
 62
     0
 48
2.0
100
AcDbPoint
 10
-554.854473
 20
-585.27863
 30
0.0
  0
POINT
  5
373C
100
AcDbEntity
  8
DEFPOINTS
  6
BYBLOCK
 62
     0
 48
2.0
100
AcDbPoint
 10
-554.854473
 20
-655.382417
 30
0.0
  0
ENDBLK
  5
373D
100
AcDbEntity
  8
0
 48
2.0
100
AcDbBlockEnd
  0
BLOCK
  5
373F
100
AcDbEntity
  8
0
 48
2.0
100
AcDbBlockBegin
  2
*D11
 70
     1
 10
0.0
 20
0.0
 30
0.0
  3
*D11
  1

  0
LINE
  5
3740
100
AcDbEntity
  8
0
  6
BYBLOCK
 62
     0
 48
2.0
100
AcDbLine
 10
-965.617283
 20
-549.093656
 30
0.0
 11
-965.617283
 21
-625.24382
 31
0.0
  0
LINE
  5
3741
100
AcDbEntity
  8
0
  6
BYBLOCK
 62
     0
 48
2.0
100
AcDbLine
 10
-602.927616
 20
-549.093656
 30
0.0
 11
-602.927616
 21
-625.24382
 31
0.0
  0
LINE
  5
3742
100
AcDbEntity
  8
0
  6
BYBLOCK
 62
     0
 48
2.0
100
AcDbLine
 10
-945.617283
 20
-625.06382
 30
0.0
 11
-622.927616
 21
-625.06382
 31
0.0
  0
INSERT
  5
3743
100
AcDbEntity
  8
0
  6
BYBLOCK
 62
     0
 48
2.0
100
AcDbBlockReference
  2
_OPEN
 10
-965.617283
 20
-625.06382
 30
0.0
 41
20.0
 42
20.0
 43
20.0
 50
180.0
  0
INSERT
  5
3744
100
AcDbEntity
  8
0
  6
BYBLOCK
 62
     0
 48
2.0
100
AcDbBlockReference
  2
_OPEN
 10
-602.927616
 20
-625.06382
 30
0.0
 41
20.0
 42
20.0
 43
20.0
  0
MTEXT
  5
3745
100
AcDbEntity
  8
0
  6
BYBLOCK
 62
     0
 48
2.0
100
AcDbMText
 10
-784.27245
 20
-614.43882
 30
0.0
 40
20.0
 41
0.0
 71
     5
 72
     1
  1
\A1;364
  0
POINT
  5
3746
100
AcDbEntity
  8
DEFPOINTS
  6
BYBLOCK
 62
     0
 48
2.0
100
AcDbPoint
 10
-965.617283
 20
-549.031156
 30
0.0
  0
POINT
  5
3747
100
AcDbEntity
  8
DEFPOINTS
  6
BYBLOCK
 62
     0
 48
2.0
100
AcDbPoint
 10
-602.927616
 20
-549.031156
 30
0.0
  0
POINT
  5
3748
100
AcDbEntity
  8
DEFPOINTS
  6
BYBLOCK
 62
     0
 48
2.0
100
AcDbPoint
 10
-602.927616
 20
-625.06382
 30
0.0
  0
ENDBLK
  5
3749
100
AcDbEntity
  8
0
 48
2.0
100
AcDbBlockEnd
  0
BLOCK
  5
374B
100
AcDbEntity
  8
0
 48
2.0
100
AcDbBlockBegin
  2
*D12
 70
     1
 10
0.0
 20
0.0
 30
0.0
  3
*D12
  1

  0
LINE
  5
374C
100
AcDbEntity
  8
0
  6
BYBLOCK
 62
     0
 48
2.0
100
AcDbLine
 10
-586.30918
 20
-174.51582
 30
0.0
 11
-516.255694
 21
-174.51582
 31
0.0
  0
LINE
  5
374D
100
AcDbEntity
  8
0
  6
BYBLOCK
 62
     0
 48
2.0
100
AcDbLine
 10
-586.30918
 20
-537.205487
 30
0.0
 11
-516.255694
 21
-537.205487
 31
0.0
  0
LINE
  5
374E
100
AcDbEntity
  8
0
  6
BYBLOCK
 62
     0
 48
2.0
100
AcDbLine
 10
-516.435694
 20
-194.51582
 30
0.0
 11
-516.435694
 21
-517.205487
 31
0.0
  0
INSERT
  5
374F
100
AcDbEntity
  8
0
  6
BYBLOCK
 62
     0
 48
2.0
100
AcDbBlockReference
  2
_OPEN
 10
-516.435694
 20
-174.51582
 30
0.0
 41
20.0
 42
20.0
 43
20.0
 50
90.0
  0
INSERT
  5
3750
100
AcDbEntity
  8
0
  6
BYBLOCK
 62
     0
 48
2.0
100
AcDbBlockReference
  2
_OPEN
 10
-516.435694
 20
-537.205487
 30
0.0
 41
20.0
 42
20.0
 43
20.0
 50
270.0
  0
MTEXT
  5
3751
100
AcDbEntity
  8
0
  6
BYBLOCK
 62
     0
 48
2.0
100
AcDbMText
 10
-527.060694
 20
-355.860654
 30
0.0
 40
20.0
 41
0.0
 71
     5
 72
     1
  1
\A1;364
 11
0.0
 21
1.0
 31
0.0
  0
POINT
  5
3752
100
AcDbEntity
  8
DEFPOINTS
  6
BYBLOCK
 62
     0
 48
2.0
100
AcDbPoint
 10
-586.37168
 20
-174.51582
 30
0.0
  0
POINT
  5
3753
100
AcDbEntity
  8
DEFPOINTS
  6
BYBLOCK
 62
     0
 48
2.0
100
AcDbPoint
 10
-586.37168
 20
-537.205487
 30
0.0
  0
POINT
  5
3754
100
AcDbEntity
  8
DEFPOINTS
  6
BYBLOCK
 62
     0
 48
2.0
100
AcDbPoint
 10
-516.435694
 20
-537.205487
 30
0.0
  0
ENDBLK
  5
3755
100
AcDbEntity
  8
0
 48
2.0
100
AcDbBlockEnd
  0
BLOCK
  5
37A5
100
AcDbEntity
  8
0
 48
2.0
100
AcDbBlockBegin
  2
*D13
 70
     1
 10
0.0
 20
0.0
 30
0.0
  3
*D13
  1

  0
LINE
  5
37A6
100
AcDbEntity
  8
0
  6
BYBLOCK
 62
     0
 48
2.0
100
AcDbLine
 10
-369.919607
 20
-585.34113
 30
0.0
 11
-369.919607
 21
-666.419416
 31
0.0
  0
LINE
  5
37A7
100
AcDbEntity
  8
0
  6
BYBLOCK
 62
     0
 48
2.0
100
AcDbLine
 10
-334.503143
 20
-585.34113
 30
0.0
 11
-334.503143
 21
-666.419416
 31
0.0
  0
LINE
  5
37A8
100
AcDbEntity
  8
0
  6
BYBLOCK
 62
     0
 48
2.0
100
AcDbLine
 10
-389.919607
 20
-666.239416
 30
0.0
 11
-409.919607
 21
-666.239416
 31
0.0
  0
LINE
  5
37A9
100
AcDbEntity
  8
0
  6
BYBLOCK
 62
     0
 48
2.0
100
AcDbLine
 10
-314.503143
 20
-666.239416
 30
0.0
 11
-294.503143
 21
-666.239416
 31
0.0
  0
INSERT
  5
37AA
100
AcDbEntity
  8
0
  6
BYBLOCK
 62
     0
 48
2.0
100
AcDbBlockReference
  2
_OPEN
 10
-369.919607
 20
-666.239416
 30
0.0
 41
20.0
 42
20.0
 43
20.0
  0
INSERT
  5
37AB
100
AcDbEntity
  8
0
  6
BYBLOCK
 62
     0
 48
2.0
100
AcDbBlockReference
  2
_OPEN
 10
-334.503143
 20
-666.239416
 30
0.0
 41
20.0
 42
20.0
 43
20.0
 50
180.0
  0
MTEXT
  5
37AC
100
AcDbEntity
  8
0
  6
BYBLOCK
 62
     0
 48
2.0
100
AcDbMText
 10
-352.211375
 20
-655.612448
 30
0.0
 40
20.0
 41
0.0
 71
     5
 72
     1
  1
\A1;42
  0
POINT
  5
37AD
100
AcDbEntity
  8
DEFPOINTS
  6
BYBLOCK
 62
     0
 48
2.0
100
AcDbPoint
 10
-369.919607
 20
-585.27863
 30
0.0
  0
POINT
  5
37AE
100
AcDbEntity
  8
DEFPOINTS
  6
BYBLOCK
 62
     0
 48
2.0
100
AcDbPoint
 10
-334.503143
 20
-585.27863
 30
0.0
  0
POINT
  5
37AF
100
AcDbEntity
  8
DEFPOINTS
  6
BYBLOCK
 62
     0
 48
2.0
100
AcDbPoint
 10
-334.503143
 20
-666.239416
 30
0.0
  0
ENDBLK
  5
37B0
100
AcDbEntity
  8
0
 48
2.0
100
AcDbBlockEnd
  0
BLOCK
  5
37B2
100
AcDbEntity
  8
0
 48
2.0
100
AcDbBlockBegin
  2
*D14
 70
     1
 10
0.0
 20
0.0
 30
0.0
  3
*D14
  1

  0
LINE
  5
37B3
100
AcDbEntity
  8
0
  6
BYBLOCK
 62
     0
 48
2.0
100
AcDbLine
 10
-369.919607
 20
-585.34113
 30
0.0
 11
-369.919607
 21
-635.657916
 31
0.0
  0
LINE
  5
37B4
100
AcDbEntity
  8
0
  6
BYBLOCK
 62
     0
 48
2.0
100
AcDbLine
 10
-343.919607
 20
-585.34113
 30
0.0
 11
-343.919607
 21
-635.657916
 31
0.0
  0
LINE
  5
37B5
100
AcDbEntity
  8
0
  6
BYBLOCK
 62
     0
 48
2.0
100
AcDbLine
 10
-389.919607
 20
-635.477916
 30
0.0
 11
-409.919607
 21
-635.477916
 31
0.0
  0
LINE
  5
37B6
100
AcDbEntity
  8
0
  6
BYBLOCK
 62
     0
 48
2.0
100
AcDbLine
 10
-323.919607
 20
-635.477916
 30
0.0
 11
-279.169607
 21
-635.477916
 31
0.0
  0
INSERT
  5
37B7
100
AcDbEntity
  8
0
  6
BYBLOCK
 62
     0
 48
2.0
100
AcDbBlockReference
  2
_OPEN
 10
-369.919607
 20
-635.477916
 30
0.0
 41
20.0
 42
20.0
 43
20.0
  0
INSERT
  5
37B8
100
AcDbEntity
  8
0
  6
BYBLOCK
 62
     0
 48
2.0
100
AcDbBlockReference
  2
_OPEN
 10
-343.919607
 20
-635.477916
 30
0.0
 41
20.0
 42
20.0
 43
20.0
 50
180.0
  0
MTEXT
  5
37B9
100
AcDbEntity
  8
0
  6
BYBLOCK
 62
     0
 48
2.0
100
AcDbMText
 10
-291.544607
 20
-624.850947
 30
0.0
 40
20.0
 41
0.0
 71
     5
 72
     1
  1
\A1;26
  0
POINT
  5
37BA
100
AcDbEntity
  8
DEFPOINTS
  6
BYBLOCK
 62
     0
 48
2.0
100
AcDbPoint
 10
-369.919607
 20
-585.27863
 30
0.0
  0
POINT
  5
37BB
100
AcDbEntity
  8
DEFPOINTS
  6
BYBLOCK
 62
     0
 48
2.0
100
AcDbPoint
 10
-343.919607
 20
-585.27863
 30
0.0
  0
POINT
  5
37BC
100
AcDbEntity
  8
DEFPOINTS
  6
BYBLOCK
 62
     0
 48
2.0
100
AcDbPoint
 10
-343.919607
 20
-635.477916
 30
0.0
  0
ENDBLK
  5
37BD
100
AcDbEntity
  8
0
 48
2.0
100
AcDbBlockEnd
  0
ENDSEC
  0
SECTION
  2
ENTITIES
  0
LINE
  5
3172
100
AcDbEntity
  8
V0-OBRYS
  6
CONTINUOUS
 62
    90
100
AcDbLine
 10
-992.404222
 20
-332.209316
 30
0.0
 11
-779.838052
 21
-332.209316
 31
0.0
  0
MTEXT
  5
3174
102
{ACAD_REACTORS
330
3175
102
}
100
AcDbEntity
  8
V0-VYPLNE
  6
CONTINUOUS
 62
    41
100
AcDbMText
 10
-820.17759
 20
-81.603028
 30
0.0
 40
23.651338
 41
0.0
 71
     4
 72
     1
  1
%%c5
  0
LEADER
  5
3175
100
AcDbEntity
  8
V0-VYPLNE
  6
CONTINUOUS
 62
    41
100
AcDbLeader
  3
STANDARD
 73
     0
 74
     0
 75
     1
 40
23.651338
 41
31.72641
 76
     3
 10
-958.844286
 20
-171.79181
 30
0.0
 10
-830.80259
 20
-94.053696
 30
0.0
 10
-820.80259
 20
-94.053696
 30
0.0
 77
    41
340
3174
1001
ACAD
1000
DSTYLE
1002
{
1070
   140
1040
10.0
1070
    40
1040
1.0
1070
    41
1040
10.0
1002
}
  0
LINE
  5
3176
100
AcDbEntity
  8
V0-OBRYS
  6
CONTINUOUS
 62
    90
100
AcDbLine
 10
-1013.690426
 20
-126.442677
 30
0.0
 11
-784.27245
 21
-126.442677
 31
0.0
  0
LINE
  5
3177
100
AcDbEntity
  8
V0-OBRYS
  6
CONTINUOUS
 62
    90
100
AcDbLine
 10
-784.27245
 20
-150.094015
 30
0.0
 11
-990.039088
 21
-150.094015
 31
0.0
  0
LINE
  5
3178
100
AcDbEntity
  8
V0-OBRYS
  6
CONTINUOUS
 62
    90
100
AcDbLine
 10
-784.27245
 20
-561.627292
 30
0.0
 11
-990.039088
 21
-561.627292
 31
0.0
  0
LINE
  5
3179
100
AcDbEntity
  8
V0-OBRYS
  6
CONTINUOUS
 62
    90
100
AcDbLine
 10
-1013.690426
 20
-585.27863
 30
0.0
 11
-784.27245
 21
-585.27863
 31
0.0
  0
LINE
  5
317A
100
AcDbEntity
  8
V0-VYPLNE
  6
DASHDOT
 62
    63
 48
2.0
100
AcDbLine
 10
-1035.354927
 20
-355.860654
 30
0.0
 11
-547.098188
 21
-355.860654
 31
0.0
  0
LINE
  5
317B
100
AcDbEntity
  8
V0-OBRYS
  6
CONTINUOUS
 62
    90
100
AcDbLine
 10
-992.404222
 20
-511.959483
 30
0.0
 11
-578.505811
 21
-511.959483
 31
0.0
  0
LINE
  5
317C
100
AcDbEntity
  8
V0-OBRYS
  6
CONTINUOUS
 62
    90
100
AcDbLine
 10
-992.404222
 20
-467.021941
 30
0.0
 11
-578.505811
 21
-467.021941
 31
0.0
  0
LINE
  5
317D
100
AcDbEntity
  8
V0-OBRYS
  6
CONTINUOUS
 62
    90
100
AcDbLine
 10
-992.404222
 20
-422.0844
 30
0.0
 11
-578.505811
 21
-422.0844
 31
0.0
  0
LINE
  5
317E
100
AcDbEntity
  8
V0-OBRYS
  6
CONTINUOUS
 62
    90
100
AcDbLine
 10
-992.404222
 20
-377.146858
 30
0.0
 11
-578.505811
 21
-377.146858
 31
0.0
  0
LINE
  5
317F
100
AcDbEntity
  8
V0-OBRYS
  6
CONTINUOUS
 62
    90
100
AcDbLine
 10
-992.404222
 20
-287.271774
 30
0.0
 11
-893.068603
 21
-287.271774
 31
0.0
  0
LINE
  5
3180
100
AcDbEntity
  8
V0-OBRYS
  6
CONTINUOUS
 62
    90
100
AcDbLine
 10
-992.404222
 20
-242.334233
 30
0.0
 11
-578.505811
 21
-242.334233
 31
0.0
  0
LINE
  5
3181
100
AcDbEntity
  8
V0-OBRYS
  6
CONTINUOUS
 62
    90
100
AcDbLine
 10
-992.404222
 20
-197.396691
 30
0.0
 11
-578.505811
 21
-197.396691
 31
0.0
  0
LINE
  5
3182
100
AcDbEntity
  8
V0-OBRYS
  6
CONTINUOUS
 62
    90
100
AcDbLine
 10
-990.039088
 20
-355.860654
 30
0.0
 11
-990.039088
 21
-561.627292
 31
0.0
  0
LINE
  5
3183
100
AcDbEntity
  8
V0-OBRYS
  6
CONTINUOUS
 62
    90
100
AcDbLine
 10
-1013.690426
 20
-355.860654
 30
0.0
 11
-1013.690426
 21
-585.27863
 31
0.0
  0
LINE
  5
3184
100
AcDbEntity
  8
V0-VYPLNE
  6
DASHDOT
 62
    63
 48
2.0
100
AcDbLine
 10
-965.617283
 20
-549.031156
 30
0.0
 11
-965.617283
 21
-527.744952
 31
0.0
  0
CIRCLE
  5
3185
100
AcDbEntity
  8
V0-OBRYS
  6
CONTINUOUS
 62
    90
100
AcDbCircle
 10
-965.617283
 20
-537.205487
 30
0.0
 40
5.912834
  0
LINE
  5
3186
100
AcDbEntity
  8
V0-VYPLNE
  6
DASHDOT
 62
    63
 48
2.0
100
AcDbLine
 10
-982.17322
 20
-537.205487
 30
0.0
 11
-951.42648
 21
-537.205487
 31
0.0
  0
LINE
  5
3187
100
AcDbEntity
  8
V0-OBRYS
  6
CONTINUOUS
 62
    90
100
AcDbLine
 10
-1013.690426
 20
-355.860654
 30
0.0
 11
-1013.690426
 21
-126.442677
 31
0.0
  0
LINE
  5
3188
100
AcDbEntity
  8
V0-OBRYS
  6
CONTINUOUS
 62
    90
100
AcDbLine
 10
-990.039088
 20
-355.860654
 30
0.0
 11
-990.039088
 21
-150.094015
 31
0.0
  0
CIRCLE
  5
3189
100
AcDbEntity
  8
V0-OBRYS
  6
CONTINUOUS
 62
    90
100
AcDbCircle
 10
-965.617283
 20
-174.51582
 30
0.0
 40
5.912834
  0
LINE
  5
318A
100
AcDbEntity
  8
V0-VYPLNE
  6
DASHDOT
 62
    63
 48
2.0
100
AcDbLine
 10
-982.17322
 20
-174.51582
 30
0.0
 11
-951.42648
 21
-174.51582
 31
0.0
  0
LINE
  5
318B
100
AcDbEntity
  8
V0-VYPLNE
  6
DASHDOT
 62
    63
 48
2.0
100
AcDbLine
 10
-965.617283
 20
-168.331721
 30
0.0
 11
-965.617283
 21
-189.617925
 31
0.0
  0
LINE
  5
318E
100
AcDbEntity
  8
V0-OBRYS
  6
CONTINUOUS
 62
    90
100
AcDbLine
 10
-578.505811
 20
-355.860654
 30
0.0
 11
-578.505811
 21
-561.627292
 31
0.0
  0
LINE
  5
318F
100
AcDbEntity
  8
V0-OBRYS
  6
CONTINUOUS
 62
    90
100
AcDbLine
 10
-554.854473
 20
-355.860654
 30
0.0
 11
-554.854473
 21
-585.27863
 31
0.0
  0
LINE
  5
3190
100
AcDbEntity
  8
V0-OBRYS
  6
CONTINUOUS
 62
    90
100
AcDbLine
 10
-578.505811
 20
-355.860654
 30
0.0
 11
-578.505811
 21
-561.627292
 31
0.0
  0
LINE
  5
3191
100
AcDbEntity
  8
V0-VYPLNE
  6
DASHDOT
 62
    63
 48
2.0
100
AcDbLine
 10
-784.27245
 20
-318.018513
 30
0.0
 11
-784.27245
 21
-575.705439
 31
0.0
  0
LINE
  5
3192
100
AcDbEntity
  8
V0-OBRYS
  6
CONTINUOUS
 62
    90
100
AcDbLine
 10
-784.27245
 20
-561.627292
 30
0.0
 11
-578.505811
 21
-561.627292
 31
0.0
  0
LINE
  5
3193
100
AcDbEntity
  8
V0-OBRYS
  6
CONTINUOUS
 62
    90
100
AcDbLine
 10
-554.854473
 20
-585.27863
 30
0.0
 11
-784.27245
 21
-585.27863
 31
0.0
  0
LINE
  5
3194
100
AcDbEntity
  8
V0-VYPLNE
  6
DASHDOT
 62
    63
 48
2.0
100
AcDbLine
 10
-586.37168
 20
-537.205487
 30
0.0
 11
-617.118419
 21
-537.205487
 31
0.0
  0
CIRCLE
  5
3195
100
AcDbEntity
  8
V0-OBRYS
  6
CONTINUOUS
 62
    90
100
AcDbCircle
 10
-602.927616
 20
-537.205487
 30
0.0
 40
5.912834
  0
LINE
  5
3196
100
AcDbEntity
  8
V0-VYPLNE
  6
DASHDOT
 62
    63
 48
2.0
100
AcDbLine
 10
-602.927616
 20
-549.031156
 30
0.0
 11
-602.927616
 21
-527.744952
 31
0.0
  0
LINE
  5
3197
100
AcDbEntity
  8
V0-OBRYS
  6
CONTINUOUS
 62
    90
100
AcDbLine
 10
-578.505811
 20
-355.860654
 30
0.0
 11
-578.505811
 21
-150.094015
 31
0.0
  0
LINE
  5
3198
100
AcDbEntity
  8
V0-OBRYS
  6
CONTINUOUS
 62
    90
100
AcDbLine
 10
-578.505811
 20
-355.860654
 30
0.0
 11
-578.505811
 21
-150.094015
 31
0.0
  0
LINE
  5
3199
100
AcDbEntity
  8
V0-OBRYS
  6
CONTINUOUS
 62
    90
100
AcDbLine
 10
-554.854473
 20
-355.860654
 30
0.0
 11
-554.854473
 21
-126.442677
 31
0.0
  0
LINE
  5
319A
100
AcDbEntity
  8
V0-VYPLNE
  6
DASHDOT
 62
    63
 48
2.0
100
AcDbLine
 10
-784.27245
 20
-113.828972
 30
0.0
 11
-784.27245
 21
-254.159901
 31
0.0
  0
TEXT
  5
319B
100
AcDbEntity
  8
V0-NAZVY
  6
CONTINUOUS
 62
   210
100
AcDbText
 10
-879.957322
 20
-308.754255
 30
0.0
 40
29.441499
  1
PAR-400W
 72
     1
 11
-784.27245
 21
-308.754255
 31
0.0
100
AcDbText
  0
LINE
  5
319C
100
AcDbEntity
  8
V0-OBRYS
  6
CONTINUOUS
 62
    90
100
AcDbLine
 10
-676.904167
 20
-332.209316
 30
0.0
 11
-578.505811
 21
-332.209316
 31
0.0
  0
LINE
  5
319D
100
AcDbEntity
  8
V0-OBRYS
  6
CONTINUOUS
 62
    90
100
AcDbLine
 10
-677.84143
 20
-287.271774
 30
0.0
 11
-578.505811
 21
-287.271774
 31
0.0
  0
LINE
  5
319E
100
AcDbEntity
  8
V0-OBRYS
  6
CONTINUOUS
 62
    90
100
AcDbLine
 10
-784.27245
 20
-150.094015
 30
0.0
 11
-578.505811
 21
-150.094015
 31
0.0
  0
LINE
  5
319F
100
AcDbEntity
  8
V0-OBRYS
  6
CONTINUOUS
 62
    90
100
AcDbLine
 10
-554.854473
 20
-126.442677
 30
0.0
 11
-784.27245
 21
-126.442677
 31
0.0
  0
LINE
  5
31A0
100
AcDbEntity
  8
V0-VYPLNE
  6
DASHDOT
 62
    63
 48
2.0
100
AcDbLine
 10
-586.37168
 20
-174.51582
 30
0.0
 11
-617.118419
 21
-174.51582
 31
0.0
  0
CIRCLE
  5
31A1
100
AcDbEntity
  8
V0-OBRYS
  6
CONTINUOUS
 62
    90
100
AcDbCircle
 10
-602.927616
 20
-174.51582
 30
0.0
 40
5.912834
  0
LINE
  5
31A2
100
AcDbEntity
  8
V0-VYPLNE
  6
DASHDOT
 62
    63
 48
2.0
100
AcDbLine
 10
-602.927616
 20
-168.331721
 30
0.0
 11
-602.927616
 21
-189.617925
 31
0.0
  0
POINT
  5
31A3
100
AcDbEntity
  8
V0-VYPLNE
  6
CONTINUOUS
 62
    52
100
AcDbPoint
 10
-784.27245
 20
-355.860654
 30
0.0
  0
DIMENSION
  5
321D
100
AcDbEntity
  8
V0-VYPLNE
  6
CONTINUOUS
 62
    41
100
AcDbDimension
  2
*D8
 10
-484.033121
 20
-585.27863
 30
0.0
 11
-494.658121
 21
-355.860654
 31
0.0
 70
    32
  3
STANDARD
100
AcDbAlignedDimension
 13
-554.854473
 23
-126.442677
 33
0.0
 14
-554.854473
 24
-585.27863
 34
0.0
 50
90.0
100
AcDbRotatedDimension
1001
ACAD
1000
DSTYLE
1002
{
1070
   140
1040
20.0
1070
    40
1040
1.0
1070
    41
1040
20.0
1002
}
  0
DIMENSION
  5
3242
100
AcDbEntity
  8
V0-VYPLNE
  6
CONTINUOUS
 62
    41
100
AcDbDimension
  2
*D10
 10
-554.854473
 20
-655.382417
 30
0.0
 11
-784.27245
 21
-644.757417
 31
0.0
 70
    32
  3
STANDARD
100
AcDbAlignedDimension
 13
-1013.690426
 23
-585.27863
 33
0.0
 14
-554.854473
 24
-585.27863
 34
0.0
100
AcDbRotatedDimension
1001
ACAD
1000
DSTYLE
1002
{
1070
   140
1040
20.0
1070
    40
1040
1.0
1070
    41
1040
20.0
1002
}
  0
TEXT
  5
32F1
100
AcDbEntity
  8
V0-NAZVY
  6
CONTINUOUS
 62
   210
100
AcDbText
 10
-870.787444
 20
-709.577884
 30
0.0
 40
25.468425
  1
PAR-400W
 72
     1
 11
-788.015063
 21
-709.577884
 31
0.0
100
AcDbText
  0
CIRCLE
  5
3437
100
AcDbEntity
  8
V0-VYPLNE
  6
DASHED
 62
    56
 48
2.0
100
AcDbCircle
 10
-784.27245
 20
-355.860654
 30
0.0
 40
210.0
  0
DIMENSION
  5
3441
100
AcDbEntity
  8
V0-VYPLNE
  6
CONTINUOUS
 62
    41
 48
2.0
100
AcDbDimension
  2
*D9
 10
-990.747194
 20
-394.177491
 30
0.0
 11
-712.806841
 21
-342.598325
 31
0.0
 70
   163
  3
STANDARD
100
AcDbDiametricDimension
 15
-577.797705
 25
-317.543817
 35
0.0
 40
0.0
1001
ACAD
1000
DSTYLE
1002
{
1070
   140
1040
20.0
1070
    40
1040
1.0
1070
    41
1040
20.0
1002
}
  0
DIMENSION
  5
345E
100
AcDbEntity
  8
V0-VYPLNE
  6
CONTINUOUS
 62
    41
100
AcDbDimension
  2
*D11
 10
-602.927616
 20
-625.06382
 30
0.0
 11
-784.27245
 21
-614.43882
 31
0.0
 70
    32
  1
364
  3
STANDARD
100
AcDbAlignedDimension
 13
-965.617283
 23
-549.031156
 33
0.0
 14
-602.927616
 24
-549.031156
 34
0.0
100
AcDbRotatedDimension
1001
ACAD
1000
DSTYLE
1002
{
1070
   140
1040
20.0
1070
    40
1040
1.0
1070
    41
1040
20.0
1002
}
  0
DIMENSION
  5
346B
100
AcDbEntity
  8
V0-VYPLNE
  6
CONTINUOUS
 62
    41
100
AcDbDimension
  2
*D12
 10
-516.435694
 20
-537.205487
 30
0.0
 11
-527.060694
 21
-355.860654
 31
0.0
 70
    32
  1
364
  3
STANDARD
100
AcDbAlignedDimension
 13
-586.37168
 23
-174.51582
 33
0.0
 14
-586.37168
 24
-537.205487
 34
0.0
 50
90.0
100
AcDbRotatedDimension
1001
ACAD
1000
DSTYLE
1002
{
1070
   140
1040
20.0
1070
    40
1040
1.0
1070
    41
1040
20.0
1002
}
  0
LINE
  5
34EA
100
AcDbEntity
  8
V0-OBRYS
  6
CONTINUOUS
 62
    90
100
AcDbLine
 10
-343.919607
 20
-126.442677
 30
0.0
 11
-343.919607
 21
-585.27863
 31
0.0
  0
LINE
  5
34EB
100
AcDbEntity
  8
V0-VYPLNE
  6
DASHED
 62
    56
 48
2.0
100
AcDbLine
 10
-356.330387
 20
-150.380642
 30
0.0
 11
-356.330387
 21
-598.097443
 31
0.0
  0
LINE
  5
34EC
100
AcDbEntity
  8
V0-OBRYS
  6
CONTINUOUS
 62
    90
100
AcDbLine
 10
-406.069607
 20
-152.982654
 30
0.0
 11
-406.069607
 21
-355.860654
 31
0.0
  0
LINE
  5
34ED
100
AcDbEntity
  8
V0-OBRYS
  6
CONTINUOUS
 62
    90
100
AcDbLine
 10
-369.919607
 20
-355.860654
 30
0.0
 11
-369.919607
 21
-126.442677
 31
0.0
  0
ELLIPSE
  5
34EE
100
AcDbEntity
  8
V0-OBRYS
  6
CONTINUOUS
 62
    90
100
AcDbEllipse
 10
-338.978176
 20
-188.282599
 30
0.0
 11
0.0000000000000707
 21
7.095401331300066
 31
0.0
210
0.0
220
0.0
230
-1.0
 40
0.640779
 41
1.007059691540277
 42
2.356660097223439
  0
LINE
  5
34EF
100
AcDbEntity
  8
V0-OBRYS
  6
CONTINUOUS
 62
    90
100
AcDbLine
 10
-406.069607
 20
-558.738654
 30
0.0
 11
-406.069607
 21
-355.860654
 31
0.0
  0
LINE
  5
34F0
100
AcDbEntity
  8
V0-OBRYS
  6
CONTINUOUS
 62
    90
100
AcDbLine
 10
-369.919607
 20
-355.860654
 30
0.0
 11
-369.919607
 21
-585.27863
 31
0.0
  0
LINE
  5
34F1
100
AcDbEntity
  8
V0-OBRYS
  6
CONTINUOUS
 62
    90
100
AcDbLine
 10
-343.738238
 20
-439.7741
 30
0.0
 11
-335.135109
 21
-454.116434
 31
0.0
  0
TEXT
  5
34F2
100
AcDbEntity
  8
V0-NAZVY
  6
CONTINUOUS
 62
   210
100
AcDbText
 10
-296.749906
 20
-451.419462
 30
0.0
 40
25.468425
  1
PAR-400W
 50
90.0
 41
1.156
 72
     1
 11
-296.749906
 21
-355.73459
 31
0.0
100
AcDbText
  0
DIMENSION
  5
3500
100
AcDbEntity
  8
V0-VYPLNE
  6
CONTINUOUS
 62
    41
100
AcDbDimension
  2
*D13
 10
-334.503143
 20
-666.239416
 30
0.0
 11
-352.211375
 21
-666.239416
 31
0.0
 70
   160
  1
42
  3
STANDARD
100
AcDbAlignedDimension
 13
-369.919607
 23
-585.27863
 33
0.0
 14
-334.503143
 24
-585.27863
 34
0.0
100
AcDbRotatedDimension
1001
ACAD
1000
DSTYLE
1002
{
1070
   140
1040
20.0
1070
    40
1040
1.0
1070
    41
1040
20.0
1002
}
  0
DIMENSION
  5
350E
100
AcDbEntity
  8
V0-VYPLNE
  6
CONTINUOUS
 62
    41
100
AcDbDimension
  2
*D14
 10
-343.919607
 20
-635.477916
 30
0.0
 11
-291.544607
 21
-635.477916
 31
0.0
 70
   160
  3
STANDARD
100
AcDbAlignedDimension
 13
-369.919607
 23
-585.27863
 33
0.0
 14
-343.919607
 24
-585.27863
 34
0.0
100
AcDbRotatedDimension
1001
ACAD
1000
DSTYLE
1002
{
1070
   140
1040
20.0
1070
    40
1040
1.0
1070
    41
1040
20.0
1002
}
  0
LINE
  5
350F
100
AcDbEntity
  8
V0-OBRYS
  6
CONTINUOUS
 62
    90
100
AcDbLine
 10
-369.919607
 20
-558.738654
 30
0.0
 11
-406.069607
 21
-558.738654
 31
0.0
  0
LINE
  5
3510
100
AcDbEntity
  8
V0-VYPLNE
  6
CONTINUOUS
 62
    41
100
AcDbLine
 10
-343.919607
 20
-635.417461
 30
0.0
 11
-378.824694
 21
-635.417461
 31
0.0
  0
LINE
  5
3511
100
AcDbEntity
  8
V0-VYPLNE
  6
CONTINUOUS
 62
    41
100
AcDbLine
 10
-334.503143
 20
-667.488538
 30
0.0
 11
-370.990619
 21
-667.488538
 31
0.0
  0
LINE
  5
3512
100
AcDbEntity
  8
V0-OBRYS
  6
CONTINUOUS
 62
    90
100
AcDbLine
 10
-343.919607
 20
-585.27863
 30
0.0
 11
-369.919607
 21
-585.27863
 31
0.0
  0
ELLIPSE
  5
3513
100
AcDbEntity
  8
V0-OBRYS
  6
CONTINUOUS
 62
    90
100
AcDbEllipse
 10
-338.978176
 20
-502.845392
 30
0.0
 11
0.0000000000000707
 21
7.095401331300066
 31
0.0
210
0.0
220
0.0
230
-1.0
 40
0.640779
 41
1.007059691540277
 42
2.356660097223439
  0
LINE
  5
3514
100
AcDbEntity
  8
V0-VYPLNE
  6
DASHED
 62
    56
 48
2.0
100
AcDbLine
 10
-351.838567
 20
-511.09215
 30
0.0
 11
-356.201614
 21
-511.09215
 31
0.0
  0
LINE
  5
3515
100
AcDbEntity
  8
V0-OBRYS
  6
CONTINUOUS
 62
    90
100
AcDbLine
 10
-343.738238
 20
-529.649184
 30
0.0
 11
-335.135109
 21
-543.991517
 31
0.0
  0
LINE
  5
3516
100
AcDbEntity
  8
V0-OBRYS
  6
CONTINUOUS
 62
    90
100
AcDbLine
 10
-335.764752
 20
-552.802475
 30
0.0
 11
-341.96869
 21
-558.120096
 31
0.0
  0
ELLIPSE
  5
3517
100
AcDbEntity
  8
V0-OBRYS
  6
CONTINUOUS
 62
    90
100
AcDbEllipse
 10
-338.978176
 20
-547.782933
 30
0.0
 11
0.0000000000001873
 21
7.095401331300084
 31
0.0
210
0.0
220
0.0
230
-1.0
 40
0.640779
 41
1.007059691540278
 42
2.356660097223437
  0
LINE
  5
3518
100
AcDbEntity
  8
V0-OBRYS
  6
CONTINUOUS
 62
    90
100
AcDbLine
 10
-335.764752
 20
-507.864934
 30
0.0
 11
-341.96869
 21
-513.182554
 31
0.0
  0
LINE
  5
3519
100
AcDbEntity
  8
V0-VYPLNE
  6
DASHED
 62
    56
 48
2.0
100
AcDbLine
 10
-350.346345
 20
-513.336076
 30
0.0
 11
-345.028521
 21
-526.463927
 31
0.0
  0
ELLIPSE
  5
351A
100
AcDbEntity
  8
V0-VYPLNE
  6
DASHED
 62
    56
 48
2.0
100
AcDbEllipse
 10
-348.778374
 20
-517.613706
 30
0.0
 11
-0.0000000000002337
 21
2.011334161913282
 31
0.0
210
0.0
220
0.0
230
-1.0
 40
0.640779
 41
0.0000000000000382
 42
6.283185307179624
  0
ELLIPSE
  5
351B
100
AcDbEntity
  8
V0-VYPLNE
  6
DASHED
 62
    56
 48
2.0
100
AcDbEllipse
 10
-348.778374
 20
-517.613706
 30
0.0
 11
-0.0000000000002337
 21
2.011334161913282
 31
0.0
210
0.0
220
0.0
230
-1.0
 40
0.640779
 41
0.0000000000000382
 42
6.283185307179624
  0
LINE
  5
351C
100
AcDbEntity
  8
V0-VYPLNE
  6
DASHED
 62
    56
 48
2.0
100
AcDbLine
 10
-351.838567
 20
-466.154608
 30
0.0
 11
-356.201614
 21
-466.154608
 31
0.0
  0
LINE
  5
351D
100
AcDbEntity
  8
V0-VYPLNE
  6
DASHED
 62
    56
 48
2.0
100
AcDbLine
 10
-350.346345
 20
-468.398535
 30
0.0
 11
-345.028521
 21
-481.526385
 31
0.0
  0
ELLIPSE
  5
351E
100
AcDbEntity
  8
V0-VYPLNE
  6
DASHED
 62
    56
 48
2.0
100
AcDbEllipse
 10
-348.778374
 20
-472.676164
 30
0.0
 11
-0.0000000000001031
 21
2.011334161913282
 31
0.0
210
0.0
220
0.0
230
-1.0
 40
0.640779
 41
-0.0000000000000631
 42
6.283185307179523
  0
LINE
  5
351F
100
AcDbEntity
  8
V0-OBRYS
  6
CONTINUOUS
 62
    90
100
AcDbLine
 10
-343.738238
 20
-484.711642
 30
0.0
 11
-335.135109
 21
-499.053976
 31
0.0
  0
LINE
  5
3520
100
AcDbEntity
  8
V0-OBRYS
  6
CONTINUOUS
 62
    90
100
AcDbLine
 10
-335.764752
 20
-462.927392
 30
0.0
 11
-341.96869
 21
-468.245013
 31
0.0
  0
ELLIPSE
  5
3521
100
AcDbEntity
  8
V0-OBRYS
  6
CONTINUOUS
 62
    90
100
AcDbEllipse
 10
-338.978176
 20
-457.90785
 30
0.0
 11
0.0000000000002006
 21
7.09540133129996
 31
0.0
210
0.0
220
0.0
230
-1.0
 40
0.640779
 41
1.007059691540265
 42
2.356660097223431
  0
LINE
  5
3524
100
AcDbEntity
  8
V0-VYPLNE
  6
DASHDOT
 62
    63
 48
2.0
100
AcDbLine
 10
-406.069607
 20
-355.860654
 30
0.0
 11
-343.919607
 21
-355.860654
 31
0.0
  0
LINE
  5
3527
100
AcDbEntity
  8
V0-OBRYS
  6
CONTINUOUS
 62
    90
100
AcDbLine
 10
-343.738238
 20
-304.961475
 30
0.0
 11
-335.135109
 21
-319.303809
 31
0.0
  0
LINE
  5
3528
100
AcDbEntity
  8
V0-OBRYS
  6
CONTINUOUS
 62
    90
100
AcDbLine
 10
-335.764752
 20
-373.052308
 30
0.0
 11
-341.96869
 21
-378.369929
 31
0.0
  0
LINE
  5
3529
100
AcDbEntity
  8
V0-VYPLNE
  6
DASHED
 62
    56
 48
2.0
100
AcDbLine
 10
-351.838567
 20
-421.217066
 30
0.0
 11
-356.201614
 21
-421.217066
 31
0.0
  0
ELLIPSE
  5
352A
100
AcDbEntity
  8
V0-OBRYS
  6
CONTINUOUS
 62
    90
100
AcDbEllipse
 10
-338.978176
 20
-412.970308
 30
0.0
 11
0.0000000000001441
 21
7.095401331299981
 31
0.0
210
0.0
220
0.0
230
-1.0
 40
0.640779
 41
1.007059691540281
 42
2.356660097223457
  0
LINE
  5
352B
100
AcDbEntity
  8
V0-OBRYS
  6
CONTINUOUS
 62
    90
100
AcDbLine
 10
-335.764752
 20
-417.98985
 30
0.0
 11
-341.96869
 21
-423.307471
 31
0.0
  0
LINE
  5
352C
100
AcDbEntity
  8
V0-VYPLNE
  6
DASHED
 62
    56
 48
2.0
100
AcDbLine
 10
-350.346345
 20
-423.460993
 30
0.0
 11
-345.028521
 21
-436.588844
 31
0.0
  0
ELLIPSE
  5
352D
100
AcDbEntity
  8
V0-VYPLNE
  6
DASHED
 62
    56
 48
2.0
100
AcDbEllipse
 10
-348.778374
 20
-427.738623
 30
0.0
 11
-0.0000000000001611
 21
2.011334161913225
 31
0.0
210
0.0
220
0.0
230
-1.0
 40
0.640779
 41
-0.0000000000000513
 42
6.283185307179534
  0
LINE
  5
352E
100
AcDbEntity
  8
V0-OBRYS
  6
CONTINUOUS
 62
    90
100
AcDbLine
 10
-343.738238
 20
-394.836558
 30
0.0
 11
-335.135109
 21
-409.178892
 31
0.0
  0
LINE
  5
352F
100
AcDbEntity
  8
V0-VYPLNE
  6
DASHED
 62
    56
 48
2.0
100
AcDbLine
 10
-350.346345
 20
-378.523451
 30
0.0
 11
-345.028521
 21
-391.651302
 31
0.0
  0
ELLIPSE
  5
3530
100
AcDbEntity
  8
V0-VYPLNE
  6
DASHED
 62
    56
 48
2.0
100
AcDbEllipse
 10
-348.778374
 20
-382.801081
 30
0.0
 11
-0.0000000000002514
 21
2.011334161913226
 31
0.0
210
0.0
220
0.0
230
-1.0
 40
0.640779
 41
-0.0000000000000475
 42
6.283185307179538
  0
LINE
  5
3531
100
AcDbEntity
  8
V0-VYPLNE
  6
DASHED
 62
    56
 48
2.0
100
AcDbLine
 10
-351.838567
 20
-331.341983
 30
0.0
 11
-356.201614
 21
-331.341983
 31
0.0
  0
LINE
  5
3532
100
AcDbEntity
  8
V0-VYPLNE
  6
DASHED
 62
    56
 48
2.0
100
AcDbLine
 10
-351.838567
 20
-376.279525
 30
0.0
 11
-356.201614
 21
-376.279525
 31
0.0
  0
POINT
  5
3533
100
AcDbEntity
  8
V0-VYPLNE
  6
CONTINUOUS
 62
    52
100
AcDbPoint
 10
-369.919607
 20
-355.860654
 30
0.0
  0
LINE
  5
3534
100
AcDbEntity
  8
V0-VYPLNE
  6
DASHED
 62
    56
 48
2.0
100
AcDbLine
 10
-350.346345
 20
-333.585909
 30
0.0
 11
-345.028521
 21
-346.71376
 31
0.0
  0
LINE
  5
3535
100
AcDbEntity
  8
V0-OBRYS
  6
CONTINUOUS
 62
    90
100
AcDbLine
 10
-343.738238
 20
-349.899017
 30
0.0
 11
-335.135109
 21
-364.24135
 31
0.0
  0
ELLIPSE
  5
3536
100
AcDbEntity
  8
V0-OBRYS
  6
CONTINUOUS
 62
    90
100
AcDbEllipse
 10
-338.978176
 20
-368.032766
 30
0.0
 11
0.0000000000001681
 21
7.095401331299957
 31
0.0
210
0.0
220
0.0
230
-1.0
 40
0.640779
 41
1.007059691540278
 42
2.356660097223433
  0
LINE
  5
3537
100
AcDbEntity
  8
V0-OBRYS
  6
CONTINUOUS
 62
    90
100
AcDbLine
 10
-335.764752
 20
-328.114767
 30
0.0
 11
-341.96869
 21
-333.432387
 31
0.0
  0
ELLIPSE
  5
3538
100
AcDbEntity
  8
V0-VYPLNE
  6
DASHED
 62
    56
 48
2.0
100
AcDbEllipse
 10
-348.778374
 20
-337.863539
 30
0.0
 11
-0.0000000000002713
 21
2.011334161913282
 31
0.0
210
0.0
220
0.0
230
-1.0
 40
0.640779
 41
-0.000000000000032
 42
6.283185307179554
  0
ELLIPSE
  5
3539
100
AcDbEntity
  8
V0-OBRYS
  6
CONTINUOUS
 62
    90
100
AcDbEllipse
 10
-338.978176
 20
-323.095225
 30
0.0
 11
0.0000000000001986
 21
7.095401331299964
 31
0.0
210
0.0
220
0.0
230
-1.0
 40
0.640779
 41
1.007059691540266
 42
2.356660097223442
  0
LINE
  5
353A
100
AcDbEntity
  8
V0-VYPLNE
  6
DASHED
 62
    56
 48
2.0
100
AcDbLine
 10
-350.346345
 20
-243.710826
 30
0.0
 11
-345.028521
 21
-256.838677
 31
0.0
  0
LINE
  5
353B
100
AcDbEntity
  8
V0-VYPLNE
  6
DASHED
 62
    56
 48
2.0
100
AcDbLine
 10
-351.838567
 20
-286.404441
 30
0.0
 11
-356.201614
 21
-286.404441
 31
0.0
  0
ELLIPSE
  5
353C
100
AcDbEntity
  8
V0-OBRYS
  6
CONTINUOUS
 62
    90
100
AcDbEllipse
 10
-338.978176
 20
-278.157683
 30
0.0
 11
0.0000000000001938
 21
7.095401331300046
 31
0.0
210
0.0
220
0.0
230
-1.0
 40
0.640779
 41
1.007059691540283
 42
2.356660097223431
  0
LINE
  5
353D
100
AcDbEntity
  8
V0-OBRYS
  6
CONTINUOUS
 62
    90
100
AcDbLine
 10
-335.764752
 20
-283.177225
 30
0.0
 11
-341.96869
 21
-288.494846
 31
0.0
  0
LINE
  5
353E
100
AcDbEntity
  8
V0-VYPLNE
  6
DASHED
 62
    56
 48
2.0
100
AcDbLine
 10
-350.346345
 20
-288.648368
 30
0.0
 11
-345.028521
 21
-301.776218
 31
0.0
  0
ELLIPSE
  5
353F
100
AcDbEntity
  8
V0-VYPLNE
  6
DASHED
 62
    56
 48
2.0
100
AcDbEllipse
 10
-348.778374
 20
-292.925997
 30
0.0
 11
-0.0000000000001611
 21
2.011334161913225
 31
0.0
210
0.0
220
0.0
230
-1.0
 40
0.640779
 41
-0.0000000000000513
 42
6.283185307179534
  0
LINE
  5
3540
100
AcDbEntity
  8
V0-OBRYS
  6
CONTINUOUS
 62
    90
100
AcDbLine
 10
-343.738238
 20
-260.023933
 30
0.0
 11
-335.135109
 21
-274.366267
 31
0.0
  0
LINE
  5
3541
100
AcDbEntity
  8
V0-VYPLNE
  6
DASHED
 62
    56
 48
2.0
100
AcDbLine
 10
-351.838567
 20
-241.466899
 30
0.0
 11
-356.201614
 21
-241.466899
 31
0.0
  0
LINE
  5
3542
100
AcDbEntity
  8
V0-VYPLNE
  6
DASHED
 62
    56
 48
2.0
100
AcDbLine
 10
-351.838567
 20
-196.529358
 30
0.0
 11
-356.201614
 21
-196.529358
 31
0.0
  0
LINE
  5
3543
100
AcDbEntity
  8
V0-OBRYS
  6
CONTINUOUS
 62
    90
100
AcDbLine
 10
-343.738238
 20
-215.086391
 30
0.0
 11
-335.135109
 21
-229.428725
 31
0.0
  0
LINE
  5
3544
100
AcDbEntity
  8
V0-OBRYS
  6
CONTINUOUS
 62
    90
100
AcDbLine
 10
-335.764752
 20
-238.239683
 30
0.0
 11
-341.96869
 21
-243.557304
 31
0.0
  0
ELLIPSE
  5
3545
100
AcDbEntity
  8
V0-VYPLNE
  6
DASHED
 62
    56
 48
2.0
100
AcDbEllipse
 10
-348.778374
 20
-247.988456
 30
0.0
 11
-0.0000000000001944
 21
2.011334161913225
 31
0.0
210
0.0
220
0.0
230
-1.0
 40
0.640779
 41
-0.0000000000000258
 42
6.28318530717956
  0
ELLIPSE
  5
3546
100
AcDbEntity
  8
V0-OBRYS
  6
CONTINUOUS
 62
    90
100
AcDbEllipse
 10
-338.978176
 20
-233.220141
 30
0.0
 11
0.000000000000109
 21
7.095401331300061
 31
0.0
210
0.0
220
0.0
230
-1.0
 40
0.640779
 41
1.007059691540268
 42
2.356660097223431
  0
LINE
  5
3547
100
AcDbEntity
  8
V0-OBRYS
  6
CONTINUOUS
 62
    90
100
AcDbLine
 10
-335.764752
 20
-193.302141
 30
0.0
 11
-341.96869
 21
-198.619762
 31
0.0
  0
LINE
  5
3548
100
AcDbEntity
  8
V0-VYPLNE
  6
DASHED
 62
    56
 48
2.0
100
AcDbLine
 10
-350.346345
 20
-198.773284
 30
0.0
 11
-345.028521
 21
-211.901135
 31
0.0
  0
ELLIPSE
  5
3549
100
AcDbEntity
  8
V0-VYPLNE
  6
DASHED
 62
    56
 48
2.0
100
AcDbEllipse
 10
-348.778374
 20
-203.050914
 30
0.0
 11
-0.0000000000001839
 21
2.011334161913197
 31
0.0
210
0.0
220
0.0
230
-1.0
 40
0.640779
 41
-0.0000000000000338
 42
6.283185307179552
  0
LINE
  5
354A
100
AcDbEntity
  8
V0-OBRYS
  6
CONTINUOUS
 62
    90
100
AcDbLine
 10
-369.919607
 20
-152.982654
 30
0.0
 11
-406.069607
 21
-152.982654
 31
0.0
  0
LINE
  5
354B
100
AcDbEntity
  8
V0-OBRYS
  6
CONTINUOUS
 62
    90
100
AcDbLine
 10
-343.919607
 20
-126.442677
 30
0.0
 11
-369.919607
 21
-126.442677
 31
0.0
  0
LINE
  5
354C
100
AcDbEntity
  8
V0-VYPLNE
  6
DASHED
 62
    56
 48
2.0
100
AcDbLine
 10
-351.838567
 20
-151.591816
 30
0.0
 11
-356.201614
 21
-151.591816
 31
0.0
  0
LINE
  5
354D
100
AcDbEntity
  8
V0-VYPLNE
  6
DASHED
 62
    56
 48
2.0
100
AcDbLine
 10
-350.346345
 20
-153.835742
 30
0.0
 11
-345.028521
 21
-166.963593
 31
0.0
  0
LINE
  5
354E
100
AcDbEntity
  8
V0-OBRYS
  6
CONTINUOUS
 62
    90
100
AcDbLine
 10
-343.738238
 20
-170.148849
 30
0.0
 11
-335.135109
 21
-184.491183
 31
0.0
  0
ELLIPSE
  5
354F
100
AcDbEntity
  8
V0-VYPLNE
  6
DASHED
 62
    56
 48
2.0
100
AcDbEllipse
 10
-348.778374
 20
-158.113372
 30
0.0
 11
-0.0000000000001517
 21
2.011334161913197
 31
0.0
210
0.0
220
0.0
230
-1.0
 40
0.640779
 41
-0.0000000000000586
 42
6.283185307179527
  0
LINE
  5
3599
100
AcDbEntity
  8
V0-OBRYS
  6
CONTINUOUS
 62
    90
100
AcDbLine
 10
-784.27245
 20
-755.860654
 30
0.0
 11
-1013.690426
 21
-755.860654
 31
0.0
  0
LINE
  5
359A
100
AcDbEntity
  8
V0-OBRYS
  6
CONTINUOUS
 62
    90
100
AcDbLine
 10
-992.404222
 20
-795.264395
 30
0.0
 11
-784.27245
 21
-795.264395
 31
0.0
  0
LINE
  5
359B
100
AcDbEntity
  8
V0-OBRYS
  6
CONTINUOUS
 62
    90
100
AcDbLine
 10
-1013.690426
 20
-781.860654
 30
0.0
 11
-554.854473
 21
-781.860654
 31
0.0
  0
LINE
  5
359C
100
AcDbEntity
  8
V0-OBRYS
  6
CONTINUOUS
 62
    90
100
AcDbLine
 10
-987.15045
 20
-720.860654
 30
0.0
 11
-784.27245
 21
-720.860654
 31
0.0
  0
LINE
  5
359D
100
AcDbEntity
  8
V0-OBRYS
  6
CONTINUOUS
 62
    90
100
AcDbLine
 10
-1013.690426
 20
-781.860654
 30
0.0
 11
-1013.690426
 21
-755.860654
 31
0.0
  0
LINE
  5
359E
100
AcDbEntity
  8
V0-OBRYS
  6
CONTINUOUS
 62
    90
100
AcDbLine
 10
-992.404222
 20
-781.860654
 30
0.0
 11
-992.404222
 21
-795.264395
 31
0.0
  0
LINE
  5
359F
100
AcDbEntity
  8
V0-OBRYS
  6
CONTINUOUS
 62
    90
100
AcDbLine
 10
-987.15045
 20
-756.338863
 30
0.0
 11
-987.15045
 21
-720.860654
 31
0.0
  0
LINE
  5
35A0
100
AcDbEntity
  8
V0-OBRYS
  6
CONTINUOUS
 62
    90
100
AcDbLine
 10
-784.27245
 20
-755.860654
 30
0.0
 11
-554.854473
 21
-755.860654
 31
0.0
  0
LINE
  5
35A1
100
AcDbEntity
  8
V0-OBRYS
  6
CONTINUOUS
 62
    90
100
AcDbLine
 10
-576.140677
 20
-795.264395
 30
0.0
 11
-784.27245
 21
-795.264395
 31
0.0
  0
LINE
  5
35A2
100
AcDbEntity
  8
V0-OBRYS
  6
CONTINUOUS
 62
    90
100
AcDbLine
 10
-581.39445
 20
-720.860654
 30
0.0
 11
-784.27245
 21
-720.860654
 31
0.0
  0
POINT
  5
35A3
100
AcDbEntity
  8
V0-VYPLNE
  6
CONTINUOUS
 62
    52
100
AcDbPoint
 10
-784.27245
 20
-755.860654
 30
0.0
  0
LINE
  5
35A4
100
AcDbEntity
  8
V0-VYPLNE
  6
DASHDOT
 62
    63
 48
2.0
100
AcDbLine
 10
-784.27245
 20
-736.950242
 30
0.0
 11
-784.27245
 21
-800.972646
 31
0.0
  0
LINE
  5
35A9
100
AcDbEntity
  8
V0-OBRYS
  6
CONTINUOUS
 62
    90
100
AcDbLine
 10
-554.854473
 20
-781.860654
 30
0.0
 11
-554.854473
 21
-755.860654
 31
0.0
  0
LINE
  5
35AA
100
AcDbEntity
  8
V0-OBRYS
  6
CONTINUOUS
 62
    90
100
AcDbLine
 10
-576.140677
 20
-781.860654
 30
0.0
 11
-576.140677
 21
-795.264395
 31
0.0
  0
LINE
  5
35AB
100
AcDbEntity
  8
V0-OBRYS
  6
CONTINUOUS
 62
    90
100
AcDbLine
 10
-581.39445
 20
-756.338863
 30
0.0
 11
-581.39445
 21
-720.860654
 31
0.0
  0
TEXT
  5
36C3
100
AcDbEntity
  8
V0-ZBYTEK
  6
CONTINUOUS
 62
   130
100
AcDbText
 10
-504.107027
 20
-769.53356
 30
0.0
 40
18.0
  1
ZALUZIOVA KLAPKA
 72
     1
 11
-394.217027
 21
-769.53356
 31
0.0
100
AcDbText
  0
TEXT
  5
36C4
100
AcDbEntity
  8
V0-ZBYTEK
  6
CONTINUOUS
 62
    51
100
AcDbText
 10
-480.887109
 20
-805.229762
 30
0.0
 40
12.0
  1
ELEKTRICKY OVLADANA
 72
     1
 11
-395.027109
 21
-805.229762
 31
0.0
100
AcDbText
  0
TEXT
  5
36C5
100
AcDbEntity
  8
V0-NAZVY
  6
CONTINUOUS
 62
   210
100
AcDbText
 10
-472.217027
 20
-732.33356
 30
0.0
 40
24.0
  1
PAR-400W
 72
     1
 11
-394.217027
 21
-732.33356
 31
0.0
100
AcDbText
  0
LINE
  5
36DF
100
AcDbEntity
  8
V0-VYPLNE
  6
CONTINUOUS
 62
    52
100
AcDbLine
 10
-771.41574
 20
-772.943423
 30
0.0
 11
-795.41574
 21
-772.943423
 31
0.0
  0
LINE
  5
36E0
100
AcDbEntity
  8
V0-VYPLNE
  6
CONTINUOUS
 62
    52
100
AcDbLine
 10
-795.41574
 20
-772.943423
 30
0.0
 11
-783.41574
 21
-790.943423
 31
0.0
  0
LINE
  5
36E1
100
AcDbEntity
  8
V0-VYPLNE
  6
CONTINUOUS
 62
    52
100
AcDbLine
 10
-783.41574
 20
-790.943423
 30
0.0
 11
-771.41574
 21
-772.943423
 31
0.0
  0
LINE
  5
36E2
100
AcDbEntity
  8
V0-VYPLNE
  6
CONTINUOUS
 62
    52
100
AcDbLine
 10
-401.879255
 20
-343.768554
 30
0.0
 11
-401.879255
 21
-367.768554
 31
0.0
  0
LINE
  5
36E3
100
AcDbEntity
  8
V0-VYPLNE
  6
DASHDOT
 62
    63
 48
2.0
100
AcDbLine
 10
-401.879255
 20
-367.768554
 30
0.0
 11
-383.879255
 21
-355.768554
 31
0.0
  0
LINE
  5
36E4
100
AcDbEntity
  8
V0-VYPLNE
  6
CONTINUOUS
 62
    52
100
AcDbLine
 10
-383.879255
 20
-355.768554
 30
0.0
 11
-401.879255
 21
-343.768554
 31
0.0
  0
VIEWPORT
  5
22
100
AcDbEntity
 67
     1
  8
0
100
AcDbViewport
 10
261.517699
 20
165.390006
 30
0.0
 40
523.035398
 41
330.780011
 68
    -1
 69
     1
1001
ACAD
1000
MVIEW
1002
{
1070
    16
1010
0.0
1020
0.0
1030
0.0
1010
0.0
1020
0.0
1030
1.0
1040
0.0
1040
330.780011
1040
261.517699
1040
165.390006
1040
50.0
1040
0.0
1040
0.0
1070
     0
1070
   100
1070
     1
1070
     0
1070
     0
1070
     0
1070
     0
1070
     0
1040
0.0
1040
0.0
1040
0.0
1040
1.0
1040
1.0
1040
10.0
1040
10.0
1070
     0
1002
{
1002
}
1002
}
  0
ENDSEC
  0
SECTION
  2
OBJECTS
  0
DICTIONARY
  5
C
100
AcDbDictionary
  3
ACAD_GROUP
350
D
  3
ACAD_MLINESTYLE
350
E
  3
ACDBVARIABLEDICTIONARY
350
86C
  3
CONTENTDICTIONARY
350
905
  0
DICTIONARY
  5
D
102
{ACAD_REACTORS
330
C
102
}
100
AcDbDictionary
  0
DICTIONARY
  5
E
102
{ACAD_REACTORS
330
C
102
}
100
AcDbDictionary
  3
STANDARD
350
13
  0
DICTIONARY
  5
86C
102
{ACAD_REACTORS
330
C
102
}
100
AcDbDictionary
  3
SORTENTS
350
86D
  0
DICTIONARY
  5
905
102
{ACAD_REACTORS
330
C
102
}
100
AcDbDictionary
  0
MLINESTYLE
  5
13
102
{ACAD_REACTORS
330
E
102
}
100
AcDbMlineStyle
  2
STANDARD
 70
     0
  3

 62
     0
 51
90.0
 52
90.0
 71
     2
 49
0.5
 62
   256
  6
BYLAYER
 49
-0.5
 62
   256
  6
BYLAYER
  0
DICTIONARYVAR
  5
86D
102
{ACAD_REACTORS
330
86C
102
}
100
DictionaryVariables
280
     0
  1
96
  0
ENDSEC
  0
EOF
