  0
SECTION
  2
HEADER
  9
$ACADVER
  1
AC1014
  9
$ACADMAINTVER
 70
     9
  9
$DWGCODEPAGE
  3
ANSI_1250
  9
$INSBASE
 10
0.0
 20
0.0
 30
0.0
  9
$EXTMIN
 10
-274.4847183846169
 20
-826.40469
 30
0.0
  9
$EXTMAX
 10
638.3782422417582
 20
172.565846
 30
0.0
  9
$LIMMIN
 10
0.0
 20
0.0
  9
$LIMMAX
 10
0.0
 20
0.0
  9
$ORTHOMODE
 70
     1
  9
$REGENMODE
 70
     1
  9
$FILLMODE
 70
     1
  9
$QTEXTMODE
 70
     0
  9
$MIRRTEXT
 70
     1
  9
$DRAGMODE
 70
     2
  9
$LTSCALE
 40
1.0
  9
$OSMODE
 70
    37
  9
$ATTMODE
 70
     1
  9
$TEXTSIZE
 40
0.2
  9
$TRACEWID
 40
0.05
  9
$TEXTSTYLE
  7
ED40
  9
$CLAYER
  8
V0-VYPLNE
  9
$CELTYPE
  6
CONTINUOUS
  9
$CECOLOR
 62
    41
  9
$CELTSCALE
 40
1.0
  9
$DELOBJ
 70
     1
  9
$DISPSILH
 70
     0
  9
$DIMSCALE
 40
1.0
  9
$DIMASZ
 40
20.0
  9
$DIMEXO
 40
1.0
  9
$DIMDLI
 40
0.38
  9
$DIMRND
 40
0.0
  9
$DIMDLE
 40
0.0
  9
$DIMEXE
 40
1.25
  9
$DIMTP
 40
0.0
  9
$DIMTM
 40
0.0
  9
$DIMTXT
 40
20.0
  9
$DIMCEN
 40
0.09
  9
$DIMTSZ
 40
0.0
  9
$DIMTOL
 70
     0
  9
$DIMLIM
 70
     0
  9
$DIMTIH
 70
     0
  9
$DIMTOH
 70
     0
  9
$DIMSE1
 70
     0
  9
$DIMSE2
 70
     0
  9
$DIMTAD
 70
     1
  9
$DIMZIN
 70
     0
  9
$DIMBLK
  1
OPEN
  9
$DIMASO
 70
     1
  9
$DIMSHO
 70
     1
  9
$DIMPOST
  1

  9
$DIMAPOST
  1

  9
$DIMALT
 70
     0
  9
$DIMALTD
 70
     2
  9
$DIMALTF
 40
25.4
  9
$DIMLFAC
 40
1.0
  9
$DIMTOFL
 70
     1
  9
$DIMTVP
 40
0.0
  9
$DIMTIX
 70
     1
  9
$DIMSOXD
 70
     0
  9
$DIMSAH
 70
     0
  9
$DIMBLK1
  1

  9
$DIMBLK2
  1

  9
$DIMSTYLE
  2
ED20
  9
$DIMCLRD
 70
     0
  9
$DIMCLRE
 70
    41
  9
$DIMCLRT
 70
    41
  9
$DIMTFAC
 40
1.0
  9
$DIMGAP
 40
2.0
  9
$DIMJUST
 70
     0
  9
$DIMSD1
 70
     0
  9
$DIMSD2
 70
     0
  9
$DIMTOLJ
 70
     1
  9
$DIMTZIN
 70
     0
  9
$DIMALTZ
 70
     0
  9
$DIMALTTZ
 70
     0
  9
$DIMFIT
 70
     3
  9
$DIMUPT
 70
     1
  9
$DIMUNIT
 70
     2
  9
$DIMDEC
 70
     0
  9
$DIMTDEC
 70
     4
  9
$DIMALTU
 70
     2
  9
$DIMALTTD
 70
     2
  9
$DIMTXSTY
  7
ED20
  9
$DIMAUNIT
 70
     0
  9
$LUNITS
 70
     2
  9
$LUPREC
 70
     4
  9
$SKETCHINC
 40
0.1
  9
$FILLETRAD
 40
0.5
  9
$AUNITS
 70
     0
  9
$AUPREC
 70
     0
  9
$MENU
  1
.
  9
$ELEVATION
 40
0.0
  9
$PELEVATION
 40
0.0
  9
$THICKNESS
 40
0.0
  9
$LIMCHECK
 70
     0
  9
$BLIPMODE
 70
     0
  9
$CHAMFERA
 40
0.5
  9
$CHAMFERB
 40
0.5
  9
$CHAMFERC
 40
1.0
  9
$CHAMFERD
 40
0.0
  9
$SKPOLY
 70
     0
  9
$TDCREATE
 40
2455551.667246273
  9
$TDUPDATE
 40
2455551.667246285
  9
$TDINDWG
 40
0.0000000116
  9
$TDUSRTIMER
 40
0.0000000116
  9
$USRTIMER
 70
     1
  9
$ANGBASE
 50
0.0
  9
$ANGDIR
 70
     0
  9
$PDMODE
 70
    35
  9
$PDSIZE
 40
20.0
  9
$PLINEWID
 40
0.0
  9
$COORDS
 70
     1
  9
$SPLFRAME
 70
     0
  9
$SPLINETYPE
 70
     6
  9
$SPLINESEGS
 70
     8
  9
$ATTDIA
 70
     0
  9
$ATTREQ
 70
     1
  9
$HANDLING
 70
     1
  9
$HANDSEED
  5
3439
  9
$SURFTAB1
 70
     6
  9
$SURFTAB2
 70
     6
  9
$SURFTYPE
 70
     6
  9
$SURFU
 70
     6
  9
$SURFV
 70
     6
  9
$UCSNAME
  2

  9
$UCSORG
 10
0.0
 20
0.0
 30
0.0
  9
$UCSXDIR
 10
1.0
 20
0.0
 30
0.0
  9
$UCSYDIR
 10
0.0
 20
1.0
 30
0.0
  9
$PUCSNAME
  2

  9
$PUCSORG
 10
0.0
 20
0.0
 30
0.0
  9
$PUCSXDIR
 10
1.0
 20
0.0
 30
0.0
  9
$PUCSYDIR
 10
0.0
 20
1.0
 30
0.0
  9
$USERI1
 70
     0
  9
$USERI2
 70
     0
  9
$USERI3
 70
     0
  9
$USERI4
 70
     0
  9
$USERI5
 70
     0
  9
$USERR1
 40
0.0
  9
$USERR2
 40
0.0
  9
$USERR3
 40
0.0
  9
$USERR4
 40
0.0
  9
$USERR5
 40
0.0
  9
$WORLDVIEW
 70
     1
  9
$SHADEDGE
 70
     3
  9
$SHADEDIF
 70
    70
  9
$TILEMODE
 70
     1
  9
$MAXACTVP
 70
    64
  9
$PINSBASE
 10
0.0
 20
0.0
 30
0.0
  9
$PLIMCHECK
 70
     0
  9
$PEXTMIN
 10
1.000000000000000E+20
 20
1.000000000000000E+20
 30
1.000000000000000E+20
  9
$PEXTMAX
 10
-1.000000000000000E+20
 20
-1.000000000000000E+20
 30
-1.000000000000000E+20
  9
$PLIMMIN
 10
0.0
 20
0.0
  9
$PLIMMAX
 10
0.0
 20
0.0
  9
$UNITMODE
 70
     0
  9
$VISRETAIN
 70
     1
  9
$PLINEGEN
 70
     0
  9
$PSLTSCALE
 70
     1
  9
$TREEDEPTH
 70
  3020
  9
$PICKSTYLE
 70
     1
  9
$CMLSTYLE
  2
STANDARD
  9
$CMLJUST
 70
     0
  9
$CMLSCALE
 40
1.0
  9
$PROXYGRAPHICS
 70
     1
  9
$MEASUREMENT
 70
     0
  0
ENDSEC
  0
SECTION
  2
CLASSES
  0
CLASS
  1
ACDBDICTIONARYWDFLT
  2
AcDbDictionaryWithDefault
  3
ObjectDBX Classes
 90
        0
280
     0
281
     0
  0
CLASS
  1
XRECORD
  2
AcDbXrecord
  3
AutoCAD 2000
 90
        0
280
     0
281
     0
  0
CLASS
  1
LWPOLYLINE
  2
AcDbPolyline
  3
AutoCAD 2000
 90
        0
280
     0
281
     1
  0
CLASS
  1
HATCH
  2
AcDbHatch
  3
AutoCAD 2000
 90
        0
280
     0
281
     1
  0
CLASS
  1
ACDBPLACEHOLDER
  2
AcDbPlaceHolder
  3
ObjectDBX Classes
 90
        0
280
     0
281
     0
  0
CLASS
  1
LAYOUT
  2
AcDbLayout
  3
ObjectDBX Classes
 90
        0
280
     0
281
     0
  0
ENDSEC
  0
SECTION
  2
TABLES
  0
TABLE
  2
VPORT
  5
3390
330
0
100
AcDbSymbolTable
 70
     2
  0
VPORT
  5
33B1
102
{ACAD_XDICTIONARY
360
3437
102
}
330
3390
100
AcDbSymbolTableRecord
100
AcDbViewportTableRecord
  2
*ACTIVE
 70
     0
 10
0.0
 20
0.0
 11
1.0
 21
1.0
 12
175.52855
 22
-269.174526
 13
0.0
 23
0.0
 14
10.0
 24
10.0
 15
10.0
 25
10.0
 16
0.0
 26
0.0
 36
1.0
 17
0.0
 27
0.0
 37
0.0
 40
1136.6173
 41
0.0156224586372678
 42
50.0
 43
0.0
 44
0.0
 50
0.0
 51
0.0000000000007958
 71
     0
 72
   100
 73
     1
 74
     3
 75
     0
 76
     0
 77
     0
 78
     0
  0
ENDTAB
  0
TABLE
  2
LTYPE
  5
338D
330
0
100
AcDbSymbolTable
 70
    25
  0
LTYPE
  5
339C
330
338D
100
AcDbSymbolTableRecord
100
AcDbLinetypeTableRecord
  2
BYBLOCK
 70
     0
  3

 72
    65
 73
     0
 40
0.0
  0
LTYPE
  5
339D
330
338D
100
AcDbSymbolTableRecord
100
AcDbLinetypeTableRecord
  2
BYLAYER
 70
     0
  3

 72
    65
 73
     0
 40
0.0
  0
LTYPE
  5
339E
330
338D
100
AcDbSymbolTableRecord
100
AcDbLinetypeTableRecord
  2
CONTINUOUS
 70
     0
  3
Solid line
 72
    65
 73
     0
 40
0.0
  0
LTYPE
  5
33B9
330
338D
100
AcDbSymbolTableRecord
100
AcDbLinetypeTableRecord
  2
CENTER
 70
     0
  3
Center ____ _ ____ _ ____ _ ____ _ ____ _ ____
 72
    65
 73
     4
 40
2.0
 49
1.25
 74
     0
 49
-0.25
 74
     0
 49
0.25
 74
     0
 49
-0.25
 74
     0
  0
LTYPE
  5
33BA
330
338D
100
AcDbSymbolTableRecord
100
AcDbLinetypeTableRecord
  2
DASHDOT
 70
     0
  3
Dashdot __ . __ . __ . __ . __ . __ . __ . __
 72
    65
 73
     4
 40
1.0
 49
0.5
 74
     0
 49
-0.25
 74
     0
 49
0.0
 74
     0
 49
-0.25
 74
     0
  0
LTYPE
  5
33BB
330
338D
100
AcDbSymbolTableRecord
100
AcDbLinetypeTableRecord
  2
DASHED
 70
     0
  3
Dashed __ __ __ __ __ __ __ __ __ __ __ __ __ _
 72
    65
 73
     2
 40
0.75
 49
0.5
 74
     0
 49
-0.25
 74
     0
  0
LTYPE
  5
33BC
330
338D
100
AcDbSymbolTableRecord
100
AcDbLinetypeTableRecord
  2
HIDDEN
 70
     0
  3
Hidden __ __ __ __ __ __ __ __ __ __ __ __ __ __
 72
    65
 73
     2
 40
0.375
 49
0.25
 74
     0
 49
-0.125
 74
     0
  0
LTYPE
  5
33BD
330
338D
100
AcDbSymbolTableRecord
100
AcDbLinetypeTableRecord
  2
HIDDEN2
 70
     0
  3
Hidden2 _ _ _ _ _ _ _ _ _ _ _ _ _ _ _ _ _ 
 72
    65
 73
     2
 40
0.1875
 49
0.125
 74
     0
 49
-0.0625
 74
     0
  0
LTYPE
  5
33BE
330
338D
100
AcDbSymbolTableRecord
100
AcDbLinetypeTableRecord
  2
BORDER
 70
     0
  3
Border __ __ . __ __ . __ __ . __ __ . __ __ .
 72
    65
 73
     6
 40
1.75
 49
0.5
 74
     0
 49
-0.25
 74
     0
 49
0.5
 74
     0
 49
-0.25
 74
     0
 49
0.0
 74
     0
 49
-0.25
 74
     0
  0
LTYPE
  5
33BF
330
338D
100
AcDbSymbolTableRecord
100
AcDbLinetypeTableRecord
  2
BORDER2
 70
     0
  3
Border2 __.__.__.__.__.__.__.__.__.__.__.
 72
    65
 73
     6
 40
0.875
 49
0.25
 74
     0
 49
-0.125
 74
     0
 49
0.25
 74
     0
 49
-0.125
 74
     0
 49
0.0
 74
     0
 49
-0.125
 74
     0
  0
LTYPE
  5
33C0
330
338D
100
AcDbSymbolTableRecord
100
AcDbLinetypeTableRecord
  2
BORDERX2
 70
     0
  3
Borderx2  ____  ____  .  ____  ____  .  ___
 72
    65
 73
     6
 40
3.5
 49
1.0
 74
     0
 49
-0.5
 74
     0
 49
1.0
 74
     0
 49
-0.5
 74
     0
 49
0.0
 74
     0
 49
-0.5
 74
     0
  0
LTYPE
  5
33C1
330
338D
100
AcDbSymbolTableRecord
100
AcDbLinetypeTableRecord
  2
CENTER2
 70
     0
  3
Center2  ___ _ ___ _ ___ _ ___ _ ___ _ ___
 72
    65
 73
     4
 40
1.125
 49
0.75
 74
     0
 49
-0.125
 74
     0
 49
0.125
 74
     0
 49
-0.125
 74
     0
  0
LTYPE
  5
33C2
330
338D
100
AcDbSymbolTableRecord
100
AcDbLinetypeTableRecord
  2
CENTERX2
 70
     0
  3
Centerx2  ________  __  ________  __  _____
 72
    65
 73
     4
 40
4.0
 49
2.5
 74
     0
 49
-0.5
 74
     0
 49
0.5
 74
     0
 49
-0.5
 74
     0
  0
LTYPE
  5
33C3
330
338D
100
AcDbSymbolTableRecord
100
AcDbLinetypeTableRecord
  2
DASHDOT2
 70
     0
  3
Dashdot2  _._._._._._._._._._._._._._._.
 72
    65
 73
     4
 40
0.5
 49
0.25
 74
     0
 49
-0.125
 74
     0
 49
0.0
 74
     0
 49
-0.125
 74
     0
  0
LTYPE
  5
33C4
330
338D
100
AcDbSymbolTableRecord
100
AcDbLinetypeTableRecord
  2
DASHDOTX2
 70
     0
  3
Dashdotx2 ____  .  ____  .  ____  .  ___
 72
    65
 73
     4
 40
2.0
 49
1.0
 74
     0
 49
-0.5
 74
     0
 49
0.0
 74
     0
 49
-0.5
 74
     0
  0
LTYPE
  5
33C5
330
338D
100
AcDbSymbolTableRecord
100
AcDbLinetypeTableRecord
  2
DASHED2
 70
     0
  3
Dashed2 _ _ _ _ _ _ _ _ _ _ _ _ _ _ _ _ _ 
 72
    65
 73
     2
 40
0.375
 49
0.25
 74
     0
 49
-0.125
 74
     0
  0
LTYPE
  5
33C6
330
338D
100
AcDbSymbolTableRecord
100
AcDbLinetypeTableRecord
  2
DASHEDX2
 70
     0
  3
Dashedx2 ____  ____  ____  ____  ____  ___
 72
    65
 73
     2
 40
1.5
 49
1.0
 74
     0
 49
-0.5
 74
     0
  0
LTYPE
  5
33C7
330
338D
100
AcDbSymbolTableRecord
100
AcDbLinetypeTableRecord
  2
DIVIDE
 70
     0
  3
Divide ____ . . ____ . . ____ . . ____ . . ____
 72
    65
 73
     6
 40
1.25
 49
0.5
 74
     0
 49
-0.25
 74
     0
 49
0.0
 74
     0
 49
-0.25
 74
     0
 49
0.0
 74
     0
 49
-0.25
 74
     0
  0
LTYPE
  5
33C8
330
338D
100
AcDbSymbolTableRecord
100
AcDbLinetypeTableRecord
  2
DIVIDE2
 70
     0
  3
Divide2 __..__..__..__..__..__..__..__.._
 72
    65
 73
     6
 40
0.625
 49
0.25
 74
     0
 49
-0.125
 74
     0
 49
0.0
 74
     0
 49
-0.125
 74
     0
 49
0.0
 74
     0
 49
-0.125
 74
     0
  0
LTYPE
  5
33C9
330
338D
100
AcDbSymbolTableRecord
100
AcDbLinetypeTableRecord
  2
DIVIDEX2
 70
     0
  3
Dividex2 ________  .  .  ________  .  .  _
 72
    65
 73
     6
 40
2.5
 49
1.0
 74
     0
 49
-0.5
 74
     0
 49
0.0
 74
     0
 49
-0.5
 74
     0
 49
0.0
 74
     0
 49
-0.5
 74
     0
  0
LTYPE
  5
33CA
330
338D
100
AcDbSymbolTableRecord
100
AcDbLinetypeTableRecord
  2
DOT
 70
     0
  3
Dot . . . . . . . . . . . . . . . . . . . . . . . .
 72
    65
 73
     2
 40
0.25
 49
0.0
 74
     0
 49
-0.25
 74
     0
  0
LTYPE
  5
33CB
330
338D
100
AcDbSymbolTableRecord
100
AcDbLinetypeTableRecord
  2
DOT2
 70
     0
  3
Dot2 ........................................
 72
    65
 73
     2
 40
0.125
 49
0.0
 74
     0
 49
-0.125
 74
     0
  0
LTYPE
  5
33CC
330
338D
100
AcDbSymbolTableRecord
100
AcDbLinetypeTableRecord
  2
DOTX2
 70
     0
  3
Dotx2 .  .  .  .  .  .  .  .  .  .  .  .  .  .
 72
    65
 73
     2
 40
0.5
 49
0.0
 74
     0
 49
-0.5
 74
     0
  0
LTYPE
  5
33CD
330
338D
100
AcDbSymbolTableRecord
100
AcDbLinetypeTableRecord
  2
HIDDENX2
 70
     0
  3
Hiddenx2 ____ ____ ____ ____ ____ ____ ____ 
 72
    65
 73
     2
 40
0.75
 49
0.5
 74
     0
 49
-0.25
 74
     0
  0
LTYPE
  5
33CE
330
338D
100
AcDbSymbolTableRecord
100
AcDbLinetypeTableRecord
  2
PHANTOM
 70
     0
  3
Phantom ______  __  __  ______  __  __  ______ 
 72
    65
 73
     6
 40
2.5
 49
1.25
 74
     0
 49
-0.25
 74
     0
 49
0.25
 74
     0
 49
-0.25
 74
     0
 49
0.25
 74
     0
 49
-0.25
 74
     0
  0
LTYPE
  5
33CF
330
338D
100
AcDbSymbolTableRecord
100
AcDbLinetypeTableRecord
  2
PHANTOM2
 70
     0
  3
Phantom2 ___ _ _ ___ _ _ ___ _ _ ___ _ _
 72
    65
 73
     6
 40
1.25
 49
0.625
 74
     0
 49
-0.125
 74
     0
 49
0.125
 74
     0
 49
-0.125
 74
     0
 49
0.125
 74
     0
 49
-0.125
 74
     0
  0
LTYPE
  5
33D0
330
338D
100
AcDbSymbolTableRecord
100
AcDbLinetypeTableRecord
  2
PHANTOMX2
 70
     0
  3
Phantomx2 ____________    ____    ____   _
 72
    65
 73
     6
 40
5.0
 49
2.5
 74
     0
 49
-0.5
 74
     0
 49
0.5
 74
     0
 49
-0.5
 74
     0
 49
0.5
 74
     0
 49
-0.5
 74
     0
  0
ENDTAB
  0
TABLE
  2
LAYER
  5
338A
330
0
100
AcDbSymbolTable
 70
     5
  0
LAYER
  5
3398
330
338A
100
AcDbSymbolTableRecord
100
AcDbLayerTableRecord
  2
0
 70
     0
 62
     7
  6
CONTINUOUS
  0
LAYER
  5
9E
330
338A
100
AcDbSymbolTableRecord
100
AcDbLayerTableRecord
  2
DEFPOINTS
 70
     0
 62
     7
  6
CONTINUOUS
  0
LAYER
  5
377
330
338A
100
AcDbSymbolTableRecord
100
AcDbLayerTableRecord
  2
V0-OBRYS
 70
     0
 62
    90
  6
CONTINUOUS
  0
LAYER
  5
378
330
338A
100
AcDbSymbolTableRecord
100
AcDbLayerTableRecord
  2
V0-VYPLNE
 70
     0
 62
    63
  6
DASHDOT
  0
LAYER
  5
1540
330
338A
100
AcDbSymbolTableRecord
100
AcDbLayerTableRecord
  2
VO-OBRYS
 70
     0
 62
    90
  6
CONTINUOUS
  0
ENDTAB
  0
TABLE
  2
STYLE
  5
338B
330
0
100
AcDbSymbolTable
 70
     6
  0
STYLE
  5
3399
330
338B
100
AcDbSymbolTableRecord
100
AcDbTextStyleTableRecord
  2
STANDARD
 70
     0
 40
0.0
 41
1.0
 50
0.0
 71
     0
 42
0.2
  3
ISOCP.shx
  4

1001
ACAD
1000
ISOCP.shx
1071
        0
  0
STYLE
  5
331
330
338B
100
AcDbSymbolTableRecord
100
AcDbTextStyleTableRecord
  2
ED20
 70
     0
 40
20.0
 41
1.0
 50
0.0
 71
     0
 42
0.2
  3
ISOCP.shx
  4

1001
ACAD
1000
ISOCP.shx
1071
        0
  0
STYLE
  5
648
330
338B
100
AcDbSymbolTableRecord
100
AcDbTextStyleTableRecord
  2
ED10
 70
     0
 40
10.0
 41
1.0
 50
0.0
 71
     0
 42
0.2
  3
ISOCP.shx
  4

1001
ACAD
1000
ISOCP.shx
1071
        0
  0
STYLE
  5
F38
330
338B
100
AcDbSymbolTableRecord
100
AcDbTextStyleTableRecord
  2
ED30
 70
     0
 40
30.0
 41
1.0
 50
0.0
 71
     0
 42
0.2
  3
ISOCP.shx
  4

1001
ACAD
1000
ISOCP.shx
1071
        0
  0
STYLE
  5
F39
330
338B
100
AcDbSymbolTableRecord
100
AcDbTextStyleTableRecord
  2
ED40
 70
     0
 40
40.0
 41
1.0
 50
0.0
 71
     0
 42
0.2
  3
ISOCP.shx
  4

1001
ACAD
1000
ISOCP.shx
1071
        0
  0
STYLE
  5
1B9D
330
338B
100
AcDbSymbolTableRecord
100
AcDbTextStyleTableRecord
  2
VD_RECOV_1_1B9D_
 70
     0
 40
0.0
 41
1.0
 50
0.0
 71
     0
 42
0.2
  3
ltypeshp.shx
  4

1001
ACAD
1000
ltypeshp.shx
1071
        0
  0
ENDTAB
  0
TABLE
  2
VIEW
  5
338E
330
0
100
AcDbSymbolTable
 70
     0
  0
ENDTAB
  0
TABLE
  2
UCS
  5
338F
330
0
100
AcDbSymbolTable
 70
     0
  0
ENDTAB
  0
TABLE
  2
APPID
  5
3391
330
0
100
AcDbSymbolTable
 70
     6
  0
APPID
  5
339A
330
3391
100
AcDbSymbolTableRecord
100
AcDbRegAppTableRecord
  2
ACAD
 70
     0
  0
APPID
  5
33B2
330
3391
100
AcDbSymbolTableRecord
100
AcDbRegAppTableRecord
  2
VD_INVISIBLE_NOT_FOR_READ
 70
     0
  0
APPID
  5
33B3
330
3391
100
AcDbSymbolTableRecord
100
AcDbRegAppTableRecord
  2
VD_TEMPHATCH
 70
     0
  0
APPID
  5
33B4
330
3391
100
AcDbSymbolTableRecord
100
AcDbRegAppTableRecord
  2
VDEXTRAPARAM
 70
     0
  0
APPID
  5
33B5
330
3391
100
AcDbSymbolTableRecord
100
AcDbRegAppTableRecord
  2
PE_URL
 70
     0
  0
APPID
  5
33B6
330
3391
100
AcDbSymbolTableRecord
100
AcDbRegAppTableRecord
  2
VD_UNKNOWN
 70
     0
  0
ENDTAB
  0
TABLE
  2
DIMSTYLE
  5
3392
330
0
100
AcDbSymbolTable
 70
     2
  0
DIMSTYLE
105
33AF
330
3392
100
AcDbSymbolTableRecord
100
AcDbDimStyleTableRecord
  2
STANDARD
 70
     0
  3

  4

  5
OPEN
  6

  7

 40
1.0
 41
15.0
 42
0.625
 43
0.38
 44
1.25
 45
0.0
 46
0.0
 47
0.0
 48
0.0
140
15.0
141
0.09
142
0.0
143
25.4
144
1.0
145
0.0
146
1.0
147
3.0
 71
     0
 72
     0
 73
     0
 74
     0
 75
     0
 76
     0
 77
     1
 78
     0
170
     0
171
     2
172
     1
173
     0
174
     1
175
     0
176
     0
177
     0
178
     0
270
     2
271
     0
272
     4
273
     2
274
     2
340
331
275
     0
280
     0
281
     0
282
     0
283
     1
284
     0
285
     0
286
     0
287
     3
288
     1
  0
DIMSTYLE
105
FE9
102
{ACAD_REACTORS
330
2ACF
330
2EF1
330
2F09
330
2F16
330
2FB2
102
}
330
3392
100
AcDbSymbolTableRecord
100
AcDbDimStyleTableRecord
  2
ED20
 70
     0
  3

  4

  5
OPEN
  6

  7

 40
1.0
 41
20.0
 42
1.0
 43
0.38
 44
1.25
 45
0.0
 46
0.0
 47
0.0
 48
0.0
140
20.0
141
0.09
142
0.0
143
25.4
144
1.0
145
0.0
146
1.0
147
2.0
 71
     0
 72
     0
 73
     0
 74
     0
 75
     0
 76
     0
 77
     1
 78
     0
170
     0
171
     2
172
     1
173
     0
174
     1
175
     0
176
     0
177
    41
178
    41
270
     2
271
     0
272
     4
273
     2
274
     2
340
331
275
     0
280
     0
281
     0
282
     0
283
     1
284
     0
285
     0
286
     0
287
     3
288
     1
  0
ENDTAB
  0
TABLE
  2
BLOCK_RECORD
  5
3389
330
0
100
AcDbSymbolTable
 70
     9
  0
BLOCK_RECORD
  5
33A7
330
3389
100
AcDbSymbolTableRecord
100
AcDbBlockTableRecord
  2
*MODEL_SPACE
  0
BLOCK_RECORD
  5
33A3
330
3389
100
AcDbSymbolTableRecord
100
AcDbBlockTableRecord
  2
*PAPER_SPACE
  0
BLOCK_RECORD
  5
90
330
3389
100
AcDbSymbolTableRecord
100
AcDbBlockTableRecord
  2
_OPEN
  0
BLOCK_RECORD
  5
3385
330
3389
100
AcDbSymbolTableRecord
100
AcDbBlockTableRecord
  2
VDDIM_DEFAULT
  0
BLOCK_RECORD
  5
3387
330
3389
100
AcDbSymbolTableRecord
100
AcDbBlockTableRecord
  2
VDDIM_NONE
  0
BLOCK_RECORD
  5
33D8
330
3389
100
AcDbSymbolTableRecord
100
AcDbBlockTableRecord
  2
*D4
  0
BLOCK_RECORD
  5
33E4
330
3389
100
AcDbSymbolTableRecord
100
AcDbBlockTableRecord
  2
*D5
  0
BLOCK_RECORD
  5
33F0
330
3389
100
AcDbSymbolTableRecord
100
AcDbBlockTableRecord
  2
*D6
  0
BLOCK_RECORD
  5
33FC
330
3389
100
AcDbSymbolTableRecord
100
AcDbBlockTableRecord
  2
*D7
  0
BLOCK_RECORD
  5
3408
330
3389
100
AcDbSymbolTableRecord
100
AcDbBlockTableRecord
  2
*D8
  0
ENDTAB
  0
ENDSEC
  0
SECTION
  2
BLOCKS
  0
BLOCK
  5
33A8
330
33A7
100
AcDbEntity
  8
0
100
AcDbBlockBegin
  2
*MODEL_SPACE
 70
     0
 71
     0
 10
0.0
 20
0.0
 30
0.0
  3
*MODEL_SPACE
  1

  0
ENDBLK
  5
33A9
330
33A7
100
AcDbEntity
  8
0
100
AcDbBlockEnd
  0
BLOCK
  5
33A4
330
33A3
100
AcDbEntity
 67
     1
  8
0
100
AcDbBlockBegin
  2
*PAPER_SPACE
 70
     0
 71
     0
 10
0.0
 20
0.0
 30
0.0
  3
*PAPER_SPACE
  1

  0
ENDBLK
  5
33A5
330
33A3
100
AcDbEntity
 67
     1
  8
0
100
AcDbBlockEnd
  0
BLOCK
  5
33D1
330
90
100
AcDbEntity
  8
0
100
AcDbBlockBegin
  2
_OPEN
 70
     0
 71
     0
 10
0.0
 20
0.0
 30
0.0
  3
_OPEN
  1

  0
LINE
  5
92
330
90
100
AcDbEntity
  8
0
  6
BYBLOCK
 62
     0
100
AcDbLine
 10
-1.0
 20
0.166667
 30
0.0
 11
0.0
 21
0.0
 31
0.0
  0
LINE
  5
93
330
90
100
AcDbEntity
  8
0
  6
BYBLOCK
 62
     0
100
AcDbLine
 10
0.0
 20
0.0
 30
0.0
 11
-1.0
 21
-0.166667
 31
0.0
  0
LINE
  5
94
330
90
100
AcDbEntity
  8
0
  6
BYBLOCK
 62
     0
100
AcDbLine
 10
0.0
 20
0.0
 30
0.0
 11
-1.0
 21
0.0
 31
0.0
  0
ENDBLK
  5
33D2
330
90
100
AcDbEntity
  8
0
100
AcDbBlockEnd
  0
BLOCK
  5
33D3
330
3385
100
AcDbEntity
  8
0
100
AcDbBlockBegin
  2
VDDIM_DEFAULT
 70
     0
 71
     0
 10
0.0
 20
0.0
 30
0.0
  3
VDDIM_DEFAULT
  1

  0
LWPOLYLINE
  5
3386
330
3385
100
AcDbEntity
  8
0
  6
CONTINUOUS
 62
     0
100
AcDbPolyline
 90
        4
 70
     0
 43
0.0
 10
0.0
 20
0.0
 10
-1.0
 20
-0.1665
 10
-1.0
 20
0.1665
 10
0.0
 20
0.0
1001
VDEXTRAPARAM
1071
        1
1071
        0
1071
        0
1040
1.0
1000

1000

1040
0.0
1040
0.0
  0
HATCH
  5
33D7
330
3385
100
AcDbEntity
  8
0
  6
CONTINUOUS
 62
     0
100
AcDbHatch
 10
0.0
 20
0.0
 30
0.0
210
0.0
220
0.0
230
1.0
  2
SOLID
 70
     1
 71
     0
 91
        1
 92
        2
 72
     0
 73
     1
 93
        3
 10
0.0
 20
0.0
 10
-1.0
 20
-0.1665
 10
-1.0
 20
0.1665
 97
        0
 75
     0
 76
     1
 98
        1
 10
0.0
 20
0.0
1001
VDEXTRAPARAM
1071
        1
1071
        0
1071
        0
1040
1.0
1000

1000

1040
0.0
1040
0.0
1001
VD_TEMPHATCH
1000
VD_TEMPHATCH
  0
ENDBLK
  5
33D4
330
3385
100
AcDbEntity
  8
0
100
AcDbBlockEnd
  0
BLOCK
  5
33D5
330
3387
100
AcDbEntity
  8
0
100
AcDbBlockBegin
  2
VDDIM_NONE
 70
     0
 71
     0
 10
0.0
 20
0.0
 30
0.0
  3
VDDIM_NONE
  1

  0
ENDBLK
  5
33D6
330
3387
100
AcDbEntity
  8
0
100
AcDbBlockEnd
  0
BLOCK
  5
33E2
330
33D8
100
AcDbEntity
  8
0
100
AcDbBlockBegin
  2
*D4
 70
     1
 71
     0
 10
0.0
 20
0.0
 30
0.0
  3
*D4
  1

  0
LINE
  5
33D9
330
33D8
100
AcDbEntity
  8
V0-VYPLNE
 62
    41
100
AcDbLine
 10
-175.235263
 20
132.680788
 30
0.0
 11
-247.5501030000014
 21
132.680788
 31
0.0
  0
LINE
  5
33DA
330
33D8
100
AcDbEntity
  8
V0-VYPLNE
 62
    41
100
AcDbLine
 10
-172.754953
 20
-182.318582
 30
0.0
 11
-247.5501030000014
 21
-182.318582
 31
0.0
  0
LINE
  5
33DB
330
33D8
100
AcDbEntity
  8
V0-VYPLNE
 62
     0
100
AcDbLine
 10
-246.3001030000014
 20
112.680788
 30
0.0
 11
-246.3001030000014
 21
-162.318582
 31
0.0
  0
INSERT
  5
33DC
330
33D8
100
AcDbEntity
  8
V0-VYPLNE
 62
     0
100
AcDbBlockReference
  2
_OPEN
 10
-246.3001030000014
 20
132.680788
 30
0.0
 41
20.0
 42
20.0
 43
20.0
 50
89.99999999999999
  0
INSERT
  5
33DD
330
33D8
100
AcDbEntity
  8
V0-VYPLNE
 62
     0
100
AcDbBlockReference
  2
_OPEN
 10
-246.3001030000014
 20
-182.318582
 30
0.0
 41
20.0
 42
20.0
 43
20.0
 50
270.0
  0
MTEXT
  5
33DE
330
33D8
100
AcDbEntity
  8
V0-VYPLNE
 62
    41
100
AcDbMText
 10
-258.3001030000014
 20
-24.81889699999999
 30
0.0
 40
20.0
 41
0.0
 71
     5
 72
     1
  1
%%c\A1;315
  7
ED20
 11
9.022782944106843E-17
 21
1.0
 31
0.0
  0
POINT
  5
33DF
330
33D8
100
AcDbEntity
  8
DEFPOINTS
 62
     0
100
AcDbPoint
 10
-174.235263
 20
132.680788
 30
0.0
  0
POINT
  5
33E0
330
33D8
100
AcDbEntity
  8
DEFPOINTS
 62
     0
100
AcDbPoint
 10
-171.754953
 20
-182.318582
 30
0.0
  0
POINT
  5
33E1
330
33D8
100
AcDbEntity
  8
DEFPOINTS
 62
     0
100
AcDbPoint
 10
-246.3001030000014
 20
-182.318582
 30
0.0
  0
ENDBLK
  5
33E3
330
33D8
100
AcDbEntity
  8
0
100
AcDbBlockEnd
  0
BLOCK
  5
33EE
330
33E4
100
AcDbEntity
  8
0
100
AcDbBlockBegin
  2
*D5
 70
     1
 71
     0
 10
0.0
 20
0.0
 30
0.0
  3
*D5
  1

  0
LINE
  5
33E5
330
33E4
100
AcDbEntity
  8
V0-VYPLNE
 62
    41
100
AcDbLine
 10
-174.235263
 20
-218.08424
 30
0.0
 11
-174.235263
 21
-260.7878529999999
 31
0.0
  0
LINE
  5
33E6
330
33E4
100
AcDbEntity
  8
V0-VYPLNE
 62
    41
100
AcDbLine
 10
-4.416663
 20
-218.08424
 30
0.0
 11
-4.416663
 21
-260.7878529999999
 31
0.0
  0
LINE
  5
33E7
330
33E4
100
AcDbEntity
  8
V0-VYPLNE
 62
     0
100
AcDbLine
 10
-154.235263
 20
-259.5378529999999
 30
0.0
 11
-24.416663
 21
-259.5378529999999
 31
0.0
  0
INSERT
  5
33E8
330
33E4
100
AcDbEntity
  8
V0-VYPLNE
 62
     0
100
AcDbBlockReference
  2
_OPEN
 10
-174.235263
 20
-259.5378529999999
 30
0.0
 41
20.0
 42
20.0
 43
20.0
 50
180.0
  0
INSERT
  5
33E9
330
33E4
100
AcDbEntity
  8
V0-VYPLNE
 62
     0
100
AcDbBlockReference
  2
_OPEN
 10
-4.416663
 20
-259.5378529999999
 30
0.0
 41
20.0
 42
20.0
 43
20.0
  0
MTEXT
  5
33EA
330
33E4
100
AcDbEntity
  8
V0-VYPLNE
 62
    41
100
AcDbMText
 10
-89.325963
 20
-247.5378529999999
 30
0.0
 40
20.0
 41
0.0
 71
     5
 72
     1
  1
\A1;170
  7
ED20
  0
POINT
  5
33EB
330
33E4
100
AcDbEntity
  8
DEFPOINTS
 62
     0
100
AcDbPoint
 10
-174.235263
 20
-217.08424
 30
0.0
  0
POINT
  5
33EC
330
33E4
100
AcDbEntity
  8
DEFPOINTS
 62
     0
100
AcDbPoint
 10
-4.416663
 20
-217.08424
 30
0.0
  0
POINT
  5
33ED
330
33E4
100
AcDbEntity
  8
DEFPOINTS
 62
     0
100
AcDbPoint
 10
-4.416663
 20
-259.5378529999999
 30
0.0
  0
ENDBLK
  5
33EF
330
33E4
100
AcDbEntity
  8
0
100
AcDbBlockEnd
  0
BLOCK
  5
33FA
330
33F0
100
AcDbEntity
  8
0
100
AcDbBlockBegin
  2
*D6
 70
     1
 71
     0
 10
0.0
 20
0.0
 30
0.0
  3
*D6
  1

  0
LINE
  5
33F1
330
33F0
100
AcDbEntity
  8
V0-VYPLNE
 62
    41
100
AcDbLine
 10
10.80869
 20
152.743733
 30
0.0
 11
58.16241199999969
 21
152.743733
 31
0.0
  0
LINE
  5
33F2
330
33F0
100
AcDbEntity
  8
V0-VYPLNE
 62
    41
100
AcDbLine
 10
10.80869
 20
-202.381527
 30
0.0
 11
58.16241199999967
 21
-202.381527
 31
0.0
  0
LINE
  5
33F3
330
33F0
100
AcDbEntity
  8
V0-VYPLNE
 62
     0
100
AcDbLine
 10
56.91241199999969
 20
132.743733
 30
0.0
 11
56.91241199999968
 21
-182.381527
 31
0.0
  0
INSERT
  5
33F4
330
33F0
100
AcDbEntity
  8
V0-VYPLNE
 62
     0
100
AcDbBlockReference
  2
_OPEN
 10
56.91241199999969
 20
152.743733
 30
0.0
 41
20.0
 42
20.0
 43
20.0
 50
90.0
  0
INSERT
  5
33F5
330
33F0
100
AcDbEntity
  8
V0-VYPLNE
 62
     0
100
AcDbBlockReference
  2
_OPEN
 10
56.91241199999968
 20
-202.381527
 30
0.0
 41
20.0
 42
20.0
 43
20.0
 50
270.0
  0
MTEXT
  5
33F6
330
33F0
100
AcDbEntity
  8
V0-VYPLNE
 62
    41
100
AcDbMText
 10
44.91241199999967
 20
-24.81889699999999
 30
0.0
 40
20.0
 41
0.0
 71
     5
 72
     1
  1
%%c\A1;355
  7
ED20
 11
6.002468557940093E-17
 21
1.0
 31
0.0
  0
POINT
  5
33F7
330
33F0
100
AcDbEntity
  8
DEFPOINTS
 62
     0
100
AcDbPoint
 10
9.80869
 20
152.743733
 30
0.0
  0
POINT
  5
33F8
330
33F0
100
AcDbEntity
  8
DEFPOINTS
 62
     0
100
AcDbPoint
 10
9.80869
 20
-202.381527
 30
0.0
  0
POINT
  5
33F9
330
33F0
100
AcDbEntity
  8
DEFPOINTS
 62
     0
100
AcDbPoint
 10
56.91241199999967
 20
-202.381527
 30
0.0
  0
ENDBLK
  5
33FB
330
33F0
100
AcDbEntity
  8
0
100
AcDbBlockEnd
  0
BLOCK
  5
3406
330
33FC
100
AcDbEntity
  8
0
100
AcDbBlockBegin
  2
*D7
 70
     1
 71
     0
 10
0.0
 20
0.0
 30
0.0
  3
*D7
  1

  0
LINE
  5
33FD
330
33FC
100
AcDbEntity
  8
V0-VYPLNE
 62
    41
100
AcDbLine
 10
-3.416663
 20
167.446445
 30
0.0
 11
97.36238600000073
 21
167.446445
 31
0.0
  0
LINE
  5
33FE
330
33FC
100
AcDbEntity
  8
V0-VYPLNE
 62
    41
100
AcDbLine
 10
-3.416663
 20
-218.08424
 30
0.0
 11
97.3623860000007
 21
-218.08424
 31
0.0
  0
LINE
  5
33FF
330
33FC
100
AcDbEntity
  8
V0-VYPLNE
 62
     0
100
AcDbLine
 10
96.11238600000073
 20
147.446445
 30
0.0
 11
96.1123860000007
 21
-198.08424
 31
0.0
  0
INSERT
  5
3400
330
33FC
100
AcDbEntity
  8
V0-VYPLNE
 62
     0
100
AcDbBlockReference
  2
_OPEN
 10
96.11238600000073
 20
167.446445
 30
0.0
 41
20.0
 42
20.0
 43
20.0
 50
90.0
  0
INSERT
  5
3401
330
33FC
100
AcDbEntity
  8
V0-VYPLNE
 62
     0
100
AcDbBlockReference
  2
_OPEN
 10
96.1123860000007
 20
-218.08424
 30
0.0
 41
20.0
 42
20.0
 43
20.0
 50
270.0
  0
MTEXT
  5
3402
330
33FC
100
AcDbEntity
  8
V0-VYPLNE
 62
    41
100
AcDbMText
 10
84.1123860000007
 20
-25.31889749999999
 30
0.0
 40
20.0
 41
0.0
 71
     5
 72
     1
  1
%%c\A1;386
  7
ED20
 11
7.372100467282912E-17
 21
1.0
 31
0.0
  0
POINT
  5
3403
330
33FC
100
AcDbEntity
  8
DEFPOINTS
 62
     0
100
AcDbPoint
 10
-4.416663
 20
167.446445
 30
0.0
  0
POINT
  5
3404
330
33FC
100
AcDbEntity
  8
DEFPOINTS
 62
     0
100
AcDbPoint
 10
-4.416663
 20
-218.08424
 30
0.0
  0
POINT
  5
3405
330
33FC
100
AcDbEntity
  8
DEFPOINTS
 62
     0
100
AcDbPoint
 10
96.1123860000007
 20
-218.08424
 30
0.0
  0
ENDBLK
  5
3407
330
33FC
100
AcDbEntity
  8
0
100
AcDbBlockEnd
  0
BLOCK
  5
3412
330
3408
100
AcDbEntity
  8
0
100
AcDbBlockBegin
  2
*D8
 70
     1
 71
     0
 10
0.0
 20
0.0
 30
0.0
  3
*D8
  1

  0
LINE
  5
3409
330
3408
100
AcDbEntity
  8
V0-VYPLNE
 62
    41
100
AcDbLine
 10
-154.045203
 20
32.168563
 30
0.0
 11
-209.7628110000005
 21
32.16856300000002
 31
0.0
  0
LINE
  5
340A
330
3408
100
AcDbEntity
  8
V0-VYPLNE
 62
    41
100
AcDbLine
 10
-154.045203
 20
-81.80635700000001
 30
0.0
 11
-209.7628110000005
 21
-81.80635700000001
 31
0.0
  0
LINE
  5
340B
330
3408
100
AcDbEntity
  8
V0-VYPLNE
 62
     0
100
AcDbLine
 10
-208.5128110000005
 20
12.16856300000003
 30
0.0
 11
-208.5128110000005
 21
-61.80635700000002
 31
0.0
  0
INSERT
  5
340C
330
3408
100
AcDbEntity
  8
V0-VYPLNE
 62
     0
100
AcDbBlockReference
  2
_OPEN
 10
-208.5128110000005
 20
32.16856300000003
 30
0.0
 41
20.0
 42
20.0
 43
20.0
 50
90.0
  0
INSERT
  5
340D
330
3408
100
AcDbEntity
  8
V0-VYPLNE
 62
     0
100
AcDbBlockReference
  2
_OPEN
 10
-208.5128110000005
 20
-81.80635700000002
 30
0.0
 41
20.0
 42
20.0
 43
20.0
 50
270.0
  0
MTEXT
  5
340E
330
3408
100
AcDbEntity
  8
V0-VYPLNE
 62
    41
100
AcDbMText
 10
-220.5128110000005
 20
-24.818897
 30
0.0
 40
20.0
 41
0.0
 71
     5
 72
     1
  1
%%c\A1;114
  7
ED20
 11
0.0
 21
1.0
 31
0.0
  0
POINT
  5
340F
330
3408
100
AcDbEntity
  8
DEFPOINTS
 62
     0
100
AcDbPoint
 10
-153.045203
 20
32.168563
 30
0.0
  0
POINT
  5
3410
330
3408
100
AcDbEntity
  8
DEFPOINTS
 62
     0
100
AcDbPoint
 10
-153.045203
 20
-81.80635700000001
 30
0.0
  0
POINT
  5
3411
330
3408
100
AcDbEntity
  8
DEFPOINTS
 62
     0
100
AcDbPoint
 10
-208.5128110000005
 20
-81.80635700000001
 30
0.0
  0
ENDBLK
  5
3413
330
3408
100
AcDbEntity
  8
0
100
AcDbBlockEnd
  0
ENDSEC
  0
SECTION
  2
ENTITIES
  0
TEXT
  5
1347
330
33A7
100
AcDbEntity
  8
V0-VYPLNE
 62
     6
100
AcDbText
 10
290.694023
 20
-545.57146
 30
0.0
 40
40.0
  1
TCB-315
  7
ED40
100
AcDbText
  0
TEXT
  5
1348
330
33A7
100
AcDbEntity
  8
V0-VYPLNE
  6
CONTINUOUS
 62
    51
100
AcDbText
 10
210.136484
 20
-601.237289
 30
0.0
 40
30.0
  1
AXIALNI VENTILATOR
  7
ED30
100
AcDbText
  0
TEXT
  5
2455
330
33A7
100
AcDbEntity
  8
V0-VYPLNE
  6
CONTINUOUS
 62
    51
100
AcDbText
 10
293.614331
 20
-650.519616
 30
0.0
 40
30.0
  1
DO POTRUBI
  7
ED30
100
AcDbText
  0
LINE
  5
2AC8
330
33A7
100
AcDbEntity
  8
V0-OBRYS
  6
CONTINUOUS
 62
    90
100
AcDbLine
 10
-6.896973
 20
-182.318582
 30
0.0
 11
-6.896973
 21
167.446445
 31
0.0
  0
LINE
  5
2AC9
330
33A7
100
AcDbEntity
  8
V0-OBRYS
  6
CONTINUOUS
 62
    90
100
AcDbLine
 10
-171.754953
 20
-182.318582
 30
0.0
 11
-171.754953
 21
167.446445
 31
0.0
  0
LINE
  5
2ACA
330
33A7
100
AcDbEntity
  8
V0-OBRYS
  6
CONTINUOUS
 62
    90
100
AcDbLine
 10
-174.235263
 20
-24.818897
 30
0.0
 11
-174.235263
 21
167.446445
 31
0.0
  0
LINE
  5
2ACB
330
33A7
100
AcDbEntity
  8
V0-OBRYS
  6
CONTINUOUS
 62
    90
100
AcDbLine
 10
-4.416663
 20
-24.818897
 30
0.0
 11
-4.416663
 21
167.446445
 31
0.0
  0
LINE
  5
2ACC
330
33A7
100
AcDbEntity
  8
V0-OBRYS
  6
CONTINUOUS
 62
    90
100
AcDbLine
 10
-6.896973
 20
132.680788
 30
0.0
 11
-171.754953
 21
132.680788
 31
0.0
  0
LINE
  5
2ACD
330
33A7
100
AcDbEntity
  8
V0-VYPLNE
100
AcDbLine
 10
26.573878
 20
-24.818897
 30
0.0
 11
-194.45598
 21
-24.818897
 31
0.0
  0
LINE
  5
2ACE
330
33A7
100
AcDbEntity
  8
V0-OBRYS
  6
CONTINUOUS
 62
    90
100
AcDbLine
 10
-6.896973
 20
-182.318582
 30
0.0
 11
-171.754953
 21
-182.318582
 31
0.0
  0
DIMENSION
  5
2ACF
330
33A7
100
AcDbEntity
  8
V0-VYPLNE
  6
CONTINUOUS
 62
    41
100
AcDbDimension
  2
*D4
 10
-246.3001030000014
 20
-182.318582
 30
0.0
 11
-258.3001030000014
 21
-24.81889699999999
 31
0.0
 70
    32
  1
%%c<>
  3
ED20
100
AcDbAlignedDimension
 13
-174.235263
 23
132.680788
 33
0.0
 14
-171.754953
 24
-182.318582
 34
0.0
 50
90.0
100
AcDbRotatedDimension
  0
LINE
  5
2AD0
330
33A7
100
AcDbEntity
  8
V0-OBRYS
  6
CONTINUOUS
 62
    90
100
AcDbLine
 10
-174.235263
 20
-24.818897
 30
0.0
 11
-174.235263
 21
-217.08424
 31
0.0
  0
LINE
  5
2AD1
330
33A7
100
AcDbEntity
  8
V0-OBRYS
  6
CONTINUOUS
 62
    90
100
AcDbLine
 10
-171.754953
 20
-182.318582
 30
0.0
 11
-171.754953
 21
-217.08424
 31
0.0
  0
LINE
  5
2AD2
330
33A7
100
AcDbEntity
  8
V0-VYPLNE
  6
DASHDOT
 62
    63
100
AcDbLine
 10
-186.636813
 20
-202.381527
 30
0.0
 11
-151.111586
 21
-202.381527
 31
0.0
  0
LINE
  5
2AD3
330
33A7
100
AcDbEntity
  8
V0-OBRYS
  6
CONTINUOUS
 62
    90
100
AcDbLine
 10
-4.416663
 20
-24.818897
 30
0.0
 11
-4.416663
 21
-217.08424
 31
0.0
  0
LINE
  5
2AD4
330
33A7
100
AcDbEntity
  8
V0-OBRYS
  6
CONTINUOUS
 62
    90
100
AcDbLine
 10
-6.896973
 20
-182.318582
 30
0.0
 11
-6.896973
 21
-217.08424
 31
0.0
  0
LINE
  5
2AD5
330
33A7
100
AcDbEntity
  8
V0-VYPLNE
  6
DASHDOT
 62
    63
100
AcDbLine
 10
-39.580934
 20
-202.381527
 30
0.0
 11
9.808689999999999
 21
-202.381527
 31
0.0
  0
LINE
  5
2AD6
330
33A7
100
AcDbEntity
  8
V0-VYPLNE
  6
DASHDOT
 62
    63
100
AcDbLine
 10
-186.636813
 20
152.743733
 30
0.0
 11
-151.111586
 21
152.743733
 31
0.0
  0
LINE
  5
2AD7
330
33A7
100
AcDbEntity
  8
V0-VYPLNE
  6
DASHDOT
 62
    63
100
AcDbLine
 10
-39.580934
 20
152.743733
 30
0.0
 11
9.808689999999999
 21
152.743733
 31
0.0
  0
LINE
  5
2B73
330
33A7
100
AcDbEntity
  8
V0-VYPLNE
  6
DASHED
 62
    52
100
AcDbLine
 10
-19.703137
 20
37.418287
 30
0.0
 11
-33.819806
 21
130.782368
 31
0.0
  0
LINE
  5
2B74
330
33A7
100
AcDbEntity
  8
V0-VYPLNE
  6
DASHED
 62
    52
100
AcDbLine
 10
-82.772023
 20
37.418287
 30
0.0
 11
-68.655194
 21
130.782368
 31
0.0
  0
LINE
  5
2B75
330
33A7
100
AcDbEntity
  8
V0-VYPLNE
  6
DASHED
 62
    52
100
AcDbLine
 10
-19.703137
 20
-87.056082
 30
0.0
 11
-33.819806
 21
-179.179641
 31
0.0
  0
LINE
  5
2B76
330
33A7
100
AcDbEntity
  8
V0-VYPLNE
  6
DASHED
 62
    52
100
AcDbLine
 10
-82.772023
 20
-87.056082
 30
0.0
 11
-68.655194
 21
-179.179641
 31
0.0
  0
LINE
  5
2B77
330
33A7
100
AcDbEntity
  8
V0-VYPLNE
  6
DASHED
 62
    52
100
AcDbLine
 10
-68.655194
 20
-179.179641
 30
0.0
 11
-33.819806
 21
-179.179641
 31
0.0
  0
LINE
  5
2B78
330
33A7
100
AcDbEntity
  8
V0-VYPLNE
  6
DASHED
 62
    52
100
AcDbLine
 10
-82.7375
 20
-24.198637
 30
0.0
 11
-82.73757999999999
 21
-81.275441
 31
0.0
  0
ELLIPSE
  5
2B79
330
33A7
100
AcDbEntity
  8
V0-VYPLNE
  6
DASHED
 62
    52
100
AcDbEllipse
 10
-948.764303
 20
6.540704
 30
0.0
 11
-932.6527664895701
 21
48.230408767287
 31
0.0
210
0.0
220
0.0
230
1.0
 40
0.704794
 41
3.088010247835249
 42
3.168179183175389
  0
LINE
  5
2B7A
330
33A7
100
AcDbEntity
  8
V0-VYPLNE
  6
DASHED
 62
    52
100
AcDbLine
 10
-51.23758
 20
-84.81889700000001
 30
0.0
 11
-51.2375
 21
-24.19863700000001
 31
0.0
  0
LINE
  5
2B7B
330
33A7
100
AcDbEntity
  8
V0-VYPLNE
  6
DASHED
 62
    52
100
AcDbLine
 10
-82.18170000000001
 20
-32.685652
 30
0.0
 11
-17.336463
 21
-15.42046
 31
0.0
  0
ELLIPSE
  5
2B7C
330
33A7
100
AcDbEntity
  8
V0-VYPLNE
  6
DASHED
 62
    52
100
AcDbEllipse
 10
-51.23758
 20
26.790506
 30
0.0
 11
-126.0106159212972
 21
1.278976924368180E-13
 31
0.0
210
0.0
220
0.0
230
1.0
 40
0.885714
 41
1.318137823878815
 42
1.782397559380189
  0
LINE
  5
2B7D
330
33A7
100
AcDbEntity
  8
V0-VYPLNE
  6
DASHED
 62
    52
100
AcDbLine
 10
-77.39421299999999
 20
-82.29727200000001
 30
0.0
 11
-82.772023
 21
-87.056082
 31
0.0
  0
ELLIPSE
  5
2B7E
330
33A7
100
AcDbEntity
  8
V0-VYPLNE
  6
DASHED
 62
    52
100
AcDbEllipse
 10
-26.242294
 20
-76.267832
 30
0.0
 11
7.0
 21
0.0
 31
0.0
210
0.0
220
0.0
230
1.0
 40
0.885714
 41
-1.359195094209624
 42
-0.0899663602223122
  0
LINE
  5
2B7F
330
33A7
100
AcDbEntity
  8
V0-VYPLNE
  6
DASHED
 62
    52
100
AcDbLine
 10
-25.080947
 20
-82.29727200000001
 30
0.0
 11
-19.703137
 21
-87.056082
 31
0.0
  0
ELLIPSE
  5
2B80
330
33A7
100
AcDbEntity
  8
V0-VYPLNE
  6
DASHED
 62
    52
100
AcDbEllipse
 10
-51.23758
 20
-76.42829999999999
 30
0.0
 11
-126.0106159212972
 21
1.847411112976261E-13
 31
0.0
210
0.0
220
0.0
230
1.0
 40
0.885714
 41
-1.782397559380188
 42
-1.318137823878815
  0
LINE
  5
2B81
330
33A7
100
AcDbEntity
  8
V0-VYPLNE
  6
DASHED
 62
    52
100
AcDbLine
 10
-51.23758
 20
35.181103
 30
0.0
 11
-51.2375
 21
-24.198637
 31
0.0
  0
LINE
  5
2B82
330
33A7
100
AcDbEntity
  8
V0-VYPLNE
  6
DASHED
 62
    52
100
AcDbLine
 10
-82.7375
 20
-24.198637
 30
0.0
 11
-82.73757999999999
 21
31.63764700000001
 31
0.0
  0
ELLIPSE
  5
2B83
330
33A7
100
AcDbEntity
  8
V0-VYPLNE
  6
DASHED
 62
    52
100
AcDbEllipse
 10
-51.2375
 20
-24.446688
 30
0.0
 11
-5.932655224560477
 21
6.394884621840902E-14
 31
0.0
210
0.0
220
0.0
230
1.0
 40
0.8857139999999998
 41
0.0
 42
6.283185307179586
  0
LINE
  5
2B84
330
33A7
100
AcDbEntity
  8
V0-VYPLNE
  6
DASHED
 62
    52
100
AcDbLine
 10
-77.39421299999999
 20
32.659477
 30
0.0
 11
-82.772023
 21
37.418287
 31
0.0
  0
ELLIPSE
  5
2B85
330
33A7
100
AcDbEntity
  8
V0-VYPLNE
  6
DASHED
 62
    52
100
AcDbEllipse
 10
-948.65047
 20
-57.355261
 30
0.0
 11
932.4977884562345
 21
51.00051710273722
 31
0.0
210
0.0
220
0.0
230
1.0
 40
0.688276
 41
-0.0277751172505501
 42
0.0523938180895613
  0
LINE
  5
2B86
330
33A7
100
AcDbEntity
  8
V0-VYPLNE
  6
DASHED
 62
    52
100
AcDbLine
 10
-25.080947
 20
32.659477
 30
0.0
 11
-19.703137
 21
37.418287
 31
0.0
  0
LINE
  5
2B87
330
33A7
100
AcDbEntity
  8
V0-VYPLNE
  6
DASHED
 62
    52
100
AcDbLine
 10
-68.655194
 20
130.782368
 30
0.0
 11
-33.819806
 21
130.782368
 31
0.0
  0
LINE
  5
2BE0
330
33A7
100
AcDbEntity
  8
V0-VYPLNE
  6
DASHED
 62
    52
100
AcDbLine
 10
-144.20694
 20
28.67592
 30
0.0
 11
-162.929122
 21
14.767138
 31
0.0
  0
LINE
  5
2BE1
330
33A7
100
AcDbEntity
  8
V0-VYPLNE
  6
DASHED
 62
    52
100
AcDbLine
 10
-144.686998
 20
18.604042
 30
0.0
 11
-162.449068
 21
9.011779000000001
 31
0.0
  0
LINE
  5
2BE2
330
33A7
100
AcDbEntity
  8
V0-VYPLNE
  6
DASHED
 62
    52
100
AcDbLine
 10
-144.686998
 20
-4.897003
 30
0.0
 11
-162.929122
 21
-6.815457
 31
0.0
  0
LINE
  5
2BE3
330
33A7
100
AcDbEntity
  8
V0-VYPLNE
  6
DASHED
 62
    52
100
AcDbLine
 10
-144.686998
 20
-16.40772
 30
0.0
 11
-162.929122
 21
-16.887333
 31
0.0
  0
LINE
  5
2BE4
330
33A7
100
AcDbEntity
  8
V0-VYPLNE
  6
DASHED
 62
    52
100
AcDbLine
 10
-144.20694
 20
6.613712
 30
0.0
 11
-163.40918
 21
2.297193
 31
0.0
  0
LINE
  5
2BE5
330
33A7
100
AcDbEntity
  8
V0-VYPLNE
  6
DASHED
 62
    52
100
AcDbLine
 10
-153.045203
 20
32.168563
 30
0.0
 11
-100.808913
 21
32.168563
 31
0.0
  0
LINE
  5
2BE6
330
33A7
100
AcDbEntity
  8
V0-VYPLNE
  6
DASHED
 62
    52
100
AcDbLine
 10
-144.20694
 20
-56.251506
 30
0.0
 11
-163.40918
 21
-51.934987
 31
0.0
  0
LINE
  5
2BE7
330
33A7
100
AcDbEntity
  8
V0-VYPLNE
  6
DASHED
 62
    52
100
AcDbLine
 10
-144.686998
 20
-33.230074
 30
0.0
 11
-162.929122
 21
-32.750461
 31
0.0
  0
LINE
  5
2BE8
330
33A7
100
AcDbEntity
  8
V0-VYPLNE
  6
DASHED
 62
    52
100
AcDbLine
 10
-144.686998
 20
-44.740791
 30
0.0
 11
-162.929122
 21
-42.822337
 31
0.0
  0
LINE
  5
2BE9
330
33A7
100
AcDbEntity
  8
V0-VYPLNE
  6
DASHED
 62
    52
100
AcDbLine
 10
-144.686998
 20
-68.24183600000001
 30
0.0
 11
-162.449068
 21
-58.649573
 31
0.0
  0
LINE
  5
2BEA
330
33A7
100
AcDbEntity
  8
V0-VYPLNE
  6
DASHED
 62
    52
100
AcDbLine
 10
-144.20694
 20
-78.313714
 30
0.0
 11
-162.929122
 21
-64.404932
 31
0.0
  0
LINE
  5
2BEB
330
33A7
100
AcDbEntity
  8
V0-VYPLNE
  6
DASHED
 62
    52
100
AcDbLine
 10
-153.045203
 20
-81.80635700000001
 30
0.0
 11
-100.808913
 21
-81.80635700000001
 31
0.0
  0
LINE
  5
2BED
330
33A7
100
AcDbEntity
  8
V0-VYPLNE
  6
DASHED
 62
    52
100
AcDbLine
 10
-163.043003
 20
-24.818897
 30
0.0
 11
-163.043003
 21
-71.80855699999999
 31
0.0
  0
ARC
  5
2BEE
330
33A7
100
AcDbEntity
  8
V0-VYPLNE
  6
DASHED
 62
    52
100
AcDbCircle
 10
-153.045203
 20
-71.80855699999999
 30
0.0
 40
9.9978
100
AcDbArc
 50
180.0
 51
270.0
  0
LINE
  5
2BEF
330
33A7
100
AcDbEntity
  8
V0-VYPLNE
  6
DASHED
 62
    52
100
AcDbLine
 10
-163.043003
 20
-24.818897
 30
0.0
 11
-163.043003
 21
22.170763
 31
0.0
  0
ARC
  5
2BF0
330
33A7
100
AcDbEntity
  8
V0-VYPLNE
  6
DASHED
 62
    52
100
AcDbCircle
 10
-153.045203
 20
22.170763
 30
0.0
 40
9.9978
100
AcDbArc
 50
90.0
 51
180.0
  0
LINE
  5
2BF1
330
33A7
100
AcDbEntity
  8
V0-VYPLNE
  6
DASHED
 62
    52
100
AcDbLine
 10
-86.237531
 20
-76.807457
 30
0.0
 11
-86.237531
 21
-24.818897
 31
0.0
  0
LINE
  5
2BF2
330
33A7
100
AcDbEntity
  8
V0-VYPLNE
  6
DASHED
 62
    52
100
AcDbLine
 10
-144.047183
 20
-24.818897
 30
0.0
 11
-144.047183
 21
-81.80635700000001
 31
0.0
  0
LINE
  5
2BF3
330
33A7
100
AcDbEntity
  8
V0-VYPLNE
  6
DASHED
 62
    52
100
AcDbLine
 10
-100.808913
 20
-33.230074
 30
0.0
 11
-86.717585
 21
-33.230074
 31
0.0
  0
LINE
  5
2BF4
330
33A7
100
AcDbEntity
  8
V0-VYPLNE
  6
DASHED
 62
    52
100
AcDbLine
 10
-100.808913
 20
-44.740791
 30
0.0
 11
-86.237531
 21
-44.740791
 31
0.0
  0
LINE
  5
2BF5
330
33A7
100
AcDbEntity
  8
V0-VYPLNE
  6
DASHED
 62
    52
100
AcDbLine
 10
-100.808913
 20
-56.251506
 30
0.0
 11
-86.717585
 21
-56.251506
 31
0.0
  0
LINE
  5
2BF6
330
33A7
100
AcDbEntity
  8
V0-VYPLNE
  6
DASHED
 62
    52
100
AcDbLine
 10
-100.808913
 20
-68.24183600000001
 30
0.0
 11
-86.237531
 21
-68.24183600000001
 31
0.0
  0
LINE
  5
2BF7
330
33A7
100
AcDbEntity
  8
V0-VYPLNE
  6
DASHED
 62
    52
100
AcDbLine
 10
-100.808913
 20
-81.80635700000001
 30
0.0
 11
-91.236431
 21
-81.80635700000001
 31
0.0
  0
LINE
  5
2BF8
330
33A7
100
AcDbEntity
  8
V0-VYPLNE
  6
DASHED
 62
    52
100
AcDbLine
 10
-100.808913
 20
-78.313714
 30
0.0
 11
-86.237531
 21
-78.313714
 31
0.0
  0
LINE
  5
2BF9
330
33A7
100
AcDbEntity
  8
V0-VYPLNE
  6
DASHED
 62
    52
100
AcDbLine
 10
-144.686998
 20
-68.24183600000001
 30
0.0
 11
-100.808913
 21
-68.24183600000001
 31
0.0
  0
LINE
  5
2BFA
330
33A7
100
AcDbEntity
  8
V0-VYPLNE
  6
DASHED
 62
    52
100
AcDbLine
 10
-144.20694
 20
-78.313714
 30
0.0
 11
-100.808913
 21
-78.313714
 31
0.0
  0
LINE
  5
2BFB
330
33A7
100
AcDbEntity
  8
V0-VYPLNE
  6
DASHED
 62
    52
100
AcDbLine
 10
-141.806662
 20
-44.740791
 30
0.0
 11
-100.808913
 21
-44.740791
 31
0.0
  0
LINE
  5
2BFC
330
33A7
100
AcDbEntity
  8
V0-VYPLNE
  6
DASHED
 62
    52
100
AcDbLine
 10
-144.686998
 20
-33.230074
 30
0.0
 11
-100.808913
 21
-33.230074
 31
0.0
  0
LINE
  5
2BFD
330
33A7
100
AcDbEntity
  8
V0-VYPLNE
  6
DASHED
 62
    52
100
AcDbLine
 10
-144.20694
 20
-56.251506
 30
0.0
 11
-100.808913
 21
-56.251506
 31
0.0
  0
LINE
  5
2BFE
330
33A7
100
AcDbEntity
  8
V0-VYPLNE
  6
DASHED
 62
    52
100
AcDbLine
 10
-144.686998
 20
-44.740791
 30
0.0
 11
-141.806662
 21
-44.740791
 31
0.0
  0
ARC
  5
2BFF
330
33A7
100
AcDbEntity
  8
V0-VYPLNE
  6
DASHED
 62
    52
 48
0.3
100
AcDbCircle
 10
-91.236431
 20
-76.807457
 30
0.0
 40
4.9989
100
AcDbArc
 50
270.0
 51
0.0
  0
LINE
  5
2C00
330
33A7
100
AcDbEntity
  8
V0-VYPLNE
  6
DASHED
 62
    52
100
AcDbLine
 10
-100.808913
 20
28.67592
 30
0.0
 11
-86.237531
 21
28.67592
 31
0.0
  0
LINE
  5
2C01
330
33A7
100
AcDbEntity
  8
V0-VYPLNE
  6
DASHED
 62
    52
100
AcDbLine
 10
-100.808913
 20
32.168563
 30
0.0
 11
-91.236431
 21
32.168563
 31
0.0
  0
LINE
  5
2C02
330
33A7
100
AcDbEntity
  8
V0-VYPLNE
  6
DASHED
 62
    52
100
AcDbLine
 10
-100.808913
 20
18.604042
 30
0.0
 11
-86.237531
 21
18.604042
 31
0.0
  0
LINE
  5
2C03
330
33A7
100
AcDbEntity
  8
V0-VYPLNE
  6
DASHED
 62
    52
100
AcDbLine
 10
-100.808913
 20
6.613712
 30
0.0
 11
-86.717585
 21
6.613712
 31
0.0
  0
LINE
  5
2C04
330
33A7
100
AcDbEntity
  8
V0-VYPLNE
  6
DASHED
 62
    52
100
AcDbLine
 10
-100.808913
 20
-4.897003
 30
0.0
 11
-86.237531
 21
-4.897003
 31
0.0
  0
LINE
  5
2C05
330
33A7
100
AcDbEntity
  8
V0-VYPLNE
  6
DASHED
 62
    52
100
AcDbLine
 10
-100.808913
 20
-16.40772
 30
0.0
 11
-86.717585
 21
-16.40772
 31
0.0
  0
LINE
  5
2C06
330
33A7
100
AcDbEntity
  8
V0-VYPLNE
  6
DASHED
 62
    52
100
AcDbLine
 10
-144.047183
 20
-24.818897
 30
0.0
 11
-144.047183
 21
32.168563
 31
0.0
  0
LINE
  5
2C07
330
33A7
100
AcDbEntity
  8
V0-VYPLNE
  6
DASHED
 62
    52
100
AcDbLine
 10
-141.806662
 20
-4.897003
 30
0.0
 11
-100.808913
 21
-4.897003
 31
0.0
  0
LINE
  5
2C08
330
33A7
100
AcDbEntity
  8
V0-VYPLNE
  6
DASHED
 62
    52
100
AcDbLine
 10
-144.686998
 20
-16.40772
 30
0.0
 11
-100.808913
 21
-16.40772
 31
0.0
  0
LINE
  5
2C09
330
33A7
100
AcDbEntity
  8
V0-VYPLNE
  6
DASHED
 62
    52
100
AcDbLine
 10
-144.686998
 20
-4.897003
 30
0.0
 11
-141.806662
 21
-4.897003
 31
0.0
  0
LINE
  5
2C0A
330
33A7
100
AcDbEntity
  8
V0-VYPLNE
  6
DASHED
 62
    52
100
AcDbLine
 10
-144.20694
 20
28.67592
 30
0.0
 11
-100.808913
 21
28.67592
 31
0.0
  0
LINE
  5
2C0B
330
33A7
100
AcDbEntity
  8
V0-VYPLNE
  6
DASHED
 62
    52
100
AcDbLine
 10
-144.20694
 20
6.613712
 30
0.0
 11
-100.808913
 21
6.613712
 31
0.0
  0
LINE
  5
2C0C
330
33A7
100
AcDbEntity
  8
V0-VYPLNE
  6
DASHED
 62
    52
100
AcDbLine
 10
-144.686998
 20
18.604042
 30
0.0
 11
-100.808913
 21
18.604042
 31
0.0
  0
LINE
  5
2C0D
330
33A7
100
AcDbEntity
  8
V0-VYPLNE
  6
DASHED
 62
    52
100
AcDbLine
 10
-86.237531
 20
27.169663
 30
0.0
 11
-86.237531
 21
-24.818897
 31
0.0
  0
ARC
  5
2C0E
330
33A7
100
AcDbEntity
  8
V0-VYPLNE
  6
DASHED
 62
    52
 48
0.3
100
AcDbCircle
 10
-91.236431
 20
27.169663
 30
0.0
 40
4.9989
100
AcDbArc
 50
0.0
 51
90.0
  0
LINE
  5
2C0F
330
33A7
100
AcDbEntity
  8
V0-VYPLNE
  6
DASHDOT
 62
    63
 48
0.5
100
AcDbLine
 10
-194.842064
 20
-24.818897
 30
0.0
 11
-51.36972800000001
 21
-24.818897
 31
0.0
  0
LINE
  5
2CE3
330
33A7
100
AcDbEntity
  8
V0-VYPLNE
100
AcDbLine
 10
392.380296
 20
-24.818897
 30
0.0
 11
392.380296
 21
166.559285
 31
0.0
  0
CIRCLE
  5
2CE4
330
33A7
100
AcDbEntity
  8
V0-VYPLNE
  6
DASHDOT
 62
    63
100
AcDbCircle
 10
392.380296
 20
-24.818897
 30
0.0
 40
177.441377
  0
CIRCLE
  5
2CE5
330
33A7
100
AcDbEntity
  8
V0-OBRYS
  6
CONTINUOUS
 62
    90
100
AcDbCircle
 10
392.380296
 20
-24.818897
 30
0.0
 40
192.829841
  0
LINE
  5
2CE6
330
33A7
100
AcDbEntity
  8
V0-OBRYS
  6
CONTINUOUS
 62
    90
100
AcDbLine
 10
498.232302
 20
87.73887600000001
 30
0.0
 11
475.745358
 21
72.02455500000001
 31
0.0
  0
LINE
  5
2CE7
330
33A7
100
AcDbEntity
  8
V0-OBRYS
  6
CONTINUOUS
 62
    90
100
AcDbLine
 10
503.864676
 20
33.56319
 30
0.0
 11
487.897905
 21
19.087311
 31
0.0
  0
LINE
  5
2CE8
330
33A7
100
AcDbEntity
  8
V0-OBRYS
  6
CONTINUOUS
 62
    90
100
AcDbLine
 10
495.539908
 20
-22.356843
 30
0.0
 11
475.169858
 21
-16.329934
 31
0.0
  0
LINE
  5
2CE9
330
33A7
100
AcDbEntity
  8
V0-OBRYS
  6
CONTINUOUS
 62
    90
100
AcDbLine
 10
507.534624
 20
-75.58026
 30
0.0
 11
486.261807
 21
-72.12249799999999
 31
0.0
  0
LINE
  5
2CEA
330
33A7
100
AcDbEntity
  8
VO-OBRYS
  6
CONTINUOUS
100
AcDbLine
 10
442.367137
 20
-58.546729
 30
0.0
 11
511.581789
 21
-127.76138
 31
0.0
  0
LINE
  5
2CEB
330
33A7
100
AcDbEntity
  8
VO-OBRYS
  6
CONTINUOUS
100
AcDbLine
 10
442.204763
 20
-55.645726
 30
0.0
 11
512.842387
 21
-126.28335
 31
0.0
  0
LINE
  5
2CEC
330
33A7
100
AcDbEntity
  8
VO-OBRYS
  6
CONTINUOUS
100
AcDbLine
 10
426.108127
 20
-74.805739
 30
0.0
 11
495.322779
 21
-144.02039
 31
0.0
  0
LINE
  5
2CED
330
33A7
100
AcDbEntity
  8
V0-VYPLNE
100
AcDbLine
 10
392.380296
 20
-24.818897
 30
0.0
 11
513.1284940000001
 21
-145.567096
 31
0.0
  0
CIRCLE
  5
2CEE
330
33A7
100
AcDbEntity
  8
V0-OBRYS
  6
CONTINUOUS
 62
    90
100
AcDbCircle
 10
392.380296
 20
-24.818897
 30
0.0
 40
157.499685
  0
CIRCLE
  5
2CEF
330
33A7
100
AcDbEntity
  8
V0-OBRYS
  6
CONTINUOUS
 62
    90
100
AcDbCircle
 10
392.380296
 20
-24.818897
 30
0.0
 40
125.846078
  0
CIRCLE
  5
2CF0
330
33A7
100
AcDbEntity
  8
V0-OBRYS
  6
CONTINUOUS
 62
    90
100
AcDbCircle
 10
392.380296
 20
-24.818897
 30
0.0
 40
127.78258
  0
LINE
  5
2CF1
330
33A7
100
AcDbEntity
  8
VO-OBRYS
  6
CONTINUOUS
100
AcDbLine
 10
442.367137
 20
8.908934
 30
0.0
 11
511.581789
 21
78.123586
 31
0.0
  0
LINE
  5
2CF2
330
33A7
100
AcDbEntity
  8
VO-OBRYS
  6
CONTINUOUS
100
AcDbLine
 10
426.108127
 20
25.167944
 30
0.0
 11
495.322779
 21
94.38259600000001
 31
0.0
  0
LINE
  5
2CF3
330
33A7
100
AcDbEntity
  8
V0-VYPLNE
100
AcDbLine
 10
392.380296
 20
-24.818897
 30
0.0
 11
501.636645
 21
84.43745200000001
 31
0.0
  0
LINE
  5
2CF4
330
33A7
100
AcDbEntity
  8
VO-OBRYS
  6
CONTINUOUS
100
AcDbLine
 10
442.204763
 20
6.007932
 30
0.0
 11
512.842387
 21
76.645556
 31
0.0
  0
LINE
  5
2CF5
330
33A7
100
AcDbEntity
  8
V0-VYPLNE
100
AcDbLine
 10
580.152877
 20
-24.818897
 30
0.0
 11
183.060185
 21
-24.818897
 31
0.0
  0
LINE
  5
2CF7
330
33A7
100
AcDbEntity
  8
V0-OBRYS
  6
CONTINUOUS
 62
    90
100
AcDbLine
 10
449.84679
 20
-82.309771
 30
0.0
 11
443.445159
 21
-66.536137
 31
0.0
  0
LINE
  5
2CF8
330
33A7
100
AcDbEntity
  8
V0-OBRYS
  6
CONTINUOUS
 62
    90
100
AcDbLine
 10
386.791078
 20
-98.312051
 30
0.0
 11
388.591102
 21
-74.64336400000001
 31
0.0
  0
LINE
  5
2CF9
330
33A7
100
AcDbEntity
  8
V0-OBRYS
  6
CONTINUOUS
 62
    90
100
AcDbLine
 10
397.969513
 20
-98.312051
 30
0.0
 11
396.169489
 21
-74.64336400000001
 31
0.0
  0
LINE
  5
2CFA
330
33A7
100
AcDbEntity
  8
V0-OBRYS
  6
CONTINUOUS
 62
    90
100
AcDbLine
 10
404.017725
 20
-72.927572
 30
0.0
 11
409.830595
 21
-96.957748
 31
0.0
  0
LINE
  5
2CFB
330
33A7
100
AcDbEntity
  8
V0-OBRYS
  6
CONTINUOUS
 62
    90
100
AcDbLine
 10
420.336127
 20
-93.233417
 30
0.0
 11
411.102866
 21
-70.637449
 31
0.0
  0
LINE
  5
2CFC
330
33A7
100
AcDbEntity
  8
V0-OBRYS
  6
CONTINUOUS
 62
    90
100
AcDbLine
 10
417.773219
 20
-67.30505700000001
 30
0.0
 11
430.841658
 21
-89.17050999999999
 31
0.0
  0
LINE
  5
2CFD
330
33A7
100
AcDbEntity
  8
V0-OBRYS
  6
CONTINUOUS
 62
    90
100
AcDbLine
 10
334.913801
 20
-82.309771
 30
0.0
 11
341.315432
 21
-66.536137
 31
0.0
  0
LINE
  5
2CFE
330
33A7
100
AcDbEntity
  8
V0-OBRYS
  6
CONTINUOUS
 62
    90
100
AcDbLine
 10
345.53044
 20
-81.378342
 30
0.0
 11
360.717451
 21
-62.862801
 31
0.0
  0
LINE
  5
2CFF
330
33A7
100
AcDbEntity
  8
V0-OBRYS
  6
CONTINUOUS
 62
    90
100
AcDbLine
 10
366.987372
 20
-67.30505700000001
 30
0.0
 11
353.918933
 21
-89.17050999999999
 31
0.0
  0
LINE
  5
2D00
330
33A7
100
AcDbEntity
  8
V0-OBRYS
  6
CONTINUOUS
 62
    90
100
AcDbLine
 10
364.424465
 20
-93.233417
 30
0.0
 11
373.657725
 21
-70.637449
 31
0.0
  0
LINE
  5
2D01
330
33A7
100
AcDbEntity
  8
V0-OBRYS
  6
CONTINUOUS
 62
    90
100
AcDbLine
 10
380.742866
 20
-72.927572
 30
0.0
 11
374.929996
 21
-96.957748
 31
0.0
  0
LINE
  5
2D02
330
33A7
100
AcDbEntity
  8
V0-OBRYS
  6
CONTINUOUS
 62
    90
100
AcDbLine
 10
248.173945
 20
-80.302482
 30
0.0
 11
275.252171
 21
-75.901088
 31
0.0
  0
ARC
  5
2D03
330
33A7
100
AcDbEntity
  8
V0-OBRYS
  6
CONTINUOUS
 62
    90
100
AcDbCircle
 10
392.380296
 20
-24.818897
 30
0.0
 40
154.511811
100
AcDbArc
 50
184.66999
 51
201.044296
  0
LINE
  5
2D04
330
33A7
100
AcDbEntity
  8
VO-OBRYS
  6
CONTINUOUS
100
AcDbLine
 10
342.393454
 20
-58.546729
 30
0.0
 11
273.178803
 21
-127.76138
 31
0.0
  0
LINE
  5
2D05
330
33A7
100
AcDbEntity
  8
VO-OBRYS
  6
CONTINUOUS
100
AcDbLine
 10
342.555828
 20
-55.645726
 30
0.0
 11
271.918204
 21
-126.28335
 31
0.0
  0
LINE
  5
2D06
330
33A7
100
AcDbEntity
  8
VO-OBRYS
  6
CONTINUOUS
100
AcDbLine
 10
358.652464
 20
-74.805739
 30
0.0
 11
289.437813
 21
-144.02039
 31
0.0
  0
LINE
  5
2D07
330
33A7
100
AcDbEntity
  8
V0-VYPLNE
100
AcDbLine
 10
392.380296
 20
-24.818897
 30
0.0
 11
281.0112
 21
-136.187992
 31
0.0
  0
LINE
  5
2D08
330
33A7
100
AcDbEntity
  8
VO-OBRYS
  6
CONTINUOUS
100
AcDbLine
 10
361.553467
 20
-74.64336400000001
 30
0.0
 11
290.915843
 21
-145.280989
 31
0.0
  0
LINE
  5
2D09
330
33A7
100
AcDbEntity
  8
V0-VYPLNE
  6
DASHDOT
100
AcDbLine
 10
392.380296
 20
-24.818897
 30
0.0
 11
392.380296
 21
-227.58424
 31
0.0
  0
LINE
  5
2D0A
330
33A7
100
AcDbEntity
  8
VO-OBRYS
  6
CONTINUOUS
100
AcDbLine
 10
423.207125
 20
-74.64336400000001
 30
0.0
 11
493.844749
 21
-145.280989
 31
0.0
  0
ARC
  5
2D0B
330
33A7
100
AcDbEntity
  8
V0-OBRYS
  6
CONTINUOUS
 62
    90
100
AcDbCircle
 10
392.380296
 20
-24.818897
 30
0.0
 40
58.300841
100
AcDbArc
 50
238.716649
 51
329.134287
  0
LINE
  5
2D0C
330
33A7
100
AcDbEntity
  8
V0-OBRYS
  6
CONTINUOUS
 62
    90
100
AcDbLine
 10
438.735864
 20
-81.160155
 30
0.0
 11
423.783885
 21
-63.077084
 31
0.0
  0
LINE
  5
2D0D
330
33A7
100
AcDbEntity
  8
V0-OBRYS
  6
CONTINUOUS
 62
    90
100
AcDbLine
 10
345.84792
 20
-172.157411
 30
0.0
 11
359.289769
 21
-148.242578
 31
0.0
  0
LINE
  5
2D0E
330
33A7
100
AcDbEntity
  8
V0-OBRYS
  6
CONTINUOUS
 62
    90
100
AcDbLine
 10
306.198868
 20
-153.063434
 30
0.0
 11
316.515382
 21
-127.643518
 31
0.0
  0
ARC
  5
2D0F
330
33A7
100
AcDbEntity
  8
V0-OBRYS
  6
CONTINUOUS
 62
    90
100
AcDbCircle
 10
392.380296
 20
-24.818897
 30
0.0
 40
154.511811
100
AcDbArc
 50
236.098561
 51
252.472867
  0
LINE
  5
2D10
330
33A7
100
AcDbEntity
  8
V0-OBRYS
  6
CONTINUOUS
 62
    90
100
AcDbLine
 10
317.267378
 20
-125.7906
 30
0.0
 11
325.372093
 21
-105.820561
 31
0.0
  0
LINE
  5
2D11
330
33A7
100
AcDbEntity
  8
V0-OBRYS
  6
CONTINUOUS
 62
    90
100
AcDbLine
 10
326.136418
 20
-103.937264
 30
0.0
 11
334.124909
 21
-84.253602
 31
0.0
  0
LINE
  5
2D13
330
33A7
100
AcDbEntity
  8
V0-OBRYS
  6
CONTINUOUS
 62
    90
100
AcDbLine
 10
438.912671
 20
-172.157411
 30
0.0
 11
425.470822
 21
-148.242578
 31
0.0
  0
LINE
  5
2D14
330
33A7
100
AcDbEntity
  8
V0-OBRYS
  6
CONTINUOUS
 62
    90
100
AcDbLine
 10
424.491014
 20
-146.499368
 30
0.0
 11
413.931016
 21
-127.711731
 31
0.0
  0
LINE
  5
2D15
330
33A7
100
AcDbEntity
  8
V0-OBRYS
  6
CONTINUOUS
 62
    90
100
AcDbLine
 10
360.269578
 20
-146.499368
 30
0.0
 11
370.829575
 21
-127.711731
 31
0.0
  0
LINE
  5
2D16
330
33A7
100
AcDbEntity
  8
V0-OBRYS
  6
CONTINUOUS
 62
    90
100
AcDbLine
 10
383.261894
 20
-105.592985
 30
0.0
 11
391.602866
 21
-90.753289
 31
0.0
  0
LINE
  5
2D17
330
33A7
100
AcDbEntity
  8
V0-OBRYS
  6
CONTINUOUS
 62
    90
100
AcDbLine
 10
391.602866
 20
-90.753289
 30
0.0
 11
387.514268
 21
-83.84536300000001
 31
0.0
  0
LINE
  5
2D18
330
33A7
100
AcDbEntity
  8
V0-OBRYS
  6
CONTINUOUS
 62
    90
100
AcDbLine
 10
371.825448
 20
-125.939941
 30
0.0
 11
382.234012
 21
-107.421724
 31
0.0
  0
LINE
  5
2D19
330
33A7
100
AcDbEntity
  8
V0-OBRYS
  6
CONTINUOUS
 62
    90
100
AcDbLine
 10
401.498697
 20
-105.592985
 30
0.0
 11
393.157725
 21
-90.753289
 31
0.0
  0
LINE
  5
2D1A
330
33A7
100
AcDbEntity
  8
V0-OBRYS
  6
CONTINUOUS
 62
    90
100
AcDbLine
 10
412.935143
 20
-125.939941
 30
0.0
 11
402.526579
 21
-107.421724
 31
0.0
  0
LINE
  5
2D1B
330
33A7
100
AcDbEntity
  8
V0-OBRYS
  6
CONTINUOUS
 62
    90
100
AcDbLine
 10
393.157725
 20
-90.753289
 30
0.0
 11
397.246323
 21
-83.84536300000001
 31
0.0
  0
LINE
  5
2D1C
330
33A7
100
AcDbEntity
  8
V0-OBRYS
  6
CONTINUOUS
 62
    90
100
AcDbLine
 10
478.561723
 20
-153.063434
 30
0.0
 11
468.245209
 21
-127.643518
 31
0.0
  0
ARC
  5
2D1D
330
33A7
100
AcDbEntity
  8
V0-OBRYS
  6
CONTINUOUS
 62
    90
100
AcDbCircle
 10
392.380296
 20
-24.818897
 30
0.0
 40
154.511811
100
AcDbArc
 50
287.527133
 51
303.901439
  0
LINE
  5
2D1E
330
33A7
100
AcDbEntity
  8
V0-OBRYS
  6
CONTINUOUS
 62
    90
100
AcDbLine
 10
467.493214
 20
-125.7906
 30
0.0
 11
459.388498
 21
-105.820561
 31
0.0
  0
LINE
  5
2D1F
330
33A7
100
AcDbEntity
  8
V0-OBRYS
  6
CONTINUOUS
 62
    90
100
AcDbLine
 10
458.624173
 20
-103.937264
 30
0.0
 11
450.635682
 21
-84.253602
 31
0.0
  0
LINE
  5
2D20
330
33A7
100
AcDbEntity
  8
V0-OBRYS
  6
CONTINUOUS
 62
    90
100
AcDbLine
 10
346.024727
 20
31.52236
 30
0.0
 11
360.976706
 21
13.43929
 31
0.0
  0
POINT
  5
2D21
330
33A7
100
AcDbEntity
  8
V0-VYPLNE
  6
DASHED
 62
    52
100
AcDbPoint
 10
392.380296
 20
-24.818897
 30
0.0
  0
ARC
  5
2D22
330
33A7
100
AcDbEntity
  8
V0-OBRYS
  6
CONTINUOUS
 62
    90
100
AcDbCircle
 10
392.380296
 20
-24.818897
 30
0.0
 40
58.300841
100
AcDbArc
 50
148.716649
 51
239.134287
  0
CIRCLE
  5
2D23
330
33A7
100
AcDbEntity
  8
V0-OBRYS
  6
CONTINUOUS
 62
    90
100
AcDbCircle
 10
392.380296
 20
-24.818897
 30
0.0
 40
49.496205
  0
ARC
  5
2D24
330
33A7
100
AcDbEntity
  8
V0-OBRYS
  6
CONTINUOUS
 62
    90
100
AcDbCircle
 10
392.380296
 20
-24.818897
 30
0.0
 40
58.300841
100
AcDbArc
 50
58.71664899999999
 51
149.134287
  0
LINE
  5
2D25
330
33A7
100
AcDbEntity
  8
VO-OBRYS
  6
CONTINUOUS
100
AcDbLine
 10
361.553467
 20
25.00557
 30
0.0
 11
290.915843
 21
95.64319399999999
 31
0.0
  0
LINE
  5
2D26
330
33A7
100
AcDbEntity
  8
V0-VYPLNE
100
AcDbLine
 10
392.380296
 20
-24.818897
 30
0.0
 11
272.318819
 21
95.24258
 31
0.0
  0
LINE
  5
2D27
330
33A7
100
AcDbEntity
  8
V0-OBRYS
  6
CONTINUOUS
 62
    90
100
AcDbLine
 10
349.118336
 20
43.999715
 30
0.0
 11
363.071995
 21
34.248623
 31
0.0
  0
LINE
  5
2D28
330
33A7
100
AcDbEntity
  8
V0-OBRYS
  6
CONTINUOUS
 62
    90
100
AcDbLine
 10
362.601448
 20
25.00557
 30
0.0
 11
353.918933
 21
39.532716
 31
0.0
  0
LINE
  5
2D29
330
33A7
100
AcDbEntity
  8
V0-OBRYS
  6
CONTINUOUS
 62
    90
100
AcDbLine
 10
366.987372
 20
17.667263
 30
0.0
 11
353.918933
 21
39.532716
 31
0.0
  0
LINE
  5
2D2A
330
33A7
100
AcDbEntity
  8
V0-OBRYS
  6
CONTINUOUS
 62
    90
100
AcDbLine
 10
280.895915
 20
33.56319
 30
0.0
 11
296.862686
 21
19.087311
 31
0.0
  0
LINE
  5
2D2B
330
33A7
100
AcDbEntity
  8
VO-OBRYS
  6
CONTINUOUS
100
AcDbLine
 10
358.652464
 20
25.167944
 30
0.0
 11
291.55632
 21
92.26408900000001
 31
0.0
  0
LINE
  5
2D2C
330
33A7
100
AcDbEntity
  8
VO-OBRYS
  6
CONTINUOUS
100
AcDbLine
 10
342.393454
 20
8.908934
 30
0.0
 11
273.178803
 21
78.123586
 31
0.0
  0
LINE
  5
2D2D
330
33A7
100
AcDbEntity
  8
VO-OBRYS
  6
CONTINUOUS
100
AcDbLine
 10
342.555828
 20
6.007932
 30
0.0
 11
271.918204
 21
76.645556
 31
0.0
  0
LINE
  5
2D2E
330
33A7
100
AcDbEntity
  8
V0-OBRYS
  6
CONTINUOUS
 62
    90
100
AcDbLine
 10
289.220684
 20
-22.356843
 30
0.0
 11
309.590733
 21
-16.329934
 31
0.0
  0
LINE
  5
2D2F
330
33A7
100
AcDbEntity
  8
V0-OBRYS
  6
CONTINUOUS
 62
    90
100
AcDbLine
 10
277.225967
 20
-75.58026
 30
0.0
 11
298.498784
 21
-72.12249799999999
 31
0.0
  0
LINE
  5
2D30
330
33A7
100
AcDbEntity
  8
V0-OBRYS
  6
CONTINUOUS
 62
    90
100
AcDbLine
 10
266.605301
 20
-29.04808
 30
0.0
 11
287.271714
 21
-22.933487
 31
0.0
  0
LINE
  5
2D31
330
33A7
100
AcDbEntity
  8
V0-OBRYS
  6
CONTINUOUS
 62
    90
100
AcDbLine
 10
238.381438
 20
-37.398705
 30
0.0
 11
264.68777
 21
-29.615422
 31
0.0
  0
LINE
  5
2D32
330
33A7
100
AcDbEntity
  8
V0-OBRYS
  6
CONTINUOUS
 62
    90
100
AcDbLine
 10
323.54334
 20
-68.051664
 30
0.0
 11
340.345993
 21
-65.320499
 31
0.0
  0
LINE
  5
2D33
330
33A7
100
AcDbEntity
  8
V0-OBRYS
  6
CONTINUOUS
 62
    90
100
AcDbLine
 10
318.887142
 20
-30.408115
 30
0.0
 11
342.555828
 21
-28.608091
 31
0.0
  0
LINE
  5
2D34
330
33A7
100
AcDbEntity
  8
V0-OBRYS
  6
CONTINUOUS
 62
    90
100
AcDbLine
 10
344.271621
 20
-36.456326
 30
0.0
 11
320.241445
 21
-42.269196
 31
0.0
  0
LINE
  5
2D35
330
33A7
100
AcDbEntity
  8
V0-OBRYS
  6
CONTINUOUS
 62
    90
100
AcDbLine
 10
323.965775
 20
-52.774728
 30
0.0
 11
346.561744
 21
-43.541468
 31
0.0
  0
LINE
  5
2D36
330
33A7
100
AcDbEntity
  8
V0-OBRYS
  6
CONTINUOUS
 62
    90
100
AcDbLine
 10
300.504942
 20
-71.79641
 30
0.0
 11
321.4727
 21
-68.388233
 31
0.0
  0
LINE
  5
2D37
330
33A7
100
AcDbEntity
  8
V0-OBRYS
  6
CONTINUOUS
 62
    90
100
AcDbLine
 10
341.315432
 20
-66.536137
 30
0.0
 11
349.265465
 21
-65.42571
 31
0.0
  0
LINE
  5
2D38
330
33A7
100
AcDbEntity
  8
V0-OBRYS
  6
CONTINUOUS
 62
    90
100
AcDbLine
 10
340.345993
 20
-65.320499
 30
0.0
 11
343.197628
 21
-57.816883
 31
0.0
  0
LINE
  5
2D39
330
33A7
100
AcDbEntity
  8
V0-OBRYS
  6
CONTINUOUS
 62
    90
100
AcDbLine
 10
349.894136
 20
-50.211821
 30
0.0
 11
328.028683
 21
-63.280259
 31
0.0
  0
LINE
  5
2D3A
330
33A7
100
AcDbEntity
  8
V0-OBRYS
  6
CONTINUOUS
 62
    90
100
AcDbLine
 10
336.039038
 20
-71.174466
 30
0.0
 11
354.122108
 21
-56.222487
 31
0.0
  0
LINE
  5
2D3B
330
33A7
100
AcDbEntity
  8
V0-OBRYS
  6
CONTINUOUS
 62
    90
100
AcDbLine
 10
323.965775
 20
3.136934
 30
0.0
 11
346.561744
 21
-6.096326999999999
 31
0.0
  0
LINE
  5
2D3C
330
33A7
100
AcDbEntity
  8
V0-OBRYS
  6
CONTINUOUS
 62
    90
100
AcDbLine
 10
344.271621
 20
-13.181468
 30
0.0
 11
320.241445
 21
-7.368598
 31
0.0
  0
LINE
  5
2D3D
330
33A7
100
AcDbEntity
  8
V0-OBRYS
  6
CONTINUOUS
 62
    90
100
AcDbLine
 10
318.887142
 20
-19.22968
 30
0.0
 11
342.555828
 21
-21.029704
 31
0.0
  0
LINE
  5
2D3E
330
33A7
100
AcDbEntity
  8
V0-OBRYS
  6
CONTINUOUS
 62
    90
100
AcDbLine
 10
315.660418
 20
2.044813
 30
0.0
 11
328.272011
 21
-9.389177
 31
0.0
  0
LINE
  5
2D3F
330
33A7
100
AcDbEntity
  8
V0-OBRYS
  6
CONTINUOUS
 62
    90
100
AcDbLine
 10
311.602347
 20
-15.734756
 30
0.0
 11
327.926023
 21
-10.905052
 31
0.0
  0
LINE
  5
2D40
330
33A7
100
AcDbEntity
  8
V0-OBRYS
  6
CONTINUOUS
 62
    90
100
AcDbLine
 10
298.368451
 20
17.722147
 30
0.0
 11
314.106255
 21
3.453856
 31
0.0
  0
LINE
  5
2D41
330
33A7
100
AcDbEntity
  8
V0-OBRYS
  6
CONTINUOUS
 62
    90
100
AcDbLine
 10
349.894136
 20
0.574026
 30
0.0
 11
328.028683
 21
13.642465
 31
0.0
  0
LINE
  5
2D42
330
33A7
100
AcDbEntity
  8
V0-OBRYS
  6
CONTINUOUS
 62
    90
100
AcDbLine
 10
335.820851
 20
22.030959
 30
0.0
 11
354.336392
 21
6.843948000000001
 31
0.0
  0
LINE
  5
2D43
330
33A7
100
AcDbEntity
  8
V0-OBRYS
  6
CONTINUOUS
 62
    90
100
AcDbLine
 10
327.926023
 20
-10.905052
 30
0.0
 11
333.750954
 21
-16.428299
 31
0.0
  0
LINE
  5
2D44
330
33A7
100
AcDbEntity
  8
V0-OBRYS
  6
CONTINUOUS
 62
    90
100
AcDbLine
 10
328.272011
 20
-9.389177
 30
0.0
 11
335.91654
 21
-6.940247
 31
0.0
  0
LINE
  5
2D45
330
33A7
100
AcDbEntity
  8
V0-OBRYS
  6
CONTINUOUS
 62
    90
100
AcDbLine
 10
286.528289
 20
87.73887600000001
 30
0.0
 11
309.015234
 21
72.02455500000001
 31
0.0
  0
ARC
  5
2D46
330
33A7
100
AcDbEntity
  8
V0-OBRYS
  6
CONTINUOUS
 62
    90
100
AcDbCircle
 10
392.380296
 20
-24.818897
 30
0.0
 40
154.511811
100
AcDbArc
 50
133.241418
 51
149.615725
  0
LINE
  5
2D47
330
33A7
100
AcDbEntity
  8
V0-OBRYS
  6
CONTINUOUS
 62
    90
100
AcDbLine
 10
259.090293
 20
53.332718
 30
0.0
 11
279.414439
 21
34.906333
 31
0.0
  0
LINE
  5
2D48
330
33A7
100
AcDbEntity
  8
V0-OBRYS
  6
CONTINUOUS
 62
    90
100
AcDbLine
 10
310.654361
 20
70.87910100000001
 30
0.0
 11
328.32024
 21
58.533836
 31
0.0
  0
LINE
  5
2D49
330
33A7
100
AcDbEntity
  8
V0-OBRYS
  6
CONTINUOUS
 62
    90
100
AcDbLine
 10
329.986241
 20
57.369601
 30
0.0
 11
347.398786
 21
45.201371
 31
0.0
  0
LINE
  5
2D4A
330
33A7
100
AcDbEntity
  8
V0-OBRYS
  6
CONTINUOUS
 62
    90
100
AcDbLine
 10
421.688596
 20
34.248623
 30
0.0
 11
422.375059
 21
26.25082
 31
0.0
  0
LINE
  5
2D4B
330
33A7
100
AcDbEntity
  8
V0-OBRYS
  6
CONTINUOUS
 62
    90
100
AcDbLine
 10
363.071995
 20
34.248623
 30
0.0
 11
362.385533
 21
26.25082
 31
0.0
  0
ARC
  5
2D4C
330
33A7
100
AcDbEntity
  8
V0-OBRYS
  6
CONTINUOUS
 62
    90
100
AcDbCircle
 10
392.380296
 20
-24.818897
 30
0.0
 40
58.300841
100
AcDbArc
 50
328.716649
 51
59.134287
  0
LINE
  5
2D4D
330
33A7
100
AcDbEntity
  8
V0-OBRYS
  6
CONTINUOUS
 62
    90
100
AcDbLine
 10
439.230151
 20
31.740547
 30
0.0
 11
424.043141
 21
13.225006
 31
0.0
  0
LINE
  5
2D4E
330
33A7
100
AcDbEntity
  8
V0-OBRYS
  6
CONTINUOUS
 62
    90
100
AcDbLine
 10
397.969513
 20
48.674257
 30
0.0
 11
396.169489
 21
25.00557
 31
0.0
  0
LINE
  5
2D4F
330
33A7
100
AcDbEntity
  8
V0-OBRYS
  6
CONTINUOUS
 62
    90
100
AcDbLine
 10
404.017725
 20
23.289778
 30
0.0
 11
409.830595
 21
47.319954
 31
0.0
  0
LINE
  5
2D50
330
33A7
100
AcDbEntity
  8
V0-OBRYS
  6
CONTINUOUS
 62
    90
100
AcDbLine
 10
420.336127
 20
43.595623
 30
0.0
 11
411.102866
 21
20.999655
 31
0.0
  0
LINE
  5
2D51
330
33A7
100
AcDbEntity
  8
V0-OBRYS
  6
CONTINUOUS
 62
    90
100
AcDbLine
 10
422.159144
 20
25.00557
 30
0.0
 11
430.841658
 21
39.532716
 31
0.0
  0
LINE
  5
2D52
330
33A7
100
AcDbEntity
  8
V0-OBRYS
  6
CONTINUOUS
 62
    90
100
AcDbLine
 10
364.424465
 20
43.595623
 30
0.0
 11
372.020811
 21
25.00557
 31
0.0
  0
LINE
  5
2D53
330
33A7
100
AcDbEntity
  8
V0-OBRYS
  6
CONTINUOUS
 62
    90
100
AcDbLine
 10
380.327818
 20
25.00557
 30
0.0
 11
374.929996
 21
47.319954
 31
0.0
  0
LINE
  5
2D54
330
33A7
100
AcDbEntity
  8
V0-OBRYS
  6
CONTINUOUS
 62
    90
100
AcDbLine
 10
386.791078
 20
48.674257
 30
0.0
 11
388.591102
 21
25.00557
 31
0.0
  0
LINE
  5
2D55
330
33A7
100
AcDbEntity
  8
V0-OBRYS
  6
CONTINUOUS
 62
    90
100
AcDbLine
 10
364.424465
 20
43.595623
 30
0.0
 11
373.657725
 21
20.999655
 31
0.0
  0
LINE
  5
2D56
330
33A7
100
AcDbEntity
  8
V0-OBRYS
  6
CONTINUOUS
 62
    90
100
AcDbLine
 10
380.742866
 20
23.289778
 30
0.0
 11
374.929996
 21
47.319954
 31
0.0
  0
LINE
  5
2D57
330
33A7
100
AcDbEntity
  8
V0-OBRYS
  6
CONTINUOUS
 62
    90
100
AcDbLine
 10
386.791078
 20
48.674257
 30
0.0
 11
388.591102
 21
25.00557
 31
0.0
  0
LINE
  5
2D58
330
33A7
100
AcDbEntity
  8
VO-OBRYS
  6
CONTINUOUS
100
AcDbLine
 10
416.566927
 20
18.365373
 30
0.0
 11
493.844749
 21
95.64319399999999
 31
0.0
  0
LINE
  5
2D59
330
33A7
100
AcDbEntity
  8
V0-OBRYS
  6
CONTINUOUS
 62
    90
100
AcDbLine
 10
440.48897
 20
-36.456326
 30
0.0
 11
464.519146
 21
-42.269196
 31
0.0
  0
LINE
  5
2D5A
330
33A7
100
AcDbEntity
  8
V0-OBRYS
  6
CONTINUOUS
 62
    90
100
AcDbLine
 10
465.87345
 20
-30.408115
 30
0.0
 11
442.204763
 21
-28.608091
 31
0.0
  0
LINE
  5
2D5B
330
33A7
100
AcDbEntity
  8
V0-OBRYS
  6
CONTINUOUS
 62
    90
100
AcDbLine
 10
461.217251
 20
-68.051664
 30
0.0
 11
444.414598
 21
-65.320499
 31
0.0
  0
LINE
  5
2D5C
330
33A7
100
AcDbEntity
  8
V0-OBRYS
  6
CONTINUOUS
 62
    90
100
AcDbLine
 10
444.414598
 20
-65.320499
 30
0.0
 11
441.562963
 21
-57.816883
 31
0.0
  0
LINE
  5
2D5D
330
33A7
100
AcDbEntity
  8
V0-OBRYS
  6
CONTINUOUS
 62
    90
100
AcDbLine
 10
443.445159
 20
-66.536137
 30
0.0
 11
435.495126
 21
-65.42571
 31
0.0
  0
LINE
  5
2D5E
330
33A7
100
AcDbEntity
  8
V0-OBRYS
  6
CONTINUOUS
 62
    90
100
AcDbLine
 10
434.866456
 20
-50.211821
 30
0.0
 11
456.731909
 21
-63.280259
 31
0.0
  0
LINE
  5
2D5F
330
33A7
100
AcDbEntity
  8
V0-OBRYS
  6
CONTINUOUS
 62
    90
100
AcDbLine
 10
460.794816
 20
-52.774728
 30
0.0
 11
438.198848
 21
-43.541468
 31
0.0
  0
LINE
  5
2D60
330
33A7
100
AcDbEntity
  8
V0-OBRYS
  6
CONTINUOUS
 62
    90
100
AcDbLine
 10
448.93974
 20
-71.668753
 30
0.0
 11
430.424199
 21
-56.481742
 31
0.0
  0
LINE
  5
2D61
330
33A7
100
AcDbEntity
  8
V0-OBRYS
  6
CONTINUOUS
 62
    90
100
AcDbLine
 10
484.255649
 20
-71.79641
 30
0.0
 11
463.287891
 21
-68.388233
 31
0.0
  0
LINE
  5
2D62
330
33A7
100
AcDbEntity
  8
V0-OBRYS
  6
CONTINUOUS
 62
    90
100
AcDbLine
 10
465.87345
 20
-19.22968
 30
0.0
 11
442.204763
 21
-21.029704
 31
0.0
  0
LINE
  5
2D63
330
33A7
100
AcDbEntity
  8
V0-OBRYS
  6
CONTINUOUS
 62
    90
100
AcDbLine
 10
440.48897
 20
-13.181468
 30
0.0
 11
464.519146
 21
-7.368598
 31
0.0
  0
LINE
  5
2D64
330
33A7
100
AcDbEntity
  8
V0-OBRYS
  6
CONTINUOUS
 62
    90
100
AcDbLine
 10
473.158244
 20
-15.734756
 30
0.0
 11
456.834569
 21
-10.905052
 31
0.0
  0
LINE
  5
2D65
330
33A7
100
AcDbEntity
  8
V0-OBRYS
  6
CONTINUOUS
 62
    90
100
AcDbLine
 10
469.100174
 20
2.044813
 30
0.0
 11
456.48858
 21
-9.389177
 31
0.0
  0
LINE
  5
2D66
330
33A7
100
AcDbEntity
  8
V0-OBRYS
  6
CONTINUOUS
 62
    90
100
AcDbLine
 10
434.866456
 20
0.574026
 30
0.0
 11
456.731909
 21
13.642465
 31
0.0
  0
LINE
  5
2D67
330
33A7
100
AcDbEntity
  8
V0-OBRYS
  6
CONTINUOUS
 62
    90
100
AcDbLine
 10
456.48858
 20
-9.389177
 30
0.0
 11
448.844051
 21
-6.940247
 31
0.0
  0
LINE
  5
2D68
330
33A7
100
AcDbEntity
  8
V0-OBRYS
  6
CONTINUOUS
 62
    90
100
AcDbLine
 10
456.834569
 20
-10.905052
 30
0.0
 11
451.009638
 21
-16.428299
 31
0.0
  0
LINE
  5
2D69
330
33A7
100
AcDbEntity
  8
V0-OBRYS
  6
CONTINUOUS
 62
    90
100
AcDbLine
 10
460.794816
 20
3.136934
 30
0.0
 11
438.198848
 21
-6.096326999999999
 31
0.0
  0
LINE
  5
2D6A
330
33A7
100
AcDbEntity
  8
V0-OBRYS
  6
CONTINUOUS
 62
    90
100
AcDbLine
 10
448.721553
 20
21.536672
 30
0.0
 11
430.638483
 21
6.584693
 31
0.0
  0
LINE
  5
2D6B
330
33A7
100
AcDbEntity
  8
V0-OBRYS
  6
CONTINUOUS
 62
    90
100
AcDbLine
 10
486.39214
 20
17.722147
 30
0.0
 11
470.654337
 21
3.453856
 31
0.0
  0
LINE
  5
2D6C
330
33A7
100
AcDbEntity
  8
V0-OBRYS
  6
CONTINUOUS
 62
    90
100
AcDbLine
 10
435.642255
 20
43.999715
 30
0.0
 11
421.688596
 21
34.248623
 31
0.0
  0
LINE
  5
2D6D
330
33A7
100
AcDbEntity
  8
V0-OBRYS
  6
CONTINUOUS
 62
    90
100
AcDbLine
 10
416.244716
 20
98.74373799999999
 30
0.0
 11
417.607295
 21
77.23484999999999
 31
0.0
  0
LINE
  5
2D6E
330
33A7
100
AcDbEntity
  8
V0-OBRYS
  6
CONTINUOUS
 62
    90
100
AcDbLine
 10
368.515875
 20
98.74373799999999
 30
0.0
 11
367.153296
 21
77.23484999999999
 31
0.0
  0
LINE
  5
2D6F
330
33A7
100
AcDbEntity
  8
V0-OBRYS
  6
CONTINUOUS
 62
    90
100
AcDbLine
 10
367.024797
 20
75.206429
 30
0.0
 11
365.681758
 21
54.005986
 31
0.0
  0
LINE
  5
2D70
330
33A7
100
AcDbEntity
  8
V0-OBRYS
  6
CONTINUOUS
 62
    90
100
AcDbLine
 10
364.472875
 20
34.923251
 30
0.0
 11
371.153812
 21
30.473401
 31
0.0
  0
LINE
  5
2D71
330
33A7
100
AcDbEntity
  8
V0-OBRYS
  6
CONTINUOUS
 62
    90
100
AcDbLine
 10
365.549128
 20
51.912368
 30
0.0
 11
364.472875
 21
34.923251
 31
0.0
  0
LINE
  5
2D72
330
33A7
100
AcDbEntity
  8
V0-OBRYS
  6
CONTINUOUS
 62
    90
100
AcDbLine
 10
417.735794
 20
75.206429
 30
0.0
 11
419.078833
 21
54.005986
 31
0.0
  0
LINE
  5
2D73
330
33A7
100
AcDbEntity
  8
V0-OBRYS
  6
CONTINUOUS
 62
    90
100
AcDbLine
 10
420.287716
 20
34.923251
 30
0.0
 11
413.60678
 21
30.473401
 31
0.0
  0
LINE
  5
2D74
330
33A7
100
AcDbEntity
  8
V0-OBRYS
  6
CONTINUOUS
 62
    90
100
AcDbLine
 10
419.211463
 20
51.912368
 30
0.0
 11
420.287716
 21
34.923251
 31
0.0
  0
ARC
  5
2D75
330
33A7
100
AcDbEntity
  8
V0-OBRYS
  6
CONTINUOUS
 62
    90
100
AcDbCircle
 10
392.380296
 20
-24.818897
 30
0.0
 40
154.511811
100
AcDbArc
 50
81.81284700000001
 51
98.187153
  0
LINE
  5
2D76
330
33A7
100
AcDbEntity
  8
V0-OBRYS
  6
CONTINUOUS
 62
    90
100
AcDbLine
 10
370.376732
 20
128.118158
 30
0.0
 11
370.162388
 21
124.734654
 31
0.0
  0
LINE
  5
2D77
330
33A7
100
AcDbEntity
  8
V0-OBRYS
  6
CONTINUOUS
 62
    90
100
AcDbLine
 10
370.03715
 20
122.757711
 30
0.0
 11
368.642302
 21
100.739438
 31
0.0
  0
LINE
  5
2D78
330
33A7
100
AcDbEntity
  8
V0-OBRYS
  6
CONTINUOUS
 62
    90
100
AcDbLine
 10
414.38386
 20
128.118158
 30
0.0
 11
416.11829
 21
100.739438
 31
0.0
  0
LINE
  5
2D79
330
33A7
100
AcDbEntity
  8
V0-OBRYS
  6
CONTINUOUS
 62
    90
100
AcDbLine
 10
474.106231
 20
70.87910100000001
 30
0.0
 11
456.440351
 21
58.533836
 31
0.0
  0
LINE
  5
2D7A
330
33A7
100
AcDbEntity
  8
V0-OBRYS
  6
CONTINUOUS
 62
    90
100
AcDbLine
 10
454.77435
 20
57.369601
 30
0.0
 11
437.361805
 21
45.201371
 31
0.0
  0
LINE
  5
2D7B
330
33A7
100
AcDbEntity
  8
V0-OBRYS
  6
CONTINUOUS
 62
    90
100
AcDbLine
 10
536.586646
 20
-80.302482
 30
0.0
 11
509.50842
 21
-75.901088
 31
0.0
  0
ARC
  5
2D7C
330
33A7
100
AcDbEntity
  8
V0-OBRYS
  6
CONTINUOUS
 62
    90
100
AcDbCircle
 10
392.380296
 20
-24.818897
 30
0.0
 40
154.511811
100
AcDbArc
 50
338.955704
 51
355.33001
  0
LINE
  5
2D7D
330
33A7
100
AcDbEntity
  8
V0-OBRYS
  6
CONTINUOUS
 62
    90
100
AcDbLine
 10
518.15529
 20
-29.04808
 30
0.0
 11
497.488878
 21
-22.933487
 31
0.0
  0
LINE
  5
2D7E
330
33A7
100
AcDbEntity
  8
V0-OBRYS
  6
CONTINUOUS
 62
    90
100
AcDbLine
 10
546.379153
 20
-37.398705
 30
0.0
 11
520.072822
 21
-29.615422
 31
0.0
  0
ARC
  5
2D80
330
33A7
100
AcDbEntity
  8
V0-OBRYS
  6
CONTINUOUS
 62
    90
100
AcDbCircle
 10
392.380296
 20
-24.818897
 30
0.0
 40
154.511811
100
AcDbArc
 50
30.384275
 51
46.758582
  0
LINE
  5
2D81
330
33A7
100
AcDbEntity
  8
V0-OBRYS
  6
CONTINUOUS
 62
    90
100
AcDbLine
 10
525.670298
 20
53.332718
 30
0.0
 11
505.346152
 21
34.906333
 31
0.0
  0
CIRCLE
  5
2D82
330
33A7
100
AcDbEntity
  8
V0-OBRYS
  6
CONTINUOUS
 62
    90
100
AcDbCircle
 10
392.380296
 20
152.62248
 30
0.0
 40
6.07676
  0
LINE
  5
2DB1
330
33A7
100
AcDbEntity
  8
V0-OBRYS
  6
CONTINUOUS
 62
    90
100
AcDbLine
 10
-149.259729
 20
-647.3279250000001
 30
0.0
 11
-149.259729
 21
-597.3279250000001
 31
0.0
  0
LINE
  5
2DB2
330
33A7
100
AcDbEntity
  8
V0-OBRYS
  6
CONTINUOUS
 62
    90
100
AcDbLine
 10
-144.259729
 20
-592.3279250000001
 30
0.0
 11
-74.25972899999999
 21
-592.3279250000001
 31
0.0
  0
LINE
  5
2DB3
330
33A7
100
AcDbEntity
  8
V0-OBRYS
  6
CONTINUOUS
 62
    90
100
AcDbLine
 10
-69.25972899999999
 20
-597.3279250000001
 30
0.0
 11
-69.25972899999999
 21
-647.3279250000001
 31
0.0
  0
LINE
  5
2DB4
330
33A7
100
AcDbEntity
  8
V0-OBRYS
  6
CONTINUOUS
 62
    90
100
AcDbLine
 10
-74.25972899999999
 20
-652.3279250000001
 30
0.0
 11
-144.259729
 21
-652.3279250000001
 31
0.0
  0
LINE
  5
2DD0
330
33A7
100
AcDbEntity
  8
V0-VYPLNE
  6
DASHED
 62
    52
100
AcDbLine
 10
-82.772023
 20
-685.876532
 30
0.0
 11
-68.655194
 21
-778.000092
 31
0.0
  0
LINE
  5
2DD1
330
33A7
100
AcDbEntity
  8
V0-VYPLNE
  6
DASHED
 62
    52
100
AcDbLine
 10
-19.703137
 20
-685.876532
 30
0.0
 11
-33.819806
 21
-778.000092
 31
0.0
  0
LINE
  5
2DD2
330
33A7
100
AcDbEntity
  8
V0-OBRYS
  6
CONTINUOUS
 62
    90
100
AcDbLine
 10
-4.416663
 20
-623.639348
 30
0.0
 11
-4.416663
 21
-826.40469
 31
0.0
  0
LINE
  5
2DD3
330
33A7
100
AcDbEntity
  8
V0-OBRYS
  6
CONTINUOUS
 62
    90
100
AcDbLine
 10
-174.235263
 20
-623.639348
 30
0.0
 11
-174.235263
 21
-826.40469
 31
0.0
  0
LINE
  5
2DD5
330
33A7
100
AcDbEntity
  8
V0-OBRYS
  6
CONTINUOUS
 62
    90
100
AcDbLine
 10
-4.416663
 20
-781.139033
 30
0.0
 11
-174.235263
 21
-781.139033
 31
0.0
  0
LINE
  5
2DD6
330
33A7
100
AcDbEntity
  8
V0-OBRYS
  6
CONTINUOUS
 62
    90
100
AcDbLine
 10
-171.754953
 20
-781.139033
 30
0.0
 11
-171.754953
 21
-826.40469
 31
0.0
  0
LINE
  5
2DD7
330
33A7
100
AcDbEntity
  8
V0-VYPLNE
  6
DASHDOT
 62
    63
100
AcDbLine
 10
-186.636813
 20
-804.7019780000001
 30
0.0
 11
-151.111586
 21
-804.7019780000001
 31
0.0
  0
LINE
  5
2DD8
330
33A7
100
AcDbEntity
  8
V0-VYPLNE
  6
DASHED
 62
    52
100
AcDbLine
 10
-68.655194
 20
-778.000092
 30
0.0
 11
-33.819806
 21
-778.000092
 31
0.0
  0
LINE
  5
2DD9
330
33A7
100
AcDbEntity
  8
V0-OBRYS
  6
CONTINUOUS
 62
    90
100
AcDbLine
 10
-6.896973
 20
-781.139033
 30
0.0
 11
-6.896973
 21
-826.40469
 31
0.0
  0
LINE
  5
2DDA
330
33A7
100
AcDbEntity
  8
V0-VYPLNE
  6
DASHDOT
 62
    63
100
AcDbLine
 10
-39.580934
 20
-804.7019780000001
 30
0.0
 11
9.808689999999999
 21
-804.7019780000001
 31
0.0
  0
LINE
  5
2DDC
330
33A7
100
AcDbEntity
  8
V0-OBRYS
  6
CONTINUOUS
 62
    90
100
AcDbLine
 10
-4.416663
 20
-623.639348
 30
0.0
 11
-4.416663
 21
-420.874005
 31
0.0
  0
LINE
  5
2DDD
330
33A7
100
AcDbEntity
  8
V0-OBRYS
  6
CONTINUOUS
 62
    90
100
AcDbLine
 10
-174.235263
 20
-623.639348
 30
0.0
 11
-174.235263
 21
-420.874005
 31
0.0
  0
LINE
  5
2DDE
330
33A7
100
AcDbEntity
  8
V0-OBRYS
  6
CONTINUOUS
 62
    90
100
AcDbLine
 10
-171.754953
 20
-781.139033
 30
0.0
 11
-171.754953
 21
-420.874005
 31
0.0
  0
LINE
  5
2DDF
330
33A7
100
AcDbEntity
  8
V0-OBRYS
  6
CONTINUOUS
 62
    90
100
AcDbLine
 10
-6.896973
 20
-781.139033
 30
0.0
 11
-6.896973
 21
-420.874005
 31
0.0
  0
LINE
  5
2DE0
330
33A7
100
AcDbEntity
  8
V0-VYPLNE
  6
DASHED
 62
    52
100
AcDbLine
 10
-153.045208
 20
-566.651888
 30
0.0
 11
-100.808913
 21
-566.651888
 31
0.0
  0
LINE
  5
2DE1
330
33A7
100
AcDbEntity
  8
V0-VYPLNE
  6
DASHED
 62
    52
100
AcDbLine
 10
-126.562231
 20
-603.717454
 30
0.0
 11
-100.808913
 21
-603.717454
 31
0.0
  0
LINE
  5
2DE2
330
33A7
100
AcDbEntity
  8
V0-VYPLNE
  6
DASHED
 62
    52
100
AcDbLine
 10
-129.442567
 20
-615.228171
 30
0.0
 11
-100.808913
 21
-615.228171
 31
0.0
  0
LINE
  5
2DE3
330
33A7
100
AcDbEntity
  8
V0-VYPLNE
  6
DASHED
 62
    52
100
AcDbLine
 10
-128.962509
 20
-570.14453
 30
0.0
 11
-100.808913
 21
-570.14453
 31
0.0
  0
LINE
  5
2DE4
330
33A7
100
AcDbEntity
  8
V0-VYPLNE
  6
DASHED
 62
    52
100
AcDbLine
 10
-128.962509
 20
-592.206739
 30
0.0
 11
-100.808913
 21
-592.206739
 31
0.0
  0
LINE
  5
2DE5
330
33A7
100
AcDbEntity
  8
V0-VYPLNE
  6
DASHED
 62
    52
100
AcDbLine
 10
-129.442567
 20
-580.216409
 30
0.0
 11
-100.808913
 21
-580.216409
 31
0.0
  0
LINE
  5
2DE6
330
33A7
100
AcDbEntity
  8
V0-VYPLNE
  6
DASHED
 62
    52
100
AcDbLine
 10
-153.045208
 20
-680.626808
 30
0.0
 11
-100.808913
 21
-680.626808
 31
0.0
  0
LINE
  5
2DE7
330
33A7
100
AcDbEntity
  8
V0-VYPLNE
  6
DASHED
 62
    52
100
AcDbLine
 10
-129.442567
 20
-667.062286
 30
0.0
 11
-100.808913
 21
-667.062286
 31
0.0
  0
LINE
  5
2DE8
330
33A7
100
AcDbEntity
  8
V0-VYPLNE
  6
DASHED
 62
    52
100
AcDbLine
 10
-128.962509
 20
-677.1341650000001
 30
0.0
 11
-100.808913
 21
-677.1341650000001
 31
0.0
  0
LINE
  5
2DE9
330
33A7
100
AcDbEntity
  8
V0-VYPLNE
  6
DASHED
 62
    52
100
AcDbLine
 10
-126.562231
 20
-643.561241
 30
0.0
 11
-100.808913
 21
-643.561241
 31
0.0
  0
LINE
  5
2DEA
330
33A7
100
AcDbEntity
  8
V0-VYPLNE
  6
DASHED
 62
    52
100
AcDbLine
 10
-129.442567
 20
-632.050524
 30
0.0
 11
-100.808913
 21
-632.050524
 31
0.0
  0
LINE
  5
2DEB
330
33A7
100
AcDbEntity
  8
V0-VYPLNE
  6
DASHED
 62
    52
100
AcDbLine
 10
-128.962509
 20
-655.071956
 30
0.0
 11
-100.808913
 21
-655.071956
 31
0.0
  0
LINE
  5
2DEC
330
33A7
100
AcDbEntity
  8
V0-VYPLNE
  6
DASHDOT
 62
    63
 48
0.5
100
AcDbLine
 10
-194.842064
 20
-623.639348
 30
0.0
 11
-51.36972800000001
 21
-623.639348
 31
0.0
  0
LINE
  5
2DEE
330
33A7
100
AcDbEntity
  8
V0-VYPLNE
100
AcDbLine
 10
26.573878
 20
-623.639348
 30
0.0
 11
-194.45598
 21
-623.639348
 31
0.0
  0
LINE
  5
2DEF
330
33A7
100
AcDbEntity
  8
V0-OBRYS
  6
CONTINUOUS
 62
    90
100
AcDbLine
 10
-6.896973
 20
-466.139663
 30
0.0
 11
-171.754953
 21
-466.139663
 31
0.0
  0
LINE
  5
2DF0
330
33A7
100
AcDbEntity
  8
V0-VYPLNE
  6
DASHED
 62
    52
100
AcDbLine
 10
-128.962509
 20
-570.14453
 30
0.0
 11
-162.929127
 21
-584.053312
 31
0.0
  0
LINE
  5
2DF1
330
33A7
100
AcDbEntity
  8
V0-VYPLNE
  6
DASHED
 62
    52
100
AcDbLine
 10
-129.442567
 20
-580.216409
 30
0.0
 11
-162.449073
 21
-589.808672
 31
0.0
  0
LINE
  5
2DF2
330
33A7
100
AcDbEntity
  8
V0-VYPLNE
  6
DASHED
 62
    52
100
AcDbLine
 10
-163.043008
 20
-623.639348
 30
0.0
 11
-163.043008
 21
-576.649688
 31
0.0
  0
LINE
  5
2DF3
330
33A7
100
AcDbEntity
  8
V0-VYPLNE
  6
DASHED
 62
    52
100
AcDbLine
 10
-128.802753
 20
-623.639348
 30
0.0
 11
-128.802753
 21
-566.651888
 31
0.0
  0
LINE
  5
2DF4
330
33A7
100
AcDbEntity
  8
V0-VYPLNE
  6
DASHED
 62
    52
100
AcDbLine
 10
-163.043008
 20
-623.639348
 30
0.0
 11
-163.043008
 21
-670.629008
 31
0.0
  0
LINE
  5
2DF5
330
33A7
100
AcDbEntity
  8
V0-VYPLNE
  6
DASHED
 62
    52
100
AcDbLine
 10
-128.802753
 20
-623.639348
 30
0.0
 11
-128.802753
 21
-680.626808
 31
0.0
  0
ARC
  5
2DF6
330
33A7
100
AcDbEntity
  8
V0-VYPLNE
  6
DASHED
 62
    52
100
AcDbCircle
 10
-153.045208
 20
-670.629008
 30
0.0
 40
9.9978
100
AcDbArc
 50
180.0
 51
270.0
  0
LINE
  5
2DF7
330
33A7
100
AcDbEntity
  8
V0-VYPLNE
  6
DASHED
 62
    52
100
AcDbLine
 10
-129.442567
 20
-667.062286
 30
0.0
 11
-162.449073
 21
-657.470023
 31
0.0
  0
LINE
  5
2DF8
330
33A7
100
AcDbEntity
  8
V0-VYPLNE
  6
DASHED
 62
    52
100
AcDbLine
 10
-128.962509
 20
-677.1341650000001
 30
0.0
 11
-162.929127
 21
-663.225383
 31
0.0
  0
LINE
  5
2DF9
330
33A7
100
AcDbEntity
  8
V0-VYPLNE
  6
DASHED
 62
    52
100
AcDbLine
 10
-128.962509
 20
-655.071956
 30
0.0
 11
-163.409185
 21
-650.755438
 31
0.0
  0
LINE
  5
2DFA
330
33A7
100
AcDbEntity
  8
V0-VYPLNE
  6
DASHED
 62
    52
100
AcDbLine
 10
-129.442567
 20
-632.050524
 30
0.0
 11
-162.929127
 21
-631.570911
 31
0.0
  0
LINE
  5
2DFB
330
33A7
100
AcDbEntity
  8
V0-VYPLNE
  6
DASHED
 62
    52
100
AcDbLine
 10
-129.442567
 20
-643.561241
 30
0.0
 11
-162.929127
 21
-641.642788
 31
0.0
  0
LINE
  5
2DFC
330
33A7
100
AcDbEntity
  8
V0-VYPLNE
  6
DASHED
 62
    52
100
AcDbLine
 10
-129.442567
 20
-643.561241
 30
0.0
 11
-126.562231
 21
-643.561241
 31
0.0
  0
LINE
  5
2DFD
330
33A7
100
AcDbEntity
  8
V0-VYPLNE
  6
DASHED
 62
    52
100
AcDbLine
 10
-129.442567
 20
-615.228171
 30
0.0
 11
-162.929127
 21
-615.707784
 31
0.0
  0
LINE
  5
2DFE
330
33A7
100
AcDbEntity
  8
V0-VYPLNE
  6
DASHED
 62
    52
100
AcDbLine
 10
-129.442567
 20
-603.717454
 30
0.0
 11
-162.929127
 21
-605.635908
 31
0.0
  0
LINE
  5
2DFF
330
33A7
100
AcDbEntity
  8
V0-VYPLNE
  6
DASHED
 62
    52
100
AcDbLine
 10
-129.442567
 20
-603.717454
 30
0.0
 11
-126.562231
 21
-603.717454
 31
0.0
  0
LINE
  5
2E00
330
33A7
100
AcDbEntity
  8
V0-VYPLNE
  6
DASHED
 62
    52
100
AcDbLine
 10
-128.962509
 20
-592.206739
 30
0.0
 11
-163.409185
 21
-596.5232569999999
 31
0.0
  0
ARC
  5
2E01
330
33A7
100
AcDbEntity
  8
V0-VYPLNE
  6
DASHED
 62
    52
100
AcDbCircle
 10
-153.045208
 20
-576.649688
 30
0.0
 40
9.9978
100
AcDbArc
 50
90.0
 51
180.0
  0
ELLIPSE
  5
2E02
330
33A7
100
AcDbEntity
  8
V0-VYPLNE
  6
DASHED
 62
    52
100
AcDbEllipse
 10
-948.65047
 20
-656.175712
 30
0.0
 11
932.4977884562345
 21
51.00051710273727
 31
0.0
210
0.0
220
0.0
230
1.0
 40
0.688276
 41
-0.0277751172505501
 42
0.0523938180895613
  0
LINE
  5
2E03
330
33A7
100
AcDbEntity
  8
V0-VYPLNE
  6
DASHED
 62
    52
100
AcDbLine
 10
-82.7375
 20
-623.019087
 30
0.0
 11
-82.73757999999999
 21
-567.182804
 31
0.0
  0
LINE
  5
2E04
330
33A7
100
AcDbEntity
  8
V0-VYPLNE
  6
DASHED
 62
    52
100
AcDbLine
 10
-51.23758
 20
-563.639348
 30
0.0
 11
-51.2375
 21
-623.019087
 31
0.0
  0
LINE
  5
2E05
330
33A7
100
AcDbEntity
  8
V0-VYPLNE
  6
DASHED
 62
    52
100
AcDbLine
 10
-86.237531
 20
-571.650788
 30
0.0
 11
-86.237531
 21
-623.639348
 31
0.0
  0
ELLIPSE
  5
2E06
330
33A7
100
AcDbEntity
  8
V0-VYPLNE
  6
DASHED
 62
    52
100
AcDbEllipse
 10
-948.764303
 20
-592.2797460000001
 30
0.0
 11
-932.6527664895701
 21
48.23040876728703
 31
0.0
210
0.0
220
0.0
230
1.0
 40
0.704794
 41
3.088010247835249
 42
3.168179183175389
  0
LINE
  5
2E07
330
33A7
100
AcDbEntity
  8
V0-VYPLNE
  6
DASHED
 62
    52
100
AcDbLine
 10
-51.23758
 20
-683.639348
 30
0.0
 11
-51.2375
 21
-623.019087
 31
0.0
  0
LINE
  5
2E08
330
33A7
100
AcDbEntity
  8
V0-VYPLNE
  6
DASHED
 62
    52
100
AcDbLine
 10
-82.7375
 20
-623.019087
 30
0.0
 11
-82.73757999999999
 21
-680.0958910000001
 31
0.0
  0
LINE
  5
2E09
330
33A7
100
AcDbEntity
  8
V0-VYPLNE
  6
DASHED
 62
    52
100
AcDbLine
 10
-86.237531
 20
-675.6279080000001
 30
0.0
 11
-86.237531
 21
-623.639348
 31
0.0
  0
ELLIPSE
  5
2E0A
330
33A7
100
AcDbEntity
  8
V0-VYPLNE
  6
DASHED
 62
    52
100
AcDbEllipse
 10
-51.23758
 20
-572.029945
 30
0.0
 11
-126.0106159212972
 21
1.136868377216160E-13
 31
0.0
210
0.0
220
0.0
230
1.0
 40
0.885714
 41
1.318137823878815
 42
1.782397559380189
  0
ARC
  5
2E0B
330
33A7
100
AcDbEntity
  8
V0-VYPLNE
  6
DASHED
 62
    52
 48
0.3
100
AcDbCircle
 10
-91.236431
 20
-675.6279080000001
 30
0.0
 40
4.9989
100
AcDbArc
 50
270.0
 51
0.0
  0
LINE
  5
2E0C
330
33A7
100
AcDbEntity
  8
V0-VYPLNE
  6
DASHED
 62
    52
100
AcDbLine
 10
-100.808913
 20
-680.626808
 30
0.0
 11
-91.236431
 21
-680.626808
 31
0.0
  0
LINE
  5
2E0D
330
33A7
100
AcDbEntity
  8
V0-VYPLNE
  6
DASHED
 62
    52
100
AcDbLine
 10
-77.39421299999999
 20
-681.117722
 30
0.0
 11
-82.772023
 21
-685.876532
 31
0.0
  0
LINE
  5
2E0E
330
33A7
100
AcDbEntity
  8
V0-VYPLNE
  6
DASHED
 62
    52
100
AcDbLine
 10
-100.808913
 20
-667.062286
 30
0.0
 11
-86.237531
 21
-667.062286
 31
0.0
  0
LINE
  5
2E0F
330
33A7
100
AcDbEntity
  8
V0-VYPLNE
  6
DASHED
 62
    52
100
AcDbLine
 10
-100.808913
 20
-677.1341650000001
 30
0.0
 11
-86.237531
 21
-677.1341650000001
 31
0.0
  0
LINE
  5
2E10
330
33A7
100
AcDbEntity
  8
V0-VYPLNE
  6
DASHED
 62
    52
100
AcDbLine
 10
-100.808913
 20
-655.071956
 30
0.0
 11
-86.717585
 21
-655.071956
 31
0.0
  0
ELLIPSE
  5
2E11
330
33A7
100
AcDbEntity
  8
V0-VYPLNE
  6
DASHED
 62
    52
100
AcDbEllipse
 10
-26.242294
 20
-675.0882820000001
 30
0.0
 11
7.0
 21
0.0
 31
0.0
210
0.0
220
0.0
230
1.0
 40
0.885714
 41
-1.359195094209624
 42
-0.0899663602223122
  0
LINE
  5
2E12
330
33A7
100
AcDbEntity
  8
V0-VYPLNE
  6
DASHED
 62
    52
100
AcDbLine
 10
-25.080947
 20
-681.117722
 30
0.0
 11
-19.703137
 21
-685.876532
 31
0.0
  0
LINE
  5
2E13
330
33A7
100
AcDbEntity
  8
V0-VYPLNE
  6
DASHED
 62
    52
100
AcDbLine
 10
-82.18170000000001
 20
-631.5061030000001
 30
0.0
 11
-17.336463
 21
-614.24091
 31
0.0
  0
LINE
  5
2E14
330
33A7
100
AcDbEntity
  8
V0-VYPLNE
  6
DASHED
 62
    52
100
AcDbLine
 10
-100.808913
 20
-632.050524
 30
0.0
 11
-86.717585
 21
-632.050524
 31
0.0
  0
LINE
  5
2E15
330
33A7
100
AcDbEntity
  8
V0-VYPLNE
  6
DASHED
 62
    52
100
AcDbLine
 10
-100.808913
 20
-643.561241
 30
0.0
 11
-86.237531
 21
-643.561241
 31
0.0
  0
LINE
  5
2E16
330
33A7
100
AcDbEntity
  8
V0-VYPLNE
  6
DASHED
 62
    52
100
AcDbLine
 10
-100.808913
 20
-615.228171
 30
0.0
 11
-86.717585
 21
-615.228171
 31
0.0
  0
ELLIPSE
  5
2E17
330
33A7
100
AcDbEntity
  8
V0-VYPLNE
  6
DASHED
 62
    52
100
AcDbEllipse
 10
-51.2375
 20
-623.267139
 30
0.0
 11
-5.932655224560477
 21
1.136868377216160E-13
 31
0.0
210
0.0
220
0.0
230
1.0
 40
0.8857139999999998
 41
0.0
 42
6.283185307179586
  0
LINE
  5
2E18
330
33A7
100
AcDbEntity
  8
V0-VYPLNE
  6
DASHED
 62
    52
100
AcDbLine
 10
-100.808913
 20
-603.717454
 30
0.0
 11
-86.237531
 21
-603.717454
 31
0.0
  0
LINE
  5
2E19
330
33A7
100
AcDbEntity
  8
V0-VYPLNE
  6
DASHED
 62
    52
100
AcDbLine
 10
-100.808913
 20
-592.206739
 30
0.0
 11
-86.717585
 21
-592.206739
 31
0.0
  0
LINE
  5
2E1A
330
33A7
100
AcDbEntity
  8
V0-VYPLNE
  6
DASHED
 62
    52
100
AcDbLine
 10
-82.772023
 20
-561.402163
 30
0.0
 11
-68.655194
 21
-468.038083
 31
0.0
  0
LINE
  5
2E1B
330
33A7
100
AcDbEntity
  8
V0-VYPLNE
  6
DASHED
 62
    52
100
AcDbLine
 10
-19.703137
 20
-561.402163
 30
0.0
 11
-33.819806
 21
-468.038083
 31
0.0
  0
ELLIPSE
  5
2E1C
330
33A7
100
AcDbEntity
  8
V0-VYPLNE
  6
DASHED
 62
    52
100
AcDbEllipse
 10
-51.23758
 20
-675.24875
 30
0.0
 11
-126.0106159212972
 21
2.273736754432321E-13
 31
0.0
210
0.0
220
0.0
230
1.0
 40
0.885714
 41
-1.782397559380188
 42
-1.318137823878815
  0
LINE
  5
2E1D
330
33A7
100
AcDbEntity
  8
V0-VYPLNE
  6
DASHED
 62
    52
100
AcDbLine
 10
-77.39421299999999
 20
-566.160973
 30
0.0
 11
-82.772023
 21
-561.402163
 31
0.0
  0
LINE
  5
2E1E
330
33A7
100
AcDbEntity
  8
V0-VYPLNE
  6
DASHED
 62
    52
100
AcDbLine
 10
-100.808913
 20
-570.14453
 30
0.0
 11
-86.237531
 21
-570.14453
 31
0.0
  0
LINE
  5
2E1F
330
33A7
100
AcDbEntity
  8
V0-VYPLNE
  6
DASHED
 62
    52
100
AcDbLine
 10
-100.808913
 20
-566.651888
 30
0.0
 11
-91.236431
 21
-566.651888
 31
0.0
  0
LINE
  5
2E20
330
33A7
100
AcDbEntity
  8
V0-VYPLNE
  6
DASHED
 62
    52
100
AcDbLine
 10
-100.808913
 20
-580.216409
 30
0.0
 11
-86.237531
 21
-580.216409
 31
0.0
  0
ARC
  5
2E21
330
33A7
100
AcDbEntity
  8
V0-VYPLNE
  6
DASHED
 62
    52
 48
0.3
100
AcDbCircle
 10
-91.236431
 20
-571.650788
 30
0.0
 40
4.9989
100
AcDbArc
 50
0.0
 51
90.0
  0
LINE
  5
2E22
330
33A7
100
AcDbEntity
  8
V0-VYPLNE
  6
DASHED
 62
    52
100
AcDbLine
 10
-25.080947
 20
-566.160973
 30
0.0
 11
-19.703137
 21
-561.402163
 31
0.0
  0
LINE
  5
2E23
330
33A7
100
AcDbEntity
  8
V0-VYPLNE
  6
DASHED
 62
    52
100
AcDbLine
 10
-68.655194
 20
-468.038083
 30
0.0
 11
-33.819806
 21
-468.038083
 31
0.0
  0
LINE
  5
2E24
330
33A7
100
AcDbEntity
  8
V0-VYPLNE
  6
DASHDOT
 62
    63
100
AcDbLine
 10
-186.636813
 20
-442.576718
 30
0.0
 11
-151.111586
 21
-442.576718
 31
0.0
  0
LINE
  5
2E25
330
33A7
100
AcDbEntity
  8
V0-VYPLNE
  6
DASHDOT
 62
    63
100
AcDbLine
 10
-39.580934
 20
-442.576718
 30
0.0
 11
9.808689999999999
 21
-442.576718
 31
0.0
  0
CIRCLE
  5
2E37
330
33A7
100
AcDbEntity
  8
V0-OBRYS
  6
CONTINUOUS
 62
    90
100
AcDbCircle
 10
-144.590565
 20
-596.79304
 30
0.0
 40
2.347961
  0
CIRCLE
  5
2E38
330
33A7
100
AcDbEntity
  8
V0-OBRYS
  6
CONTINUOUS
 62
    90
100
AcDbCircle
 10
-73.928893
 20
-596.79304
 30
0.0
 40
2.347961
  0
CIRCLE
  5
2E39
330
33A7
100
AcDbEntity
  8
V0-OBRYS
  6
CONTINUOUS
 62
    90
100
AcDbCircle
 10
-144.590565
 20
-647.862809
 30
0.0
 40
2.347961
  0
CIRCLE
  5
2E3A
330
33A7
100
AcDbEntity
  8
V0-OBRYS
  6
CONTINUOUS
 62
    90
100
AcDbCircle
 10
-73.928893
 20
-647.862809
 30
0.0
 40
2.347961
  0
ARC
  5
2E3C
330
33A7
100
AcDbEntity
  8
V0-OBRYS
  6
CONTINUOUS
 62
    90
100
AcDbCircle
 10
-144.259729
 20
-597.3279250000001
 30
0.0
 40
5.0
100
AcDbArc
 50
90.0
 51
180.0
  0
ARC
  5
2E3D
330
33A7
100
AcDbEntity
  8
V0-OBRYS
  6
CONTINUOUS
 62
    90
100
AcDbCircle
 10
-74.25972899999999
 20
-597.3279250000001
 30
0.0
 40
5.0
100
AcDbArc
 50
0.0
 51
90.0
  0
ARC
  5
2E3E
330
33A7
100
AcDbEntity
  8
V0-OBRYS
  6
CONTINUOUS
 62
    90
100
AcDbCircle
 10
-74.25972899999999
 20
-647.3279250000001
 30
0.0
 40
5.0
100
AcDbArc
 50
270.0
 51
0.0
  0
ARC
  5
2E3F
330
33A7
100
AcDbEntity
  8
V0-OBRYS
  6
CONTINUOUS
 62
    90
100
AcDbCircle
 10
-144.259729
 20
-647.3279250000001
 30
0.0
 40
5.0
100
AcDbArc
 50
180.0
 51
270.0
  0
ARC
  5
2E5F
330
33A7
100
AcDbEntity
  8
V0-OBRYS
  6
CONTINUOUS
 62
    90
100
AcDbCircle
 10
-172.995108
 20
167.446445
 30
0.0
 40
1.240155
100
AcDbArc
 50
0.0
 51
180.0
  0
ARC
  5
2E60
330
33A7
100
AcDbEntity
  8
V0-OBRYS
  6
CONTINUOUS
 62
    90
100
AcDbCircle
 10
-5.656818
 20
167.446445
 30
0.0
 40
1.240155
100
AcDbArc
 50
0.0
 51
180.0
  0
ARC
  5
2E61
330
33A7
100
AcDbEntity
  8
V0-OBRYS
  6
CONTINUOUS
 62
    90
100
AcDbCircle
 10
-5.656818
 20
-217.08424
 30
0.0
 40
1.240155
100
AcDbArc
 50
180.0
 51
0.0
  0
ARC
  5
2E62
330
33A7
100
AcDbEntity
  8
V0-OBRYS
  6
CONTINUOUS
 62
    90
100
AcDbCircle
 10
-172.995108
 20
-217.08424
 30
0.0
 40
1.240155
100
AcDbArc
 50
180.0
 51
0.0
  0
LINE
  5
2E8C
330
33A7
100
AcDbEntity
  8
V0-VYPLNE
  6
DASHED
 62
    52
100
AcDbLine
 10
-156.300511
 20
-110.238882
 30
0.0
 11
-140.331341
 21
-102.130394
 31
0.0
  0
LINE
  5
2E8D
330
33A7
100
AcDbEntity
  8
V0-VYPLNE
  6
DASHED
 62
    52
100
AcDbLine
 10
-156.300511
 20
-113.020612
 30
0.0
 11
-137.851031
 21
-103.652725
 31
0.0
  0
LINE
  5
2E8E
330
33A7
100
AcDbEntity
  8
V0-VYPLNE
  6
DASHED
 62
    52
100
AcDbLine
 10
-153.820201
 20
-179.231418
 30
0.0
 11
-141.386783
 21
-179.231418
 31
0.0
  0
LINE
  5
2E8F
330
33A7
100
AcDbEntity
  8
V0-VYPLNE
  6
DASHED
 62
    52
100
AcDbLine
 10
-156.300511
 20
-181.711728
 30
0.0
 11
-141.386783
 21
-181.711728
 31
0.0
  0
LINE
  5
2E90
330
33A7
100
AcDbEntity
  8
V0-VYPLNE
  6
DASHED
 62
    52
100
AcDbLine
 10
-154.347783
 20
132.073933
 30
0.0
 11
-139.434055
 21
132.073933
 31
0.0
  0
LINE
  5
2E91
330
33A7
100
AcDbEntity
  8
V0-VYPLNE
  6
DASHED
 62
    52
100
AcDbLine
 10
-151.867473
 20
129.593623
 30
0.0
 11
-139.434055
 21
129.593623
 31
0.0
  0
LINE
  5
2E92
330
33A7
100
AcDbEntity
  8
V0-VYPLNE
  6
DASHED
 62
    52
100
AcDbLine
 10
-154.347783
 20
63.382818
 30
0.0
 11
-135.898304
 21
54.014931
 31
0.0
  0
LINE
  5
2E93
330
33A7
100
AcDbEntity
  8
V0-VYPLNE
  6
DASHED
 62
    52
100
AcDbLine
 10
-154.347783
 20
60.601088
 30
0.0
 11
-138.378614
 21
52.4926
 31
0.0
  0
LINE
  5
2E94
330
33A7
100
AcDbEntity
  8
V0-VYPLNE
  6
DASHED
 62
    52
100
AcDbLine
 10
-156.300511
 20
-182.318582
 30
0.0
 11
-156.300511
 21
-110.238882
 31
0.0
  0
LINE
  5
2E95
330
33A7
100
AcDbEntity
  8
V0-VYPLNE
  6
DASHED
 62
    52
100
AcDbLine
 10
-153.820201
 20
-179.231418
 30
0.0
 11
-153.820201
 21
-111.629747
 31
0.0
  0
LINE
  5
2E97
330
33A7
100
AcDbEntity
  8
V0-VYPLNE
  6
DASHED
 62
    52
100
AcDbLine
 10
-156.300511
 20
-182.318582
 30
0.0
 11
-156.300511
 21
-181.711728
 31
0.0
  0
LINE
  5
2E98
330
33A7
100
AcDbEntity
  8
V0-VYPLNE
  6
DASHED
 62
    52
100
AcDbLine
 10
-151.867473
 20
129.593623
 30
0.0
 11
-151.867473
 21
61.991953
 31
0.0
  0
LINE
  5
2E99
330
33A7
100
AcDbEntity
  8
V0-VYPLNE
  6
DASHED
 62
    52
100
AcDbLine
 10
-154.347783
 20
129.593623
 30
0.0
 11
-154.347783
 21
60.601088
 31
0.0
  0
LINE
  5
2E9A
330
33A7
100
AcDbEntity
  8
V0-VYPLNE
  6
DASHED
 62
    52
100
AcDbLine
 10
-154.347783
 20
132.680788
 30
0.0
 11
-154.347783
 21
132.073933
 31
0.0
  0
LINE
  5
2E9B
330
33A7
100
AcDbEntity
  8
V0-VYPLNE
  6
DASHED
 62
    52
100
AcDbLine
 10
-135.898304
 20
54.014931
 30
0.0
 11
-135.898304
 21
32.168563
 31
0.0
  0
LINE
  5
2E9C
330
33A7
100
AcDbEntity
  8
V0-VYPLNE
  6
DASHED
 62
    52
100
AcDbLine
 10
-138.378614
 20
52.4926
 30
0.0
 11
-138.378614
 21
32.168563
 31
0.0
  0
LINE
  5
2E9D
330
33A7
100
AcDbEntity
  8
V0-VYPLNE
  6
DASHED
 62
    52
100
AcDbLine
 10
-140.331341
 20
-102.130394
 30
0.0
 11
-140.331341
 21
-81.80635700000001
 31
0.0
  0
LINE
  5
2E9E
330
33A7
100
AcDbEntity
  8
V0-VYPLNE
  6
DASHED
 62
    52
100
AcDbLine
 10
-137.851031
 20
-103.652725
 30
0.0
 11
-137.851031
 21
-81.80635700000001
 31
0.0
  0
LINE
  5
2EB8
330
33A7
100
AcDbEntity
  8
V0-VYPLNE
  6
DASHED
 62
    52
100
AcDbLine
 10
-154.533606
 20
-708.687123
 30
0.0
 11
-138.564436
 21
-700.578636
 31
0.0
  0
LINE
  5
2EB9
330
33A7
100
AcDbEntity
  8
V0-VYPLNE
  6
DASHED
 62
    52
100
AcDbLine
 10
-154.533606
 20
-711.468854
 30
0.0
 11
-136.084126
 21
-702.100967
 31
0.0
  0
LINE
  5
2EBA
330
33A7
100
AcDbEntity
  8
V0-VYPLNE
  6
DASHED
 62
    52
100
AcDbLine
 10
-154.533606
 20
-777.679659
 30
0.0
 11
-139.619878
 21
-777.679659
 31
0.0
  0
LINE
  5
2EBB
330
33A7
100
AcDbEntity
  8
V0-VYPLNE
  6
DASHED
 62
    52
100
AcDbLine
 10
-154.533606
 20
-780.1599690000001
 30
0.0
 11
-139.619878
 21
-780.1599690000001
 31
0.0
  0
LINE
  5
2EBC
330
33A7
100
AcDbEntity
  8
V0-VYPLNE
  6
DASHED
 62
    52
100
AcDbLine
 10
-153.683088
 20
-466.374308
 30
0.0
 11
-138.76936
 21
-466.374308
 31
0.0
  0
LINE
  5
2EBD
330
33A7
100
AcDbEntity
  8
V0-VYPLNE
  6
DASHED
 62
    52
100
AcDbLine
 10
-151.202778
 20
-468.854618
 30
0.0
 11
-138.76936
 21
-468.854618
 31
0.0
  0
LINE
  5
2EBE
330
33A7
100
AcDbEntity
  8
V0-VYPLNE
  6
DASHED
 62
    52
100
AcDbLine
 10
-153.683088
 20
-535.065423
 30
0.0
 11
-135.233608
 21
-544.433311
 31
0.0
  0
LINE
  5
2EBF
330
33A7
100
AcDbEntity
  8
V0-VYPLNE
  6
DASHED
 62
    52
100
AcDbLine
 10
-153.683088
 20
-537.8471540000001
 30
0.0
 11
-137.713918
 21
-545.955642
 31
0.0
  0
LINE
  5
2EC0
330
33A7
100
AcDbEntity
  8
V0-VYPLNE
  6
DASHED
 62
    52
100
AcDbLine
 10
-154.533606
 20
-780.766824
 30
0.0
 11
-154.533606
 21
-708.687123
 31
0.0
  0
LINE
  5
2EC1
330
33A7
100
AcDbEntity
  8
V0-VYPLNE
  6
DASHED
 62
    52
100
AcDbLine
 10
-152.053296
 20
-780.766824
 30
0.0
 11
-152.053296
 21
-710.077989
 31
0.0
  0
ARC
  5
2EC2
330
33A7
100
AcDbEntity
  8
V0-VYPLNE
  6
DASHED
 62
    52
100
AcDbCircle
 10
-153.293451
 20
-780.766824
 30
0.0
 40
1.240155
100
AcDbArc
 50
180.0
 51
360.0
  0
LINE
  5
2EC3
330
33A7
100
AcDbEntity
  8
V0-VYPLNE
  6
DASHED
 62
    52
100
AcDbLine
 10
-154.533606
 20
-780.766824
 30
0.0
 11
-154.533606
 21
-780.1599690000001
 31
0.0
  0
LINE
  5
2EC4
330
33A7
100
AcDbEntity
  8
V0-VYPLNE
  6
DASHED
 62
    52
100
AcDbLine
 10
-151.202778
 20
-468.854618
 30
0.0
 11
-151.202778
 21
-536.456289
 31
0.0
  0
LINE
  5
2EC5
330
33A7
100
AcDbEntity
  8
V0-VYPLNE
  6
DASHED
 62
    52
100
AcDbLine
 10
-153.683088
 20
-468.854618
 30
0.0
 11
-153.683088
 21
-537.8471540000001
 31
0.0
  0
LINE
  5
2EC6
330
33A7
100
AcDbEntity
  8
V0-VYPLNE
  6
DASHED
 62
    52
100
AcDbLine
 10
-153.683088
 20
-465.767454
 30
0.0
 11
-153.683088
 21
-466.374308
 31
0.0
  0
LINE
  5
2EC7
330
33A7
100
AcDbEntity
  8
V0-VYPLNE
  6
DASHED
 62
    52
100
AcDbLine
 10
-135.233608
 20
-544.433311
 30
0.0
 11
-135.233608
 21
-566.651888
 31
0.0
  0
LINE
  5
2EC8
330
33A7
100
AcDbEntity
  8
V0-VYPLNE
  6
DASHED
 62
    52
100
AcDbLine
 10
-137.713918
 20
-545.955642
 30
0.0
 11
-137.713918
 21
-566.651888
 31
0.0
  0
LINE
  5
2EC9
330
33A7
100
AcDbEntity
  8
V0-VYPLNE
  6
DASHED
 62
    52
100
AcDbLine
 10
-138.564436
 20
-700.578636
 30
0.0
 11
-138.564436
 21
-680.626808
 31
0.0
  0
LINE
  5
2ECA
330
33A7
100
AcDbEntity
  8
V0-VYPLNE
  6
DASHED
 62
    52
100
AcDbLine
 10
-136.084126
 20
-702.100967
 30
0.0
 11
-136.084126
 21
-680.626808
 31
0.0
  0
DIMENSION
  5
2EF1
330
33A7
100
AcDbEntity
  8
V0-VYPLNE
  6
CONTINUOUS
 62
    41
100
AcDbDimension
  2
*D5
 10
-4.416663
 20
-259.5378529999999
 30
0.0
 11
-89.325963
 21
-247.5378529999999
 31
0.0
 70
    32
  3
ED20
100
AcDbAlignedDimension
 13
-174.235263
 23
-217.08424
 33
0.0
 14
-4.416663
 24
-217.08424
 34
0.0
100
AcDbRotatedDimension
  0
DIMENSION
  5
2F09
330
33A7
100
AcDbEntity
  8
V0-VYPLNE
  6
CONTINUOUS
 62
    41
100
AcDbDimension
  2
*D6
 10
56.91241199999967
 20
-202.381527
 30
0.0
 11
44.91241199999967
 21
-24.81889699999999
 31
0.0
 70
    32
  1
%%c<>
  3
ED20
100
AcDbAlignedDimension
 13
9.80869
 23
152.743733
 33
0.0
 14
9.80869
 24
-202.381527
 34
0.0
 50
90.0
100
AcDbRotatedDimension
  0
DIMENSION
  5
2F16
330
33A7
100
AcDbEntity
  8
V0-VYPLNE
  6
CONTINUOUS
 62
    41
100
AcDbDimension
  2
*D7
 10
96.1123860000007
 20
-218.08424
 30
0.0
 11
84.1123860000007
 21
-25.31889749999999
 31
0.0
 70
    32
  1
%%c<>
  3
ED20
100
AcDbAlignedDimension
 13
-4.416663
 23
167.446445
 33
0.0
 14
-4.416663
 24
-218.08424
 34
0.0
 50
90.0
100
AcDbRotatedDimension
  0
CIRCLE
  5
2F64
330
33A7
100
AcDbEntity
  8
V0-OBRYS
  6
CONTINUOUS
 62
    90
100
AcDbCircle
 10
266.910294
 20
100.651104
 30
0.0
 40
6.07676
  0
CIRCLE
  5
2F65
330
33A7
100
AcDbEntity
  8
V0-OBRYS
  6
CONTINUOUS
 62
    90
100
AcDbCircle
 10
214.938918
 20
-24.818897
 30
0.0
 40
6.07676
  0
CIRCLE
  5
2F66
330
33A7
100
AcDbEntity
  8
V0-OBRYS
  6
CONTINUOUS
 62
    90
100
AcDbCircle
 10
266.910294
 20
-150.288898
 30
0.0
 40
6.07676
  0
CIRCLE
  5
2F67
330
33A7
100
AcDbEntity
  8
V0-OBRYS
  6
CONTINUOUS
 62
    90
100
AcDbCircle
 10
392.380296
 20
-202.260275
 30
0.0
 40
6.07676
  0
CIRCLE
  5
2F68
330
33A7
100
AcDbEntity
  8
V0-OBRYS
  6
CONTINUOUS
 62
    90
100
AcDbCircle
 10
517.850297
 20
-150.288898
 30
0.0
 40
6.07676
  0
CIRCLE
  5
2F69
330
33A7
100
AcDbEntity
  8
V0-OBRYS
  6
CONTINUOUS
 62
    90
100
AcDbCircle
 10
569.821673
 20
-24.818897
 30
0.0
 40
6.07676
  0
CIRCLE
  5
2F6A
330
33A7
100
AcDbEntity
  8
V0-OBRYS
  6
CONTINUOUS
 62
    90
100
AcDbCircle
 10
517.850297
 20
100.651104
 30
0.0
 40
6.07676
  0
DIMENSION
  5
2FB2
330
33A7
100
AcDbEntity
  8
V0-VYPLNE
  6
CONTINUOUS
 62
    41
100
AcDbDimension
  2
*D8
 10
-208.5128110000005
 20
-81.80635700000001
 30
0.0
 11
-220.5128110000005
 21
-24.818897
 31
0.0
 70
    32
  1
%%c<>
  3
ED20
100
AcDbAlignedDimension
 13
-153.045203
 23
32.168563
 33
0.0
 14
-153.045203
 24
-81.80635700000001
 34
0.0
 50
90.0
100
AcDbRotatedDimension
  0
LINE
  5
2FC3
330
33A7
100
AcDbEntity
  8
V0-OBRYS
  6
CONTINUOUS
 62
    90
100
AcDbLine
 10
-174.235263
 20
-420.874005
 30
0.0
 11
-171.754953
 21
-420.874005
 31
0.0
  0
LINE
  5
2FC4
330
33A7
100
AcDbEntity
  8
V0-OBRYS
  6
CONTINUOUS
 62
    90
100
AcDbLine
 10
-6.896973
 20
-420.874005
 30
0.0
 11
-4.416663
 21
-420.874005
 31
0.0
  0
LINE
  5
2FC5
330
33A7
100
AcDbEntity
  8
V0-OBRYS
  6
CONTINUOUS
 62
    90
100
AcDbLine
 10
-174.235263
 20
-826.40469
 30
0.0
 11
-171.754953
 21
-826.40469
 31
0.0
  0
LINE
  5
2FC6
330
33A7
100
AcDbEntity
  8
V0-OBRYS
  6
CONTINUOUS
 62
    90
100
AcDbLine
 10
-6.896973
 20
-826.40469
 30
0.0
 11
-4.416663
 21
-826.40469
 31
0.0
  0
POINT
  5
303E
330
33A7
100
AcDbEntity
  8
V0-VYPLNE
  6
CONTINUOUS
 62
    41
100
AcDbPoint
 10
-174.235263
 20
-24.818897
 30
0.0
  0
POINT
  5
303F
330
33A7
100
AcDbEntity
  8
V0-VYPLNE
  6
CONTINUOUS
 62
    41
100
AcDbPoint
 10
-4.416663
 20
-24.818897
 30
0.0
  0
POINT
  5
3040
330
33A7
100
AcDbEntity
  8
V0-VYPLNE
  6
CONTINUOUS
 62
    41
100
AcDbPoint
 10
-4.416663
 20
-623.639348
 30
0.0
  0
POINT
  5
3041
330
33A7
100
AcDbEntity
  8
V0-VYPLNE
  6
CONTINUOUS
 62
    41
100
AcDbPoint
 10
-174.235263
 20
-623.639348
 30
0.0
  0
LINE
  5
336D
330
33A7
100
AcDbEntity
  8
V0-OBRYS
  6
CONTINUOUS
 62
    90
100
AcDbLine
 10
-149.221189
 20
162.565846
 30
0.0
 11
-69.221189
 21
162.565846
 31
0.0
  0
LINE
  5
336E
330
33A7
100
AcDbEntity
  8
V0-OBRYS
  6
CONTINUOUS
 62
    90
100
AcDbLine
 10
-69.221189
 20
132.565846
 30
0.0
 11
-149.221189
 21
132.565846
 31
0.0
  0
LINE
  5
336F
330
33A7
100
AcDbEntity
  8
V0-OBRYS
  6
CONTINUOUS
 62
    90
100
AcDbLine
 10
-149.221189
 20
172.565846
 30
0.0
 11
-69.221189
 21
172.565846
 31
0.0
  0
LINE
  5
3370
330
33A7
100
AcDbEntity
  8
V0-OBRYS
  6
CONTINUOUS
 62
    90
100
AcDbLine
 10
-149.221189
 20
132.565846
 30
0.0
 11
-149.221189
 21
172.565846
 31
0.0
  0
LINE
  5
3371
330
33A7
100
AcDbEntity
  8
V0-OBRYS
  6
CONTINUOUS
 62
    90
100
AcDbLine
 10
-69.221189
 20
172.565846
 30
0.0
 11
-69.221189
 21
132.565846
 31
0.0
  0
LWPOLYLINE
  5
337D
330
33A7
100
AcDbEntity
  8
V0-VYPLNE
  6
CONTINUOUS
 62
    41
100
AcDbPolyline
 90
        4
 70
     1
 43
0.0
 10
-374.5206844684647
 20
-211.8595138788779
 10
-392.380296
 20
-202.260275
 10
-378.5993355389945
 20
-217.1329425443014
 10
-378.5993355389945
 20
-217.1329425443014
210
0.0
220
0.0
230
-1.0
1001
VDEXTRAPARAM
1071
       65
1071
        0
1071
        0
1040
1.0
1000

1000

1040
0.0
1040
0.0
  0
HATCH
  5
3414
330
33A7
100
AcDbEntity
  8
V0-VYPLNE
  6
CONTINUOUS
 62
    41
100
AcDbHatch
 10
0.0
 20
0.0
 30
0.0
210
0.0
220
0.0
230
-1.0
  2
SOLID
 70
     1
 71
     0
 91
        1
 92
        2
 72
     0
 73
     1
 93
        3
 10
-374.5206844684647
 20
-211.8595138788779
 10
-392.380296
 20
-202.260275
 10
-378.5993355389945
 20
-217.1329425443014
 97
        0
 75
     0
 76
     1
 98
        1
 10
0.0
 20
0.0
1001
VDEXTRAPARAM
1071
       65
1071
        0
1071
        0
1040
1.0
1000

1000

1040
0.0
1040
0.0
1001
VD_TEMPHATCH
1000
VD_TEMPHATCH
  0
LWPOLYLINE
  5
337E
330
33A7
100
AcDbEntity
  8
V0-VYPLNE
  6
CONTINUOUS
 62
    41
100
AcDbPolyline
 90
        3
 70
     0
 43
0.0
 10
376.5600100037296
 20
-214.4962282115897
 10
329.687
 20
-250.749426
 10
143.671252
 20
-250.749426
  0
TEXT
  5
3383
330
33A7
100
AcDbEntity
  8
V0-VYPLNE
  6
CONTINUOUS
 62
    41
100
AcDbText
 10
80.06795238095239
 20
-248.749426
 30
0.0
 40
20.0
  1
8 OTVORU %%c10
  7
ED40
100
AcDbText
  0
VIEWPORT
  5
3415
330
33A3
100
AcDbEntity
 67
     1
  8
0
 60
     1
100
AcDbViewport
 10
261.517699
 20
148.5
 30
0.0
 40
297.0
 41
297.0
 68
     0
 69
     1
1001
VD_INVISIBLE_NOT_FOR_READ
1000
VD_INVISIBLE_NOT_FOR_READ
1001
ACAD
1000
MVIEW
1002
{
1070
    16
1010
0.0
1020
0.0
1030
0.0
1010
0.0
1020
0.0
1030
1.0
1040
6.2831853071796
1040
297.0
1040
261.517699
1040
148.5
1040
0.0
1040
0.0
1040
0.0
1070
     0
1070
   100
1070
     0
1070
     1
1070
     0
1070
     0
1070
     0
1070
     0
1040
0.0
1040
0.0
1040
0.0
1040
1.0
1040
1.0
1040
0.0
1040
0.0
1070
     0
1002
{
1002
}
1002
}
  0
VIEWPORT
  5
3416
330
33A3
100
AcDbEntity
 67
     1
  8
0
 60
     1
100
AcDbViewport
 10
261.517699
 20
148.5
 30
0.0
 40
297.0
 41
297.0
 68
     0
 69
     2
1001
VD_INVISIBLE_NOT_FOR_READ
1000
VD_INVISIBLE_NOT_FOR_READ
1001
ACAD
1000
MVIEW
1002
{
1070
    16
1010
0.0
1020
0.0
1030
0.0
1010
0.0
1020
0.0
1030
1.0
1040
6.2831853071796
1040
297.0
1040
261.517699
1040
148.5
1040
0.0
1040
0.0
1040
0.0
1070
     0
1070
   100
1070
     0
1070
     1
1070
     0
1070
     0
1070
     0
1070
     0
1040
0.0
1040
0.0
1040
0.0
1040
1.0
1040
1.0
1040
0.0
1040
0.0
1070
     0
1002
{
1002
}
1002
}
  0
ENDSEC
  0
SECTION
  2
OBJECTS
  0
DICTIONARY
  5
3394
330
0
100
AcDbDictionary
  3
ACAD_GROUP
350
3395
  3
ACAD_LAYOUT
350
33A2
  3
ACAD_MLINESTYLE
350
339F
  3
ACAD_PLOTSETTINGS
350
33A1
  3
ACDBHEADERROUNDTRIPXREC
350
3417
  3
VECTORDRAW_OBJECTS
350
33B7
  0
DICTIONARY
  5
3437
330
33B1
100
AcDbDictionary
280
     1
  3
ACAD_XREC_ROUNDTRIP
360
3438
  0
DICTIONARY
  5
3395
102
{ACAD_REACTORS
330
3394
102
}
330
3394
100
AcDbDictionary
  0
DICTIONARY
  5
33A2
102
{ACAD_REACTORS
330
3394
102
}
330
3394
100
AcDbDictionary
  0
DICTIONARY
  5
339F
102
{ACAD_REACTORS
330
3394
102
}
330
3394
100
AcDbDictionary
  3
STANDARD
350
33A0
  0
DICTIONARY
  5
33A1
102
{ACAD_REACTORS
330
3394
102
}
330
3394
100
AcDbDictionary
  0
DICTIONARY
  5
3417
102
{ACAD_REACTORS
330
3394
102
}
330
3394
100
AcDbDictionary
  3
CEPSNTYPE
350
3420
  3
DIMSTYLEDATA
350
3436
  3
FINGERPRINTGUID
350
3421
  3
HYPERLINKBASE
350
341A
  3
INSUNITS
350
341F
  3
LAYOUTDICT
350
341C
  3
LWETCUNION
350
341E
  3
PLOTSETDICT
350
341D
  3
PSVPSCALE
350
3423
  3
PUCSBASE
350
3426
  3
PUCSORGBACK
350
342C
  3
PUCSORGBOTTOM
350
3428
  3
PUCSORGFRONT
350
342B
  3
PUCSORGLEFT
350
3429
  3
PUCSORGRIGHT
350
342A
  3
PUCSORGTOP
350
3427
  3
PUCSORTHOREF
350
3424
  3
PUCSORTHOVIEW
350
3425
  3
STYLESHEET
350
341B
  3
TSTACKALIGN
350
3418
  3
TSTACKSIZE
350
3419
  3
UCSBASE
350
342F
  3
UCSORGBACK
350
3435
  3
UCSORGBOTTOM
350
3431
  3
UCSORGFRONT
350
3434
  3
UCSORGLEFT
350
3432
  3
UCSORGRIGHT
350
3433
  3
UCSORGTOP
350
3430
  3
UCSORTHOREF
350
342D
  3
UCSORTHOVIEW
350
342E
  3
VERSIONGUID
350
3422
  0
DICTIONARY
  5
33B7
102
{ACAD_REACTORS
330
3394
102
}
330
3394
100
AcDbDictionary
  3
SERIALNO
350
33B8
  0
XRECORD
  5
3438
102
{ACAD_REACTORS
330
3437
102
}
330
3437
100
AcDbXrecord
102
UCS
 74
     0
 71
     1
 10
0.0
 20
0.0
 30
0.0
 10
1.0
 20
0.0
 30
0.0
 10
0.0
 20
1.0
 30
0.0
146
0.0
 79
     0
102
VIEW
281
     0
  0
MLINESTYLE
  5
33A0
102
{ACAD_REACTORS
330
339F
102
}
330
339F
100
AcDbMlineStyle
  2
Standard
 70
     0
  3

 62
   256
 51
90.0
 52
90.0
 71
     2
 49
0.5
 62
   256
  6
BYLAYER
 49
-0.5
 62
   256
  6
BYLAYER
  0
XRECORD
  5
3420
102
{ACAD_REACTORS
330
3417
102
}
330
3417
100
AcDbXrecord
 90
        0
  0
XRECORD
  5
3436
102
{ACAD_REACTORS
330
3417
102
}
330
3417
100
AcDbXrecord
1000
DSTYLE
1002
{
1070
    41
 40
20.0
1070
   342
340
90
1070
   177
 70
    41
1070
   178
 70
    41
1070
   271
 70
     0
1070
    44
 40
1.25
1070
    42
 40
1.0
1070
   147
 40
2.0
1070
    77
 70
     1
1070
    73
 70
     0
1070
   174
 70
     1
1070
   172
 70
     1
1070
    74
 70
     0
1070
   340
340
331
1070
   140
 40
20.0
1070
   288
 70
     1
1002
}
  0
XRECORD
  5
3421
102
{ACAD_REACTORS
330
3417
102
}
330
3417
100
AcDbXrecord
  1
{FAEB1C30-E019-11D5-929B-00C0DF256EC4}
  0
XRECORD
  5
341A
102
{ACAD_REACTORS
330
3417
102
}
330
3417
100
AcDbXrecord
  1

  0
XRECORD
  5
341F
102
{ACAD_REACTORS
330
3417
102
}
330
3417
100
AcDbXrecord
 90
        1
  0
XRECORD
  5
341C
102
{ACAD_REACTORS
330
3417
102
}
330
3417
100
AcDbXrecord
340
33A2
  0
XRECORD
  5
341E
102
{ACAD_REACTORS
330
3417
102
}
330
3417
100
AcDbXrecord
 90
     2560
  0
XRECORD
  5
341D
102
{ACAD_REACTORS
330
3417
102
}
330
3417
100
AcDbXrecord
340
33A1
  0
XRECORD
  5
3423
102
{ACAD_REACTORS
330
3417
102
}
330
3417
100
AcDbXrecord
 40
0.0
  0
XRECORD
  5
3426
102
{ACAD_REACTORS
330
3417
102
}
330
3417
100
AcDbXrecord
340
0
  0
XRECORD
  5
342C
102
{ACAD_REACTORS
330
3417
102
}
330
3417
100
AcDbXrecord
 10
0.0
 20
0.0
 30
0.0
  0
XRECORD
  5
3428
102
{ACAD_REACTORS
330
3417
102
}
330
3417
100
AcDbXrecord
 10
0.0
 20
0.0
 30
0.0
  0
XRECORD
  5
342B
102
{ACAD_REACTORS
330
3417
102
}
330
3417
100
AcDbXrecord
 10
0.0
 20
0.0
 30
0.0
  0
XRECORD
  5
3429
102
{ACAD_REACTORS
330
3417
102
}
330
3417
100
AcDbXrecord
 10
0.0
 20
0.0
 30
0.0
  0
XRECORD
  5
342A
102
{ACAD_REACTORS
330
3417
102
}
330
3417
100
AcDbXrecord
 10
0.0
 20
0.0
 30
0.0
  0
XRECORD
  5
3427
102
{ACAD_REACTORS
330
3417
102
}
330
3417
100
AcDbXrecord
 10
0.0
 20
0.0
 30
0.0
  0
XRECORD
  5
3424
102
{ACAD_REACTORS
330
3417
102
}
330
3417
100
AcDbXrecord
340
0
  0
XRECORD
  5
3425
102
{ACAD_REACTORS
330
3417
102
}
330
3417
100
AcDbXrecord
 70
     0
  0
XRECORD
  5
341B
102
{ACAD_REACTORS
330
3417
102
}
330
3417
100
AcDbXrecord
  1

  0
XRECORD
  5
3418
102
{ACAD_REACTORS
330
3417
102
}
330
3417
100
AcDbXrecord
 90
        1
  0
XRECORD
  5
3419
102
{ACAD_REACTORS
330
3417
102
}
330
3417
100
AcDbXrecord
 90
       70
  0
XRECORD
  5
342F
102
{ACAD_REACTORS
330
3417
102
}
330
3417
100
AcDbXrecord
340
0
  0
XRECORD
  5
3435
102
{ACAD_REACTORS
330
3417
102
}
330
3417
100
AcDbXrecord
 10
0.0
 20
0.0
 30
0.0
  0
XRECORD
  5
3431
102
{ACAD_REACTORS
330
3417
102
}
330
3417
100
AcDbXrecord
 10
0.0
 20
0.0
 30
0.0
  0
XRECORD
  5
3434
102
{ACAD_REACTORS
330
3417
102
}
330
3417
100
AcDbXrecord
 10
0.0
 20
0.0
 30
0.0
  0
XRECORD
  5
3432
102
{ACAD_REACTORS
330
3417
102
}
330
3417
100
AcDbXrecord
 10
0.0
 20
0.0
 30
0.0
  0
XRECORD
  5
3433
102
{ACAD_REACTORS
330
3417
102
}
330
3417
100
AcDbXrecord
 10
0.0
 20
0.0
 30
0.0
  0
XRECORD
  5
3430
102
{ACAD_REACTORS
330
3417
102
}
330
3417
100
AcDbXrecord
 10
0.0
 20
0.0
 30
0.0
  0
XRECORD
  5
342D
102
{ACAD_REACTORS
330
3417
102
}
330
3417
100
AcDbXrecord
340
0
  0
XRECORD
  5
342E
102
{ACAD_REACTORS
330
3417
102
}
330
3417
100
AcDbXrecord
 70
     0
  0
XRECORD
  5
3422
102
{ACAD_REACTORS
330
3417
102
}
330
3417
100
AcDbXrecord
  1
{FAEB1C32-E019-11D5-929B-00C0DF256EC4}
  0
XRECORD
  5
33B8
102
{ACAD_REACTORS
330
33B7
102
}
330
33B7
100
AcDbXrecord
1000
rInJVR9YY4Q8hfPWdUq5j5319
1070
     4
1070
     6
  0
ENDSEC
  0
EOF
