  0
SECTION
  2
HEADER
  9
$ACADVER
  1
AC1015
  9
$ACADMAINTVER
 70
     6
  9
$DWGCODEPAGE
  3
ANSI_1250
  9
$INSBASE
 10
0.0
 20
0.0
 30
0.0
  9
$EXTMIN
 10
375.9105151223019
 20
-83.14558041495184
 30
0.0
  9
$EXTMAX
 10
1004.550588672153
 20
318.7477361332257
 30
0.0
  9
$LIMMIN
 10
0.0
 20
0.0
  9
$LIMMAX
 10
12.0
 20
9.0
  9
$ORTHOMODE
 70
     0
  9
$REGENMODE
 70
     1
  9
$FILLMODE
 70
     1
  9
$QTEXTMODE
 70
     0
  9
$MIRRTEXT
 70
     1
  9
$LTSCALE
 40
1.0
  9
$ATTMODE
 70
     1
  9
$TEXTSIZE
 40
0.2
  9
$TRACEWID
 40
0.05
  9
$TEXTSTYLE
  7
Standard
  9
$CLAYER
  8
popis
  9
$CELTYPE
  6
ByLayer
  9
$CECOLOR
 62
   256
  9
$CELTSCALE
 40
1.0
  9
$DISPSILH
 70
     0
  9
$DIMSCALE
 40
10.0
  9
$DIMASZ
 40
2.0
  9
$DIMEXO
 40
0.625
  9
$DIMDLI
 40
0.38
  9
$DIMRND
 40
0.0
  9
$DIMDLE
 40
0.0
  9
$DIMEXE
 40
1.25
  9
$DIMTP
 40
0.0
  9
$DIMTM
 40
0.0
  9
$DIMTXT
 40
2.0
  9
$DIMCEN
 40
0.09
  9
$DIMTSZ
 40
0.0
  9
$DIMTOL
 70
     0
  9
$DIMLIM
 70
     0
  9
$DIMTIH
 70
     0
  9
$DIMTOH
 70
     0
  9
$DIMSE1
 70
     0
  9
$DIMSE2
 70
     0
  9
$DIMTAD
 70
     1
  9
$DIMZIN
 70
     0
  9
$DIMBLK
  1
VDDIM_DEFAULT
  9
$DIMASO
 70
     1
  9
$DIMSHO
 70
     1
  9
$DIMPOST
  1

  9
$DIMAPOST
  1

  9
$DIMALT
 70
     0
  9
$DIMALTD
 70
     2
  9
$DIMALTF
 40
25.4
  9
$DIMLFAC
 40
1.0
  9
$DIMTOFL
 70
     1
  9
$DIMTVP
 40
0.0
  9
$DIMTIX
 70
     1
  9
$DIMSOXD
 70
     0
  9
$DIMSAH
 70
     0
  9
$DIMBLK1
  1

  9
$DIMBLK2
  1

  9
$DIMSTYLE
  2
ISO-25
  9
$DIMCLRD
 70
     0
  9
$DIMCLRE
 70
     0
  9
$DIMCLRT
 70
     0
  9
$DIMTFAC
 40
1.0
  9
$DIMGAP
 40
0.625
  9
$DIMJUST
 70
     0
  9
$DIMSD1
 70
     0
  9
$DIMSD2
 70
     0
  9
$DIMTOLJ
 70
     1
  9
$DIMTZIN
 70
     0
  9
$DIMALTZ
 70
     0
  9
$DIMALTTZ
 70
     0
  9
$DIMUPT
 70
     1
  9
$DIMDEC
 70
     2
  9
$DIMTDEC
 70
     4
  9
$DIMALTU
 70
     2
  9
$DIMALTTD
 70
     2
  9
$DIMTXSTY
  7
Standard
  9
$DIMAUNIT
 70
     0
  9
$DIMADEC
 70
     0
  9
$DIMALTRND
 40
0.0
  9
$DIMAZIN
 70
     0
  9
$DIMDSEP
 70
    46
  9
$DIMATFIT
 70
     3
  9
$DIMFRAC
 70
     0
  9
$DIMLDRBLK
  1

  9
$DIMLUNIT
 70
     2
  9
$DIMLWD
 70
    -2
  9
$DIMLWE
 70
    -2
  9
$DIMTMOVE
 70
     0
  9
$LUNITS
 70
     2
  9
$LUPREC
 70
     4
  9
$SKETCHINC
 40
0.1
  9
$FILLETRAD
 40
0.5
  9
$AUNITS
 70
     0
  9
$AUPREC
 70
     0
  9
$MENU
  1
.
  9
$ELEVATION
 40
0.0
  9
$PELEVATION
 40
0.0
  9
$THICKNESS
 40
0.0
  9
$LIMCHECK
 70
     0
  9
$CHAMFERA
 40
0.5
  9
$CHAMFERB
 40
0.5
  9
$CHAMFERC
 40
1.0
  9
$CHAMFERD
 40
0.0
  9
$SKPOLY
 70
     0
  9
$TDCREATE
 40
2455595.679350938
  9
$TDUCREATE
 40
2455595.637684271
  9
$TDUPDATE
 40
2455595.679350949
  9
$TDUUPDATE
 40
2455595.637684282
  9
$TDINDWG
 40
0.0000000116
  9
$TDUSRTIMER
 40
0.0000000116
  9
$USRTIMER
 70
     1
  9
$ANGBASE
 50
0.0
  9
$ANGDIR
 70
     0
  9
$PDMODE
 70
     0
  9
$PDSIZE
 40
0.0
  9
$PLINEWID
 40
0.0
  9
$SPLFRAME
 70
     0
  9
$SPLINETYPE
 70
     6
  9
$SPLINESEGS
 70
     8
  9
$HANDSEED
  5
377
  9
$SURFTAB1
 70
     6
  9
$SURFTAB2
 70
     6
  9
$SURFTYPE
 70
     6
  9
$SURFU
 70
     6
  9
$SURFV
 70
     6
  9
$UCSBASE
  2

  9
$UCSNAME
  2

  9
$UCSORG
 10
0.0
 20
0.0
 30
0.0
  9
$UCSXDIR
 10
1.0
 20
0.0
 30
0.0
  9
$UCSYDIR
 10
0.0
 20
1.0
 30
0.0
  9
$UCSORTHOREF
  2

  9
$UCSORTHOVIEW
 70
     0
  9
$UCSORGTOP
 10
0.0
 20
0.0
 30
0.0
  9
$UCSORGBOTTOM
 10
0.0
 20
0.0
 30
0.0
  9
$UCSORGLEFT
 10
0.0
 20
0.0
 30
0.0
  9
$UCSORGRIGHT
 10
0.0
 20
0.0
 30
0.0
  9
$UCSORGFRONT
 10
0.0
 20
0.0
 30
0.0
  9
$UCSORGBACK
 10
0.0
 20
0.0
 30
0.0
  9
$PUCSBASE
  2

  9
$PUCSNAME
  2

  9
$PUCSORG
 10
0.0
 20
0.0
 30
0.0
  9
$PUCSXDIR
 10
1.0
 20
0.0
 30
0.0
  9
$PUCSYDIR
 10
0.0
 20
1.0
 30
0.0
  9
$PUCSORTHOREF
  2

  9
$PUCSORTHOVIEW
 70
     0
  9
$PUCSORGTOP
 10
0.0
 20
0.0
 30
0.0
  9
$PUCSORGBOTTOM
 10
0.0
 20
0.0
 30
0.0
  9
$PUCSORGLEFT
 10
0.0
 20
0.0
 30
0.0
  9
$PUCSORGRIGHT
 10
0.0
 20
0.0
 30
0.0
  9
$PUCSORGFRONT
 10
0.0
 20
0.0
 30
0.0
  9
$PUCSORGBACK
 10
0.0
 20
0.0
 30
0.0
  9
$USERI1
 70
     0
  9
$USERI2
 70
     0
  9
$USERI3
 70
     0
  9
$USERI4
 70
     0
  9
$USERI5
 70
     0
  9
$USERR1
 40
0.0
  9
$USERR2
 40
0.0
  9
$USERR3
 40
0.0
  9
$USERR4
 40
0.0
  9
$USERR5
 40
0.0
  9
$WORLDVIEW
 70
     1
  9
$SHADEDGE
 70
     3
  9
$SHADEDIF
 70
    70
  9
$TILEMODE
 70
     1
  9
$MAXACTVP
 70
    64
  9
$PINSBASE
 10
0.0
 20
0.0
 30
0.0
  9
$PLIMCHECK
 70
     0
  9
$PEXTMIN
 10
1.000000000000000E+20
 20
1.000000000000000E+20
 30
1.000000000000000E+20
  9
$PEXTMAX
 10
-1.000000000000000E+20
 20
-1.000000000000000E+20
 30
-1.000000000000000E+20
  9
$PLIMMIN
 10
0.0
 20
0.0
  9
$PLIMMAX
 10
12.0
 20
9.0
  9
$UNITMODE
 70
     0
  9
$VISRETAIN
 70
     1
  9
$PLINEGEN
 70
     0
  9
$PSLTSCALE
 70
     1
  9
$TREEDEPTH
 70
  3020
  9
$CMLSTYLE
  2
Standard
  9
$CMLJUST
 70
     0
  9
$CMLSCALE
 40
1.0
  9
$PROXYGRAPHICS
 70
     1
  9
$MEASUREMENT
 70
     0
  9
$CELWEIGHT
370
    -1
  9
$ENDCAPS
280
     0
  9
$JOINSTYLE
280
     0
  9
$LWDISPLAY
290
     0
  9
$INSUNITS
 70
     1
  9
$HYPERLINKBASE
  1

  9
$STYLESHEET
  1

  9
$XEDIT
290
     1
  9
$CEPSNTYPE
380
     0
  9
$PSTYLEMODE
290
     0
  9
$FINGERPRINTGUID
  2
{FAEB1C30-E019-11D5-929B-00C0DF256EC4}
  9
$VERSIONGUID
  2
{FAEB1C32-E019-11D5-929B-00C0DF256EC4}
  9
$EXTNAMES
290
     1
  9
$PSVPSCALE
 40
0.0
  9
$OLESTARTUP
290
     0
  0
ENDSEC
  0
SECTION
  2
CLASSES
  0
CLASS
  1
ACDBDICTIONARYWDFLT
  2
AcDbDictionaryWithDefault
  3
ObjectDBX Classes
 90
        0
280
     0
281
     0
  0
CLASS
  1
ACDBPLACEHOLDER
  2
AcDbPlaceHolder
  3
ObjectDBX Classes
 90
        0
280
     0
281
     0
  0
CLASS
  1
LAYOUT
  2
AcDbLayout
  3
ObjectDBX Classes
 90
        0
280
     0
281
     0
  0
ENDSEC
  0
SECTION
  2
TABLES
  0
TABLE
  2
VPORT
  5
309
330
0
100
AcDbSymbolTable
 70
     2
  0
VPORT
  5
32A
330
309
100
AcDbSymbolTableRecord
100
AcDbViewportTableRecord
  2
*Active
 70
     0
 10
0.0
 20
0.0
 11
1.0
 21
1.0
 12
809.7659342601056
 22
-58.54923567313415
 13
0.0
 23
0.0
 14
10.0
 24
10.0
 15
10.0
 25
10.0
 16
0.0
 26
0.0
 36
1.0
 17
0.0
 27
0.0
 37
0.0
 40
841.5096227043488
 41
0.0211010739230626
 42
50.0
 43
0.0
 44
0.0
 50
0.0
 51
0.0000000000007958
 71
     0
 72
   100
 73
     1
 74
     3
 75
     0
 76
     0
 77
     0
 78
     0
281
     0
 65
     1
110
0.0
120
0.0
130
0.0
111
1.0
121
0.0
131
0.0
112
0.0
122
1.0
132
0.0
 79
     0
146
0.0
  0
ENDTAB
  0
TABLE
  2
LTYPE
  5
306
330
0
100
AcDbSymbolTable
 70
    25
  0
LTYPE
  5
315
330
306
100
AcDbSymbolTableRecord
100
AcDbLinetypeTableRecord
  2
ByBlock
 70
     0
  3

 72
    65
 73
     0
 40
0.0
  0
LTYPE
  5
316
330
306
100
AcDbSymbolTableRecord
100
AcDbLinetypeTableRecord
  2
ByLayer
 70
     0
  3

 72
    65
 73
     0
 40
0.0
  0
LTYPE
  5
317
330
306
100
AcDbSymbolTableRecord
100
AcDbLinetypeTableRecord
  2
Continuous
 70
     0
  3
Solid line
 72
    65
 73
     0
 40
0.0
  0
LTYPE
  5
332
330
306
100
AcDbSymbolTableRecord
100
AcDbLinetypeTableRecord
  2
CENTER
 70
     0
  3
Center ____ _ ____ _ ____ _ ____ _ ____ _ ____
 72
    65
 73
     4
 40
2.0
 49
1.25
 74
     0
 49
-0.25
 74
     0
 49
0.25
 74
     0
 49
-0.25
 74
     0
  0
LTYPE
  5
333
330
306
100
AcDbSymbolTableRecord
100
AcDbLinetypeTableRecord
  2
DASHDOT
 70
     0
  3
Dashdot __ . __ . __ . __ . __ . __ . __ . __
 72
    65
 73
     4
 40
1.0
 49
0.5
 74
     0
 49
-0.25
 74
     0
 49
0.0
 74
     0
 49
-0.25
 74
     0
  0
LTYPE
  5
334
330
306
100
AcDbSymbolTableRecord
100
AcDbLinetypeTableRecord
  2
DASHED
 70
     0
  3
Dashed __ __ __ __ __ __ __ __ __ __ __ __ __ _
 72
    65
 73
     2
 40
0.75
 49
0.5
 74
     0
 49
-0.25
 74
     0
  0
LTYPE
  5
335
330
306
100
AcDbSymbolTableRecord
100
AcDbLinetypeTableRecord
  2
HIDDEN
 70
     0
  3
Hidden __ __ __ __ __ __ __ __ __ __ __ __ __ __
 72
    65
 73
     2
 40
0.375
 49
0.25
 74
     0
 49
-0.125
 74
     0
  0
LTYPE
  5
336
330
306
100
AcDbSymbolTableRecord
100
AcDbLinetypeTableRecord
  2
HIDDEN2
 70
     0
  3
Hidden2 _ _ _ _ _ _ _ _ _ _ _ _ _ _ _ _ _ 
 72
    65
 73
     2
 40
0.1875
 49
0.125
 74
     0
 49
-0.0625
 74
     0
  0
LTYPE
  5
337
330
306
100
AcDbSymbolTableRecord
100
AcDbLinetypeTableRecord
  2
BORDER
 70
     0
  3
Border __ __ . __ __ . __ __ . __ __ . __ __ .
 72
    65
 73
     6
 40
1.75
 49
0.5
 74
     0
 49
-0.25
 74
     0
 49
0.5
 74
     0
 49
-0.25
 74
     0
 49
0.0
 74
     0
 49
-0.25
 74
     0
  0
LTYPE
  5
338
330
306
100
AcDbSymbolTableRecord
100
AcDbLinetypeTableRecord
  2
BORDER2
 70
     0
  3
Border2 __.__.__.__.__.__.__.__.__.__.__.
 72
    65
 73
     6
 40
0.875
 49
0.25
 74
     0
 49
-0.125
 74
     0
 49
0.25
 74
     0
 49
-0.125
 74
     0
 49
0.0
 74
     0
 49
-0.125
 74
     0
  0
LTYPE
  5
339
330
306
100
AcDbSymbolTableRecord
100
AcDbLinetypeTableRecord
  2
BORDERX2
 70
     0
  3
Borderx2  ____  ____  .  ____  ____  .  ___
 72
    65
 73
     6
 40
3.5
 49
1.0
 74
     0
 49
-0.5
 74
     0
 49
1.0
 74
     0
 49
-0.5
 74
     0
 49
0.0
 74
     0
 49
-0.5
 74
     0
  0
LTYPE
  5
33A
330
306
100
AcDbSymbolTableRecord
100
AcDbLinetypeTableRecord
  2
CENTER2
 70
     0
  3
Center2  ___ _ ___ _ ___ _ ___ _ ___ _ ___
 72
    65
 73
     4
 40
1.125
 49
0.75
 74
     0
 49
-0.125
 74
     0
 49
0.125
 74
     0
 49
-0.125
 74
     0
  0
LTYPE
  5
33B
330
306
100
AcDbSymbolTableRecord
100
AcDbLinetypeTableRecord
  2
CENTERX2
 70
     0
  3
Centerx2  ________  __  ________  __  _____
 72
    65
 73
     4
 40
4.0
 49
2.5
 74
     0
 49
-0.5
 74
     0
 49
0.5
 74
     0
 49
-0.5
 74
     0
  0
LTYPE
  5
33C
330
306
100
AcDbSymbolTableRecord
100
AcDbLinetypeTableRecord
  2
DASHDOT2
 70
     0
  3
Dashdot2  _._._._._._._._._._._._._._._.
 72
    65
 73
     4
 40
0.5
 49
0.25
 74
     0
 49
-0.125
 74
     0
 49
0.0
 74
     0
 49
-0.125
 74
     0
  0
LTYPE
  5
33D
330
306
100
AcDbSymbolTableRecord
100
AcDbLinetypeTableRecord
  2
DASHDOTX2
 70
     0
  3
Dashdotx2 ____  .  ____  .  ____  .  ___
 72
    65
 73
     4
 40
2.0
 49
1.0
 74
     0
 49
-0.5
 74
     0
 49
0.0
 74
     0
 49
-0.5
 74
     0
  0
LTYPE
  5
33E
330
306
100
AcDbSymbolTableRecord
100
AcDbLinetypeTableRecord
  2
DASHED2
 70
     0
  3
Dashed2 _ _ _ _ _ _ _ _ _ _ _ _ _ _ _ _ _ 
 72
    65
 73
     2
 40
0.375
 49
0.25
 74
     0
 49
-0.125
 74
     0
  0
LTYPE
  5
33F
330
306
100
AcDbSymbolTableRecord
100
AcDbLinetypeTableRecord
  2
DASHEDX2
 70
     0
  3
Dashedx2 ____  ____  ____  ____  ____  ___
 72
    65
 73
     2
 40
1.5
 49
1.0
 74
     0
 49
-0.5
 74
     0
  0
LTYPE
  5
340
330
306
100
AcDbSymbolTableRecord
100
AcDbLinetypeTableRecord
  2
DIVIDE
 70
     0
  3
Divide ____ . . ____ . . ____ . . ____ . . ____
 72
    65
 73
     6
 40
1.25
 49
0.5
 74
     0
 49
-0.25
 74
     0
 49
0.0
 74
     0
 49
-0.25
 74
     0
 49
0.0
 74
     0
 49
-0.25
 74
     0
  0
LTYPE
  5
341
330
306
100
AcDbSymbolTableRecord
100
AcDbLinetypeTableRecord
  2
DIVIDE2
 70
     0
  3
Divide2 __..__..__..__..__..__..__..__.._
 72
    65
 73
     6
 40
0.625
 49
0.25
 74
     0
 49
-0.125
 74
     0
 49
0.0
 74
     0
 49
-0.125
 74
     0
 49
0.0
 74
     0
 49
-0.125
 74
     0
  0
LTYPE
  5
342
330
306
100
AcDbSymbolTableRecord
100
AcDbLinetypeTableRecord
  2
DIVIDEX2
 70
     0
  3
Dividex2 ________  .  .  ________  .  .  _
 72
    65
 73
     6
 40
2.5
 49
1.0
 74
     0
 49
-0.5
 74
     0
 49
0.0
 74
     0
 49
-0.5
 74
     0
 49
0.0
 74
     0
 49
-0.5
 74
     0
  0
LTYPE
  5
343
330
306
100
AcDbSymbolTableRecord
100
AcDbLinetypeTableRecord
  2
DOT
 70
     0
  3
Dot . . . . . . . . . . . . . . . . . . . . . . . .
 72
    65
 73
     2
 40
0.25
 49
0.0
 74
     0
 49
-0.25
 74
     0
  0
LTYPE
  5
344
330
306
100
AcDbSymbolTableRecord
100
AcDbLinetypeTableRecord
  2
DOT2
 70
     0
  3
Dot2 ........................................
 72
    65
 73
     2
 40
0.125
 49
0.0
 74
     0
 49
-0.125
 74
     0
  0
LTYPE
  5
345
330
306
100
AcDbSymbolTableRecord
100
AcDbLinetypeTableRecord
  2
DOTX2
 70
     0
  3
Dotx2 .  .  .  .  .  .  .  .  .  .  .  .  .  .
 72
    65
 73
     2
 40
0.5
 49
0.0
 74
     0
 49
-0.5
 74
     0
  0
LTYPE
  5
346
330
306
100
AcDbSymbolTableRecord
100
AcDbLinetypeTableRecord
  2
HIDDENX2
 70
     0
  3
Hiddenx2 ____ ____ ____ ____ ____ ____ ____ 
 72
    65
 73
     2
 40
0.75
 49
0.5
 74
     0
 49
-0.25
 74
     0
  0
LTYPE
  5
347
330
306
100
AcDbSymbolTableRecord
100
AcDbLinetypeTableRecord
  2
PHANTOM
 70
     0
  3
Phantom ______  __  __  ______  __  __  ______ 
 72
    65
 73
     6
 40
2.5
 49
1.25
 74
     0
 49
-0.25
 74
     0
 49
0.25
 74
     0
 49
-0.25
 74
     0
 49
0.25
 74
     0
 49
-0.25
 74
     0
  0
LTYPE
  5
348
330
306
100
AcDbSymbolTableRecord
100
AcDbLinetypeTableRecord
  2
PHANTOM2
 70
     0
  3
Phantom2 ___ _ _ ___ _ _ ___ _ _ ___ _ _
 72
    65
 73
     6
 40
1.25
 49
0.625
 74
     0
 49
-0.125
 74
     0
 49
0.125
 74
     0
 49
-0.125
 74
     0
 49
0.125
 74
     0
 49
-0.125
 74
     0
  0
LTYPE
  5
349
330
306
100
AcDbSymbolTableRecord
100
AcDbLinetypeTableRecord
  2
PHANTOMX2
 70
     0
  3
Phantomx2 ____________    ____    ____   _
 72
    65
 73
     6
 40
5.0
 49
2.5
 74
     0
 49
-0.5
 74
     0
 49
0.5
 74
     0
 49
-0.5
 74
     0
 49
0.5
 74
     0
 49
-0.5
 74
     0
  0
ENDTAB
  0
TABLE
  2
LAYER
  5
303
330
0
100
AcDbSymbolTable
 70
     5
  0
LAYER
  5
311
330
303
100
AcDbSymbolTableRecord
100
AcDbLayerTableRecord
  2
0
 70
     0
 62
    90
  6
Continuous
370
     0
390
310
  0
LAYER
  5
2B
330
303
100
AcDbSymbolTableRecord
100
AcDbLayerTableRecord
  2
koty
 70
     0
 62
    41
  6
Continuous
370
     0
390
310
  0
LAYER
  5
2C
330
303
100
AcDbSymbolTableRecord
100
AcDbLayerTableRecord
  2
popis
 70
     0
 62
   210
  6
Continuous
370
     0
390
310
  0
LAYER
  5
4E
330
303
100
AcDbSymbolTableRecord
100
AcDbLayerTableRecord
  2
Defpoints
 70
     0
 62
    90
  6
Continuous
290
     0
370
     0
390
310
  0
LAYER
  5
C4
330
303
100
AcDbSymbolTableRecord
100
AcDbLayerTableRecord
  2
srafy
 70
     0
 62
    90
  6
Continuous
370
     0
390
310
  0
ENDTAB
  0
TABLE
  2
STYLE
  5
304
330
0
100
AcDbSymbolTable
 70
     2
  0
STYLE
  5
312
330
304
100
AcDbSymbolTableRecord
100
AcDbTextStyleTableRecord
  2
Standard
 70
     0
 40
0.0
 41
1.0
 50
0.0
 71
     0
 42
0.2
  3
txt.shx
  4

1001
ACAD
1000
txt.shx
1071
        0
  0
STYLE
  5
120
330
304
100
AcDbSymbolTableRecord
100
AcDbTextStyleTableRecord
  2
vd_recov_1_120_
 70
     0
 40
0.0
 41
1.0
 50
0.0
 71
     0
 42
0.2
  3
ltypeshp.shx
  4

1001
ACAD
1000
ltypeshp.shx
1071
        0
  0
ENDTAB
  0
TABLE
  2
VIEW
  5
307
330
0
100
AcDbSymbolTable
 70
     0
  0
ENDTAB
  0
TABLE
  2
UCS
  5
308
330
0
100
AcDbSymbolTable
 70
     0
  0
ENDTAB
  0
TABLE
  2
APPID
  5
30A
330
0
100
AcDbSymbolTable
 70
     6
  0
APPID
  5
313
330
30A
100
AcDbSymbolTableRecord
100
AcDbRegAppTableRecord
  2
ACAD
 70
     0
  0
APPID
  5
32B
330
30A
100
AcDbSymbolTableRecord
100
AcDbRegAppTableRecord
  2
VD_INVISIBLE_NOT_FOR_READ
 70
     0
  0
APPID
  5
32C
330
30A
100
AcDbSymbolTableRecord
100
AcDbRegAppTableRecord
  2
VD_TEMPHATCH
 70
     0
  0
APPID
  5
32D
330
30A
100
AcDbSymbolTableRecord
100
AcDbRegAppTableRecord
  2
VDEXTRAPARAM
 70
     0
  0
APPID
  5
32E
330
30A
100
AcDbSymbolTableRecord
100
AcDbRegAppTableRecord
  2
PE_URL
 70
     0
  0
APPID
  5
32F
330
30A
100
AcDbSymbolTableRecord
100
AcDbRegAppTableRecord
  2
VD_UNKNOWN
 70
     0
  0
ENDTAB
  0
TABLE
  2
DIMSTYLE
  5
30B
330
0
100
AcDbSymbolTable
 70
     2
100
AcDbDimStyleTable
  0
DIMSTYLE
105
328
330
30B
100
AcDbSymbolTableRecord
100
AcDbDimStyleTableRecord
  2
STANDARD
 70
     0
 41
0.2
 42
0.05
 44
0.2
 73
     0
 74
     0
140
0.2
172
     1
174
     1
177
   256
178
   256
288
     1
340
312
342
2FE
  0
DIMSTYLE
105
27
102
{ACAD_REACTORS
330
2A9
330
2C1
330
2D9
102
}
330
30B
100
AcDbSymbolTableRecord
100
AcDbDimStyleTableRecord
  2
ISO-25
 70
     0
 40
10.0
 41
2.0
 42
0.625
 44
1.25
 73
     0
 74
     0
 77
     1
140
2.0
147
0.625
172
     1
174
     1
271
     2
288
     1
340
312
342
2FE
  0
ENDTAB
  0
TABLE
  2
BLOCK_RECORD
  5
302
330
0
100
AcDbSymbolTable
 70
     6
  0
BLOCK_RECORD
  5
320
330
302
100
AcDbSymbolTableRecord
100
AcDbBlockTableRecord
  2
*Model_Space
340
323
  0
BLOCK_RECORD
  5
31C
330
302
100
AcDbSymbolTableRecord
100
AcDbBlockTableRecord
  2
*Paper_Space
340
31F
  0
BLOCK_RECORD
  5
324
330
302
100
AcDbSymbolTableRecord
100
AcDbBlockTableRecord
  2
*Paper_Space0
340
327
  0
BLOCK_RECORD
  5
2FE
330
302
100
AcDbSymbolTableRecord
100
AcDbBlockTableRecord
  2
VDDIM_DEFAULT
340
0
102
{BLKREFS
331
354
331
353
331
360
331
35F
331
36C
331
36B
102
}
  0
BLOCK_RECORD
  5
300
330
302
100
AcDbSymbolTableRecord
100
AcDbBlockTableRecord
  2
VDDIM_NONE
340
0
  0
BLOCK_RECORD
  5
34F
330
302
100
AcDbSymbolTableRecord
100
AcDbBlockTableRecord
  2
*D3
340
0
  0
BLOCK_RECORD
  5
35B
330
302
100
AcDbSymbolTableRecord
100
AcDbBlockTableRecord
  2
*D4
340
0
  0
BLOCK_RECORD
  5
367
330
302
100
AcDbSymbolTableRecord
100
AcDbBlockTableRecord
  2
*D5
340
0
  0
ENDTAB
  0
ENDSEC
  0
SECTION
  2
BLOCKS
  0
BLOCK
  5
321
330
320
100
AcDbEntity
  8
0
100
AcDbBlockBegin
  2
*Model_Space
 70
     0
 71
     0
 10
0.0
 20
0.0
 30
0.0
  3
*Model_Space
  1

  0
ENDBLK
  5
322
330
320
100
AcDbEntity
  8
0
100
AcDbBlockEnd
  0
BLOCK
  5
31D
330
31C
100
AcDbEntity
 67
     1
  8
0
100
AcDbBlockBegin
  2
*Paper_Space
 70
     0
 71
     0
 10
0.0
 20
0.0
 30
0.0
  3
*Paper_Space
  1

  0
ENDBLK
  5
31E
330
31C
100
AcDbEntity
 67
     1
  8
0
100
AcDbBlockEnd
  0
BLOCK
  5
325
330
324
100
AcDbEntity
  8
0
100
AcDbBlockBegin
  2
*Paper_Space0
 70
     0
 71
     0
 10
0.0
 20
0.0
 30
0.0
  3
*Paper_Space0
  1

  0
VIEWPORT
  5
375
330
324
100
AcDbEntity
  8
0
 60
     1
100
AcDbViewport
 10
0.0
 20
0.0
 30
0.0
 40
10.0
 41
10.0
 69
     1
 12
0.0
 22
0.0
 13
0.0
 23
0.0
 14
1.0
 24
1.0
 15
0.0
 25
0.0
 16
0.0
 26
0.0
 36
1.0
 17
0.0
 27
0.0
 37
0.0
 42
0.0
 43
0.0
 44
0.0
 45
10.0
 50
0.0
 51
0.0000000000007958
 72
   100
 90
   163872
  1

281
     0
 71
     0
 74
     0
110
0.0
120
0.0
130
0.0
111
1.0
121
0.0
131
0.0
112
0.0
122
1.0
132
0.0
 79
     0
146
0.0
1001
VD_INVISIBLE_NOT_FOR_READ
1000
VD_INVISIBLE_NOT_FOR_READ
  0
VIEWPORT
  5
376
330
324
100
AcDbEntity
  8
0
 60
     1
100
AcDbViewport
 10
0.0
 20
0.0
 30
0.0
 40
10.0
 41
10.0
 69
     2
 12
0.0
 22
0.0
 13
0.0
 23
0.0
 14
1.0
 24
1.0
 15
0.0
 25
0.0
 16
0.0
 26
0.0
 36
1.0
 17
0.0
 27
0.0
 37
0.0
 42
0.0
 43
0.0
 44
0.0
 45
10.0
 50
0.0
 51
0.0000000000007958
 72
   100
 90
   163872
  1

281
     0
 71
     0
 74
     0
110
0.0
120
0.0
130
0.0
111
1.0
121
0.0
131
0.0
112
0.0
122
1.0
132
0.0
 79
     0
146
0.0
1001
VD_INVISIBLE_NOT_FOR_READ
1000
VD_INVISIBLE_NOT_FOR_READ
  0
ENDBLK
  5
326
330
324
100
AcDbEntity
  8
0
100
AcDbBlockEnd
  0
BLOCK
  5
34A
330
2FE
100
AcDbEntity
  8
0
100
AcDbBlockBegin
  2
VDDIM_DEFAULT
 70
     0
 71
     0
 10
0.0
 20
0.0
 30
0.0
  3
VDDIM_DEFAULT
  1

  0
LWPOLYLINE
  5
2FF
330
2FE
100
AcDbEntity
  8
0
  6
Continuous
 62
     0
100
AcDbPolyline
 90
        4
 70
     0
 43
0.0
 10
0.0
 20
0.0
 10
-1.0
 20
-0.1665
 10
-1.0
 20
0.1665
 10
0.0
 20
0.0
1001
VDEXTRAPARAM
1071
        1
1071
        0
1071
        0
1040
1.0
1000

1000

1040
0.0
1040
0.0
  0
HATCH
  5
34E
330
2FE
100
AcDbEntity
  8
0
  6
Continuous
 62
     0
100
AcDbHatch
 10
0.0
 20
0.0
 30
0.0
210
0.0
220
0.0
230
1.0
  2
SOLID
 70
     1
 71
     0
 91
        1
 92
        2
 72
     0
 73
     1
 93
        3
 10
0.0
 20
0.0
 10
-1.0
 20
-0.1665
 10
-1.0
 20
0.1665
 97
        0
 75
     0
 76
     1
 98
        1
 10
0.0
 20
0.0
1001
VDEXTRAPARAM
1071
        1
1071
        0
1071
        0
1040
1.0
1000

1000

1040
0.0
1040
0.0
1001
VD_TEMPHATCH
1000
VD_TEMPHATCH
  0
ENDBLK
  5
34B
330
2FE
100
AcDbEntity
  8
0
100
AcDbBlockEnd
  0
BLOCK
  5
34C
330
300
100
AcDbEntity
  8
0
100
AcDbBlockBegin
  2
VDDIM_NONE
 70
     0
 71
     0
 10
0.0
 20
0.0
 30
0.0
  3
VDDIM_NONE
  1

  0
ENDBLK
  5
34D
330
300
100
AcDbEntity
  8
0
100
AcDbBlockEnd
  0
BLOCK
  5
359
330
34F
100
AcDbEntity
  8
0
100
AcDbBlockBegin
  2
*D3
 70
     1
 71
     0
 10
0.0
 20
0.0
 30
0.0
  3
*D3
  1

  0
LINE
  5
350
330
34F
100
AcDbEntity
  8
koty
 62
     0
370
    -2
100
AcDbLine
 10
513.4132684200503
 20
40.04493887612989
 30
0.0
 11
513.4132684200503
 21
-11.34326804716783
 31
0.0
  0
LINE
  5
351
330
34F
100
AcDbEntity
  8
koty
 62
     0
370
    -2
100
AcDbLine
 10
687.4132684200503
 20
40.04493887612989
 30
0.0
 11
687.4132684200503
 21
-11.34326804716784
 31
0.0
  0
LINE
  5
352
330
34F
100
AcDbEntity
  8
koty
 62
     0
370
    -2
100
AcDbLine
 10
533.4132684200503
 20
1.15673195283217
 30
0.0
 11
667.4132684200503
 21
1.156731952832162
 31
0.0
  0
INSERT
  5
353
330
34F
100
AcDbEntity
  8
koty
 62
     0
370
    -2
100
AcDbBlockReference
  2
VDDIM_DEFAULT
 10
513.4132684200503
 20
1.156731952832171
 30
0.0
 41
20.0
 42
20.0
 43
20.0
 50
180.0
  0
INSERT
  5
354
330
34F
100
AcDbEntity
  8
koty
 62
     0
370
    -2
100
AcDbBlockReference
  2
VDDIM_DEFAULT
 10
687.4132684200503
 20
1.156731952832161
 30
0.0
 41
20.0
 42
20.0
 43
20.0
 50
360.0
  0
MTEXT
  5
355
330
34F
100
AcDbEntity
  8
koty
 62
     0
100
AcDbMText
 10
600.4132684200503
 20
17.40673195283216
 30
0.0
 40
20.0
 41
0.0
 71
     5
 72
     1
  1
\A1;174.00
 73
     1
 44
1.0
  0
POINT
  5
356
330
34F
100
AcDbEntity
  8
Defpoints
 62
     0
100
AcDbPoint
 10
513.4132684200503
 20
46.29493887612989
 30
0.0
  0
POINT
  5
357
330
34F
100
AcDbEntity
  8
Defpoints
 62
     0
100
AcDbPoint
 10
687.4132684200503
 20
46.29493887612989
 30
0.0
  0
POINT
  5
358
330
34F
100
AcDbEntity
  8
Defpoints
 62
     0
100
AcDbPoint
 10
687.4132684200503
 20
1.156731952832161
 30
0.0
  0
ENDBLK
  5
35A
330
34F
100
AcDbEntity
  8
0
100
AcDbBlockEnd
  0
BLOCK
  5
365
330
35B
100
AcDbEntity
  8
0
100
AcDbBlockBegin
  2
*D4
 70
     1
 71
     0
 10
0.0
 20
0.0
 30
0.0
  3
*D4
  1

  0
LINE
  5
35C
330
35B
100
AcDbEntity
  8
koty
 62
     0
370
    -2
100
AcDbLine
 10
475.4132684200503
 20
45.04493887612989
 30
0.0
 11
475.4132684200504
 21
-83.14558041495184
 31
0.0
  0
LINE
  5
35D
330
35B
100
AcDbEntity
  8
koty
 62
     0
370
    -2
100
AcDbLine
 10
725.4132684200503
 20
45.04493887612989
 30
0.0
 11
725.4132684200503
 21
-83.14558041495184
 31
0.0
  0
LINE
  5
35E
330
35B
100
AcDbEntity
  8
koty
 62
     0
370
    -2
100
AcDbLine
 10
495.4132684200504
 20
-70.64558041495182
 30
0.0
 11
705.4132684200503
 21
-70.64558041495184
 31
0.0
  0
INSERT
  5
35F
330
35B
100
AcDbEntity
  8
koty
 62
     0
370
    -2
100
AcDbBlockReference
  2
VDDIM_DEFAULT
 10
475.4132684200504
 20
-70.64558041495182
 30
0.0
 41
20.0
 42
20.0
 43
20.0
 50
180.0
  0
INSERT
  5
360
330
35B
100
AcDbEntity
  8
koty
 62
     0
370
    -2
100
AcDbBlockReference
  2
VDDIM_DEFAULT
 10
725.4132684200503
 20
-70.64558041495184
 30
0.0
 41
20.0
 42
20.0
 43
20.0
 50
360.0
  0
MTEXT
  5
361
330
35B
100
AcDbEntity
  8
koty
 62
     0
100
AcDbMText
 10
600.4132684200503
 20
-54.39558041495184
 30
0.0
 40
20.0
 41
0.0
 71
     5
 72
     1
  1
\A1;250.00
 73
     1
 44
1.0
  0
POINT
  5
362
330
35B
100
AcDbEntity
  8
Defpoints
 62
     0
100
AcDbPoint
 10
475.4132684200503
 20
51.29493887612989
 30
0.0
  0
POINT
  5
363
330
35B
100
AcDbEntity
  8
Defpoints
 62
     0
100
AcDbPoint
 10
725.4132684200503
 20
51.29493887612989
 30
0.0
  0
POINT
  5
364
330
35B
100
AcDbEntity
  8
Defpoints
 62
     0
100
AcDbPoint
 10
725.4132684200503
 20
-70.64558041495184
 30
0.0
  0
ENDBLK
  5
366
330
35B
100
AcDbEntity
  8
0
100
AcDbBlockEnd
  0
BLOCK
  5
371
330
367
100
AcDbEntity
  8
0
100
AcDbBlockBegin
  2
*D5
 70
     1
 71
     0
 10
0.0
 20
0.0
 30
0.0
  3
*D5
  1

  0
LINE
  5
368
330
367
100
AcDbEntity
  8
koty
 62
     0
370
    -2
100
AcDbLine
 10
469.1632684200503
 20
51.29493887612989
 30
0.0
 11
395.8451305069175
 21
51.29493887612989
 31
0.0
  0
LINE
  5
369
330
367
100
AcDbEntity
  8
koty
 62
     0
370
    -2
100
AcDbLine
 10
469.1632684200503
 20
257.2949388761299
 30
0.0
 11
395.8451305069175
 21
257.2949388761299
 31
0.0
  0
LINE
  5
36A
330
367
100
AcDbEntity
  8
koty
 62
     0
370
    -2
100
AcDbLine
 10
408.3451305069175
 20
71.29493887612989
 30
0.0
 11
408.3451305069175
 21
237.2949388761299
 31
0.0
  0
INSERT
  5
36B
330
367
100
AcDbEntity
  8
koty
 62
     0
370
    -2
100
AcDbBlockReference
  2
VDDIM_DEFAULT
 10
408.3451305069175
 20
51.29493887612989
 30
0.0
 41
20.0
 42
20.0
 43
20.0
 50
270.0
  0
INSERT
  5
36C
330
367
100
AcDbEntity
  8
koty
 62
     0
370
    -2
100
AcDbBlockReference
  2
VDDIM_DEFAULT
 10
408.3451305069175
 20
257.2949388761299
 30
0.0
 41
20.0
 42
20.0
 43
20.0
 50
90.0
  0
MTEXT
  5
36D
330
367
100
AcDbEntity
  8
koty
 62
     0
100
AcDbMText
 10
392.0951305069175
 20
154.2949388761299
 30
0.0
 40
20.0
 41
0.0
 71
     5
 72
     1
  1
\A1;206.00
 11
0.0
 21
-1.0
 31
0.0
 73
     1
 44
1.0
  0
POINT
  5
36E
330
367
100
AcDbEntity
  8
Defpoints
 62
     0
100
AcDbPoint
 10
475.4132684200503
 20
51.29493887612989
 30
0.0
  0
POINT
  5
36F
330
367
100
AcDbEntity
  8
Defpoints
 62
     0
100
AcDbPoint
 10
475.4132684200503
 20
257.2949388761299
 30
0.0
  0
POINT
  5
370
330
367
100
AcDbEntity
  8
Defpoints
 62
     0
100
AcDbPoint
 10
408.3451305069175
 20
257.2949388761299
 30
0.0
  0
ENDBLK
  5
372
330
367
100
AcDbEntity
  8
0
100
AcDbBlockEnd
  0
ENDSEC
  0
SECTION
  2
ENTITIES
  0
LWPOLYLINE
  5
16C
330
320
100
AcDbEntity
  8
0
100
AcDbPolyline
 90
        4
 70
     1
 43
0.0
 10
475.4132684200503
 20
51.29493887612989
 10
725.4132684200503
 20
51.29493887612989
 10
725.4132684200503
 20
257.2949388761299
 10
475.4132684200503
 20
257.2949388761299
  0
LINE
  5
16F
330
320
100
AcDbEntity
  8
0
100
AcDbLine
 10
600.4132684200503
 20
154.2949388761298
 30
0.0
 11
600.4132684200503
 21
198.8238213784187
 31
0.0
  0
LINE
  5
170
330
320
100
AcDbEntity
  8
0
100
AcDbLine
 10
600.4132684200503
 20
257.2949388761299
 30
0.0
 11
513.4132684200503
 21
257.2949388761299
 31
0.0
  0
CIRCLE
  5
174
330
320
100
AcDbEntity
  8
0
100
AcDbCircle
 10
901.550588672153
 20
154.2949388761298
 30
0.0
 40
103.0
  0
ARC
  5
176
330
320
100
AcDbEntity
  8
0
100
AcDbCircle
 10
901.550588672153
 20
154.2949388761298
 30
0.0
 40
21.32276050307154
100
AcDbArc
 50
49.75560643881665
 51
39.42081172695967
  0
CIRCLE
  5
177
330
320
100
AcDbEntity
  8
0
100
AcDbCircle
 10
901.550588672153
 20
154.2949388761298
 30
0.0
 40
28.81280965742553
  0
CIRCLE
  5
178
330
320
100
AcDbEntity
  8
0
100
AcDbCircle
 10
901.550588672153
 20
154.2949388761298
 30
0.0
 40
44.52888250228897
  0
CIRCLE
  5
179
330
320
100
AcDbEntity
  8
0
100
AcDbCircle
 10
901.550588672153
 20
154.2949388761298
 30
0.0
 40
61.89414508300342
  0
CIRCLE
  5
17A
330
320
100
AcDbEntity
  8
0
100
AcDbCircle
 10
901.550588672153
 20
154.2949388761298
 30
0.0
 40
83.48859214764889
  0
CIRCLE
  5
17B
330
320
100
AcDbEntity
  8
0
100
AcDbCircle
 10
901.550588672153
 20
154.2949388761298
 30
0.0
 40
99.19364406975001
  0
LINE
  5
17E
330
320
100
AcDbEntity
  8
0
100
AcDbLine
 10
600.4132684200503
 20
198.8238213784187
 30
0.0
 11
578.7598951677927
 21
198.8238213784188
 31
0.0
  0
LINE
  5
17F
330
320
100
AcDbEntity
  8
0
100
AcDbLine
 10
557.106521915535
 20
195.9317780577912
 30
0.0
 11
557.1065219155352
 21
154.2949388761298
 31
0.0
  0
LINE
  5
182
330
320
100
AcDbEntity
  8
0
100
AcDbLine
 10
508.4132684200503
 20
257.2949388761299
 30
0.0
 11
508.4132684200501
 21
51.29493887612989
 31
0.0
  0
LINE
  5
183
330
320
100
AcDbEntity
  8
0
100
AcDbLine
 10
518.4132684200504
 20
257.2949388761299
 30
0.0
 11
518.4132684200501
 21
51.29493887612989
 31
0.0
  0
LINE
  5
184
330
320
100
AcDbEntity
  8
0
100
AcDbLine
 10
692.4132684200503
 20
257.2949388761299
 30
0.0
 11
692.4132684200506
 21
51.29493887612989
 31
0.0
  0
LINE
  5
185
330
320
100
AcDbEntity
  8
0
100
AcDbLine
 10
682.4132684200503
 20
257.2949388761299
 30
0.0
 11
682.4132684200506
 21
51.29493887612989
 31
0.0
  0
LINE
  5
186
330
320
100
AcDbEntity
  8
0
100
AcDbLine
 10
522.4001731389872
 20
175.6176993792013
 30
0.0
 11
522.4001731389872
 21
154.2949388761298
 31
0.0
  0
LINE
  5
187
330
320
100
AcDbEntity
  8
0
100
AcDbLine
 10
525.0195280549705
 20
183.1077485335555
 30
0.0
 11
525.0195280549705
 21
154.2949388761299
 31
0.0
  0
LINE
  5
18B
330
320
100
AcDbEntity
  8
0
100
AcDbLine
 10
522.4001731389872
 20
175.6176993792014
 30
0.0
 11
525.0195280549705
 21
183.1077485335554
 31
0.0
  0
CIRCLE
  5
18F
330
320
100
AcDbEntity
  8
0
100
AcDbCircle
 10
541.0630249852529
 20
168.7013437048427
 30
0.0
 40
4.039388585702909
  0
LINE
  5
190
330
320
100
AcDbEntity
  8
0
100
AcDbLine
 10
578.7598951677932
 20
154.2949388761298
 30
0.0
 11
578.7598951677927
 21
198.8238213784187
 31
0.0
  0
LINE
  5
191
330
320
100
AcDbEntity
  8
0
100
AcDbLine
 10
557.106521915535
 20
195.9317780577912
 30
0.0
 11
578.7598951677927
 21
195.9317780577912
 31
0.0
  0
LINE
  5
192
330
320
100
AcDbEntity
  8
0
100
AcDbLine
 10
600.4132684200503
 20
198.8238213784187
 30
0.0
 11
649.9126308252417
 21
198.8238213784187
 31
0.0
  0
LINE
  5
193
330
320
100
AcDbEntity
  8
0
100
AcDbLine
 10
649.9126308252417
 20
198.8238213784187
 30
0.0
 11
649.9126308252417
 21
154.2949388761298
 31
0.0
  0
LINE
  5
194
330
320
100
AcDbEntity
  8
0
100
AcDbLine
 10
557.1065219155349
 20
183.1077485335554
 30
0.0
 11
525.0195280549706
 21
183.1077485335555
 31
0.0
  0
LWPOLYLINE
  5
195
330
320
100
AcDbEntity
  8
0
100
AcDbPolyline
 90
        4
 70
     1
 43
0.0
 10
578.7598951677927
 20
198.8238213784187
 10
600.4132684200503
 20
198.8238213784187
 10
600.4132684200503
 20
154.2949388761298
 10
578.7598951677927
 20
154.2949388761298
  0
HATCH
  5
196
330
320
100
AcDbEntity
  8
srafy
100
AcDbHatch
 10
0.0
 20
0.0
 30
0.0
210
0.0
220
0.0
230
1.0
  2
LINE
 70
     0
 71
     0
 91
        1
 92
        3
 72
     0
 73
     1
 93
        4
 10
578.7598951677927
 20
154.2949388761298
 10
578.7598951677927
 20
198.8238213784187
 10
600.4132684200503
 20
198.8238213784187
 10
600.4132684200503
 20
154.2949388761298
 97
        0
 75
     0
 76
     2
 52
0.0
 41
1.0
 77
     0
 78
     1
 53
0.0
 43
0.0
 44
0.0
 45
0.0
 46
3.174999999999999
 79
     0
 98
        1
 10
0.0
 20
0.0
1001
VDEXTRAPARAM
1071
       76
1071
        0
1071
        0
1040
1.0
1000
LINE
1000

1040
0.0
1040
0.0
  0
LINE
  5
197
330
320
100
AcDbEntity
  8
0
100
AcDbLine
 10
602.0342560136559
 20
198.8238213784187
 30
0.0
 11
602.0342560136559
 21
236.0872813278528
 31
0.0
  0
LINE
  5
198
330
320
100
AcDbEntity
  8
0
100
AcDbLine
 10
622.0342560136559
 20
256.0872813278528
 30
0.0
 11
649.0132295880139
 21
256.0872813278529
 31
0.0
  0
LINE
  5
199
330
320
100
AcDbEntity
  8
0
100
AcDbLine
 10
649.0132295880139
 20
198.8238213784187
 30
0.0
 11
649.0132295880138
 21
225.9223624065245
 31
0.0
  0
LINE
  5
19A
330
320
100
AcDbEntity
  8
0
100
AcDbLine
 10
648.5152139784728
 20
230.3577434312271
 30
0.0
 11
646.7846117082561
 21
237.9670510131215
 31
0.0
  0
LINE
  5
19B
330
320
100
AcDbEntity
  8
0
100
AcDbLine
 10
646.8438606200546
 20
247.0907192631156
 30
0.0
 11
649.0132295880139
 21
256.0872813278529
 31
0.0
  0
ARC
  5
19D
330
320
100
AcDbEntity
  8
0
100
AcDbCircle
 10
622.0342560136559
 20
236.0872813278528
 30
0.0
 40
20.0
100
AcDbArc
 50
90.0
 51
180.0
  0
ARC
  5
19F
330
320
100
AcDbEntity
  8
0
100
AcDbCircle
 10
666.2865960987151
 20
242.402432037824
 30
0.0
 40
20.0
100
AcDbArc
 50
166.4428961006487
 51
192.812959159616
  0
ARC
  5
1A0
330
320
100
AcDbEntity
  8
0
100
AcDbCircle
 10
629.0132295880138
 20
225.9223624065244
 30
0.0
 40
20.0
100
AcDbArc
 50
0.0000000000002036
 51
12.81295915961665
  0
LINE
  5
1A1
330
320
100
AcDbEntity
  8
0
100
AcDbLine
 10
646.8438606200546
 20
61.49915848914412
 30
0.0
 11
649.0132295880139
 21
52.50259642440687
 31
0.0
  0
LINE
  5
1A2
330
320
100
AcDbEntity
  8
0
100
AcDbLine
 10
648.5152139784728
 20
78.23213432103268
 30
0.0
 11
646.7846117082561
 21
70.62282673913823
 31
0.0
  0
ARC
  5
1A3
330
320
100
AcDbEntity
  8
0
100
AcDbCircle
 10
666.2865960987151
 20
66.18744571443574
 30
0.0
 40
20.0
100
AcDbArc
 50
167.1870408403838
 51
193.5571038993512
  0
LINE
  5
1A4
330
320
100
AcDbEntity
  8
0
100
AcDbLine
 10
622.0342560136559
 20
52.50259642440693
 30
0.0
 11
649.0132295880139
 21
52.50259642440687
 31
0.0
  0
ARC
  5
1A5
330
320
100
AcDbEntity
  8
0
100
AcDbCircle
 10
622.0342560136559
 20
72.50259642440693
 30
0.0
 40
20.0
100
AcDbArc
 50
180.0
 51
270.0
  0
LINE
  5
1A6
330
320
100
AcDbEntity
  8
0
100
AcDbLine
 10
602.0342560136559
 20
109.766056373841
 30
0.0
 11
602.0342560136559
 21
72.50259642440693
 31
0.0
  0
ARC
  5
1A7
330
320
100
AcDbEntity
  8
0
100
AcDbCircle
 10
629.0132295880138
 20
82.66751534573534
 30
0.0
 40
20.0
100
AcDbArc
 50
347.1870408403833
 51
359.9999999999997
  0
LINE
  5
1A8
330
320
100
AcDbEntity
  8
0
100
AcDbLine
 10
649.0132295880139
 20
109.7660563738409
 30
0.0
 11
649.0132295880138
 21
82.66751534573527
 31
0.0
  0
LINE
  5
1A9
330
320
100
AcDbEntity
  8
0
100
AcDbLine
 10
600.4132684200503
 20
109.7660563738409
 30
0.0
 11
649.9126308252417
 21
109.7660563738409
 31
0.0
  0
LINE
  5
1AA
330
320
100
AcDbEntity
  8
0
100
AcDbLine
 10
649.9126308252417
 20
109.7660563738409
 30
0.0
 11
649.9126308252417
 21
154.2949388761298
 31
0.0
  0
HATCH
  5
1AB
330
320
100
AcDbEntity
  8
srafy
100
AcDbHatch
 10
0.0
 20
0.0
 30
0.0
210
0.0
220
0.0
230
1.0
  2
LINE
 70
     0
 71
     0
 91
        1
 92
        3
 72
     0
 73
     1
 93
        4
 10
578.7598951677927
 20
154.2949388761298
 10
578.7598951677927
 20
109.7660563738409
 10
600.4132684200503
 20
109.7660563738409
 10
600.4132684200503
 20
154.2949388761298
 97
        0
 75
     0
 76
     2
 52
0.0
 41
1.0
 77
     0
 78
     1
 53
0.0
 43
0.0
 44
0.0
 45
0.0
 46
3.174999999999999
 79
     0
 98
        1
 10
0.0
 20
0.0
1001
VDEXTRAPARAM
1071
       76
1071
        0
1071
        0
1040
1.0
1000
LINE
1000

1040
0.0
1040
0.0
  0
LWPOLYLINE
  5
1AC
330
320
100
AcDbEntity
  8
0
100
AcDbPolyline
 90
        4
 70
     1
 43
0.0
 10
578.7598951677927
 20
109.7660563738409
 10
600.4132684200503
 20
109.7660563738409
 10
600.4132684200503
 20
154.2949388761298
 10
578.7598951677927
 20
154.2949388761298
  0
LINE
  5
1AD
330
320
100
AcDbEntity
  8
0
100
AcDbLine
 10
557.106521915535
 20
112.6580996944685
 30
0.0
 11
578.7598951677927
 21
112.6580996944685
 31
0.0
  0
LINE
  5
1AE
330
320
100
AcDbEntity
  8
0
100
AcDbLine
 10
557.106521915535
 20
112.6580996944685
 30
0.0
 11
557.1065219155352
 21
154.2949388761298
 31
0.0
  0
LINE
  5
1AF
330
320
100
AcDbEntity
  8
0
100
AcDbLine
 10
557.1065219155349
 20
125.4821292187043
 30
0.0
 11
525.0195280549706
 21
125.4821292187042
 31
0.0
  0
LINE
  5
1B1
330
320
100
AcDbEntity
  8
0
100
AcDbLine
 10
525.0195280549705
 20
125.4821292187042
 30
0.0
 11
525.0195280549705
 21
154.2949388761298
 31
0.0
  0
LINE
  5
1B2
330
320
100
AcDbEntity
  8
0
100
AcDbLine
 10
522.4001731389872
 20
132.9721783730583
 30
0.0
 11
525.0195280549705
 21
125.4821292187043
 31
0.0
  0
LINE
  5
1B3
330
320
100
AcDbEntity
  8
0
100
AcDbLine
 10
522.4001731389872
 20
132.9721783730584
 30
0.0
 11
522.4001731389872
 21
154.2949388761298
 31
0.0
  0
ARC
  5
1B4
330
320
100
AcDbEntity
  8
0
100
AcDbCircle
 10
600.4132684200503
 20
155.5749999999999
 30
0.0
 40
59.2131922409917
100
AcDbArc
 50
326.7150550044094
 51
33.2849449955906
  0
LINE
  5
1B5
330
320
100
AcDbEntity
  8
0
100
AcDbLine
 10
578.7598951677927
 20
198.8238213784188
 30
0.0
 11
567.9071640466245
 21
209.5214209205047
 31
0.0
  0
LINE
  5
1B7
330
320
100
AcDbEntity
  8
0
100
AcDbLine
 10
578.7598951677927
 20
198.8238213784188
 30
0.0
 11
578.759895167792
 21
257.2949388761299
 31
0.0
  0
LINE
  5
1B8
330
320
100
AcDbEntity
  8
0
100
AcDbLine
 10
567.9071640466245
 20
257.2949388761299
 30
0.0
 11
567.9071640466245
 21
209.5214209205047
 31
0.0
  0
LINE
  5
1B9
330
320
100
AcDbEntity
  8
0
100
AcDbLine
 10
567.9071640466246
 20
51.29493887612989
 30
0.0
 11
567.9071640466246
 21
99.06845683175501
 31
0.0
  0
LINE
  5
1BA
330
320
100
AcDbEntity
  8
0
100
AcDbLine
 10
578.7598951677928
 20
109.7660563738409
 30
0.0
 11
578.7598951677923
 21
51.29493887612989
 31
0.0
  0
LINE
  5
1BB
330
320
100
AcDbEntity
  8
0
100
AcDbLine
 10
578.7598951677928
 20
109.7660563738409
 30
0.0
 11
567.9071640466246
 21
99.06845683175501
 31
0.0
  0
ARC
  5
1BC
330
320
100
AcDbEntity
  8
0
100
AcDbCircle
 10
513.4132684200503
 20
257.2949388761299
 30
0.0
 40
5.0
100
AcDbArc
 50
0.0
 51
180.0
  0
ARC
  5
1BD
330
320
100
AcDbEntity
  8
0
100
AcDbCircle
 10
513.4132684200503
 20
51.29493887612989
 30
0.0
 40
5.0
100
AcDbArc
 50
180.0
 51
0.0
  0
ARC
  5
1BE
330
320
100
AcDbEntity
  8
0
100
AcDbCircle
 10
687.4132684200503
 20
257.2949388761299
 30
0.0
 40
5.0
100
AcDbArc
 50
0.0
 51
180.0
  0
ARC
  5
1BF
330
320
100
AcDbEntity
  8
0
100
AcDbCircle
 10
687.4132684200503
 20
51.29493887612989
 30
0.0
 40
5.0
100
AcDbArc
 50
180.0
 51
0.0
  0
LINE
  5
1C0
330
320
100
AcDbEntity
  8
0
100
AcDbLine
 10
900.5339009135258
 20
188.4966246658968
 30
0.0
 11
900.5339009135258
 21
183.08980554289
 31
0.0
  0
LINE
  5
1C1
330
320
100
AcDbEntity
  8
0
100
AcDbLine
 10
902.5672764307801
 20
188.4966246658968
 30
0.0
 11
902.5672764307802
 21
183.08980554289
 31
0.0
  0
LINE
  5
1C2
330
320
100
AcDbEntity
  8
0
100
AcDbLine
 10
900.5339009135258
 20
188.4966246658968
 30
0.0
 11
902.5672764307801
 21
188.4966246658968
 31
0.0
  0
LINE
  5
1C3
330
320
100
AcDbEntity
  8
0
100
AcDbLine
 10
897.7974274259782
 20
188.3052717989447
 30
0.0
 11
898.5499112096574
 21
182.9510714679697
 31
0.0
  0
LINE
  5
1C4
330
320
100
AcDbEntity
  8
0
100
AcDbLine
 10
895.7838405794804
 20
188.0222806227921
 30
0.0
 11
897.7974274259782
 21
188.3052717989447
 31
0.0
  0
LINE
  5
1C5
330
320
100
AcDbEntity
  8
0
100
AcDbLine
 10
895.7838405794804
 20
188.0222806227921
 30
0.0
 11
896.5363243631595
 21
182.6680802918171
 31
0.0
  0
LINE
  5
1C6
330
320
100
AcDbEntity
  8
0
100
AcDbLine
 10
893.1006294356755
 20
187.4519464878302
 30
0.0
 11
894.590950762122
 21
182.2545783680169
 31
0.0
  0
LINE
  5
1C7
330
320
100
AcDbEntity
  8
0
100
AcDbLine
 10
891.1460234374802
 20
186.8914722368713
 30
0.0
 11
893.1006294356755
 21
187.4519464878302
 31
0.0
  0
LINE
  5
1C8
330
320
100
AcDbEntity
  8
0
100
AcDbLine
 10
891.1460234374802
 20
186.8914722368713
 30
0.0
 11
892.6363447639266
 21
181.6941041170579
 31
0.0
  0
LINE
  5
1C9
330
320
100
AcDbEntity
  8
0
100
AcDbLine
 10
888.5683002902243
 20
185.9532577390912
 30
0.0
 11
890.7674517500344
 21
181.0138826889731
 31
0.0
  0
LINE
  5
1CA
330
320
100
AcDbEntity
  8
0
100
AcDbLine
 10
886.7107193227552
 20
185.1262094070906
 30
0.0
 11
888.5683002902243
 21
185.9532577390912
 31
0.0
  0
LINE
  5
1CB
330
320
100
AcDbEntity
  8
0
100
AcDbLine
 10
886.7107193227552
 20
185.1262094070906
 30
0.0
 11
888.9098707825651
 21
180.1868343569726
 31
0.0
  0
LINE
  5
1CC
330
320
100
AcDbEntity
  8
0
100
AcDbLine
 10
884.2886566209937
 20
183.8383758244887
 30
0.0
 11
887.1538342324996
 21
179.2531331609606
 31
0.0
  0
LINE
  5
1CD
330
320
100
AcDbEntity
  8
0
100
AcDbLine
 10
882.5642563848152
 20
182.7608509664755
 30
0.0
 11
884.2886566209937
 21
183.8383758244887
 31
0.0
  0
LINE
  5
1CE
330
320
100
AcDbEntity
  8
0
100
AcDbLine
 10
882.5642563848152
 20
182.7608509664755
 30
0.0
 11
885.429433996321
 21
178.1756083029473
 31
0.0
  0
LINE
  5
1CF
330
320
100
AcDbEntity
  8
0
100
AcDbLine
 10
880.3449968239819
 20
181.1484645148476
 30
0.0
 11
883.8204331640669
 21
177.0066007707189
 31
0.0
  0
LINE
  5
1D0
330
320
100
AcDbEntity
  8
0
100
AcDbLine
 10
878.7873408082152
 20
179.8414359265167
 30
0.0
 11
880.3449968239819
 21
181.1484645148476
 31
0.0
  0
LINE
  5
1D3
330
320
100
AcDbEntity
  8
0
100
AcDbLine
 10
875.4534859584762
 20
176.424787380182
 30
0.0
 11
875.9930578016625
 21
177.0240426218741
 31
0.0
  0
LINE
  5
1D4
330
320
100
AcDbEntity
  8
0
100
AcDbLine
 10
875.4534859584762
 20
176.424787380182
 30
0.0
 11
879.471535612031
 21
172.8069192219315
 31
0.0
  0
LINE
  5
1D5
330
320
100
AcDbEntity
  8
0
100
AcDbLine
 10
873.7646306873841
 20
174.2631512079626
 30
0.0
 11
878.2470868883661
 21
171.2396963240273
 31
0.0
  0
LINE
  5
1D6
330
320
100
AcDbEntity
  8
0
100
AcDbLine
 10
872.6275815280443
 20
172.5774065050453
 30
0.0
 11
873.7646306873841
 21
174.2631512079626
 31
0.0
  0
LINE
  5
1D7
330
320
100
AcDbEntity
  8
0
100
AcDbLine
 10
872.6275815280443
 20
172.5774065050453
 30
0.0
 11
877.1100377290261
 21
169.5539516211098
 31
0.0
  0
LINE
  5
1D8
330
320
100
AcDbEntity
  8
0
100
AcDbLine
 10
871.2560036895914
 20
170.2017640023091
 30
0.0
 11
876.1156205267665
 21
167.8315705028755
 31
0.0
  0
LINE
  5
1D9
330
320
100
AcDbEntity
  8
0
100
AcDbLine
 10
870.3646305322399
 20
168.3741781935106
 30
0.0
 11
871.2560036895914
 21
170.2017640023091
 31
0.0
  0
LINE
  5
1DA
330
320
100
AcDbEntity
  8
0
100
AcDbLine
 10
870.3646305322399
 20
168.3741781935106
 30
0.0
 11
875.2242473694149
 21
166.0039846940768
 31
0.0
  0
LINE
  5
1DB
330
320
100
AcDbEntity
  8
0
100
AcDbLine
 10
869.3370263289045
 20
165.8307685393199
 30
0.0
 11
874.4792168882694
 21
164.1599695447994
 31
0.0
  0
LINE
  5
1DC
330
320
100
AcDbEntity
  8
0
100
AcDbLine
 10
868.708678738127
 20
163.8969135035603
 30
0.0
 11
869.3370263289045
 21
165.8307685393199
 31
0.0
  0
LINE
  5
1DD
330
320
100
AcDbEntity
  8
0
100
AcDbLine
 10
868.708678738127
 20
163.8969135035603
 30
0.0
 11
873.850869297492
 21
162.2261145090395
 31
0.0
  0
LINE
  5
1DE
330
320
100
AcDbEntity
  8
0
100
AcDbLine
 10
868.0450493168448
 20
161.2352412737484
 30
0.0
 11
873.3697267083167
 21
160.2963569860636
 31
0.0
  0
LINE
  5
1DF
330
320
100
AcDbEntity
  8
0
100
AcDbLine
 10
867.6919573637611
 20
159.2327572995712
 30
0.0
 11
868.0450493168448
 21
161.2352412737484
 31
0.0
  0
LINE
  5
1E0
330
320
100
AcDbEntity
  8
0
100
AcDbLine
 10
867.6919573637611
 20
159.2327572995712
 30
0.0
 11
873.016634755233
 21
158.2938730118862
 31
0.0
  0
LINE
  5
1E1
330
320
100
AcDbEntity
  8
0
100
AcDbLine
 10
867.4052195163501
 20
156.5046289164844
 30
0.0
 11
872.8087449512345
 21
156.31593365033
 31
0.0
  0
LINE
  5
1E2
330
320
100
AcDbEntity
  8
0
100
AcDbLine
 10
867.3342557341907
 20
154.4724920766553
 30
0.0
 11
867.4052195163501
 21
156.5046289164844
 31
0.0
  0
LINE
  5
1E3
330
320
100
AcDbEntity
  8
0
100
AcDbLine
 10
867.3342557341907
 20
154.4724920766553
 30
0.0
 11
872.7377811690755
 21
154.2837968105008
 31
0.0
  0
LINE
  5
1E4
330
320
100
AcDbEntity
  8
0
100
AcDbLine
 10
867.4299904866915
 20
151.73100745607
 30
0.0
 11
872.8071904888176
 21
152.2961739501641
 31
0.0
  0
LINE
  5
1E5
330
320
100
AcDbEntity
  8
0
100
AcDbLine
 10
867.6425361047561
 20
149.7087709826549
 30
0.0
 11
867.4299904866915
 21
151.73100745607
 31
0.0
  0
LINE
  5
1E6
330
320
100
AcDbEntity
  8
0
100
AcDbLine
 10
867.6425361047561
 20
149.7087709826549
 30
0.0
 11
873.0197361068825
 21
150.2739374767488
 31
0.0
  0
LINE
  5
1E7
330
320
100
AcDbEntity
  8
0
100
AcDbLine
 10
868.1188800891074
 20
147.0072900043181
 30
0.0
 11
873.3650935769086
 21
148.3153179357207
 31
0.0
  0
LINE
  5
1E8
330
320
100
AcDbEntity
  8
0
100
AcDbLine
 10
868.6107981487075
 20
145.0343144300121
 30
0.0
 11
868.1188800891074
 21
147.0072900043181
 31
0.0
  0
LINE
  5
1E9
330
320
100
AcDbEntity
  8
0
100
AcDbLine
 10
868.6107981487075
 20
145.0343144300121
 30
0.0
 11
873.8570116365085
 21
146.3423423614144
 31
0.0
  0
LINE
  5
1EA
330
320
100
AcDbEntity
  8
0
100
AcDbLine
 10
869.4584798710877
 20
142.4254183482786
 30
0.0
 11
874.4715952665029
 21
144.4508484411643
 31
0.0
  0
LINE
  5
1EB
330
320
100
AcDbEntity
  8
0
100
AcDbLine
 10
870.2201957467418
 20
140.5401053984092
 30
0.0
 11
869.4584798710877
 21
142.4254183482786
 31
0.0
  0
LINE
  5
1EC
330
320
100
AcDbEntity
  8
0
100
AcDbLine
 10
870.2201957467418
 20
140.5401053984092
 30
0.0
 11
875.2333111421567
 21
142.5655354912947
 31
0.0
  0
LINE
  5
1ED
330
320
100
AcDbEntity
  8
0
100
AcDbLine
 10
871.4227160466478
 20
138.0745734079341
 30
0.0
 11
876.1051587608393
 21
140.7779829694377
 31
0.0
  0
LINE
  5
1EE
330
320
100
AcDbEntity
  8
0
100
AcDbLine
 10
872.439403805275
 20
136.3136185545587
 30
0.0
 11
871.4227160466478
 21
138.0745734079341
 31
0.0
  0
LINE
  5
1EF
330
320
100
AcDbEntity
  8
0
100
AcDbLine
 10
872.439403805275
 20
136.3136185545587
 30
0.0
 11
877.1218465194665
 21
139.017028116062
 31
0.0
  0
LINE
  5
1F0
330
320
100
AcDbEntity
  8
0
100
AcDbLine
 10
873.9733569929164
 20
134.0394394310359
 30
0.0
 11
878.2339886046523
 21
137.3682096691253
 31
0.0
  0
LINE
  5
1F1
330
320
100
AcDbEntity
  8
0
100
AcDbLine
 10
875.2252279637602
 20
132.4371176573189
 30
0.0
 11
873.9733569929164
 21
134.0394394310359
 31
0.0
  0
LINE
  5
1F2
330
320
100
AcDbEntity
  8
0
100
AcDbLine
 10
875.2252279637602
 20
132.4371176573189
 30
0.0
 11
879.4858595754963
 21
135.7658878954082
 31
0.0
  0
LINE
  5
1F6
330
320
100
AcDbEntity
  8
0
100
AcDbLine
 10
880.6248244866846
 20
127.2227879066435
 30
0.0
 11
883.8028730290009
 21
131.5969964626676
 31
0.0
  0
LINE
  5
1F7
330
320
100
AcDbEntity
  8
0
100
AcDbLine
 10
882.2698598360892
 20
126.027599765229
 30
0.0
 11
880.6248244866846
 21
127.2227879066435
 31
0.0
  0
LINE
  5
1F8
330
320
100
AcDbEntity
  8
0
100
AcDbLine
 10
882.2698598360892
 20
126.027599765229
 30
0.0
 11
885.4479083784056
 21
130.4018083212529
 31
0.0
  0
LINE
  5
1F9
330
320
100
AcDbEntity
  8
0
100
AcDbLine
 10
884.59618778535
 20
124.5739487272456
 30
0.0
 11
887.1345356087287
 21
129.3478866569283
 31
0.0
  0
LINE
  5
1FA
330
320
100
AcDbEntity
  8
0
100
AcDbLine
 10
886.3915518036879
 20
123.6193367454297
 30
0.0
 11
884.59618778535
 21
124.5739487272456
 31
0.0
  0
LINE
  5
1FB
330
320
100
AcDbEntity
  8
0
100
AcDbLine
 10
886.3915518036879
 20
123.6193367454297
 30
0.0
 11
888.9298996270667
 21
128.3932746751123
 31
0.0
  0
LINE
  5
1FC
330
320
100
AcDbEntity
  8
0
100
AcDbLine
 10
888.8975492119321
 20
122.5035948139707
 30
0.0
 11
890.7467902633189
 21
127.5843428457844
 31
0.0
  0
LINE
  5
1FD
330
320
100
AcDbEntity
  8
0
100
AcDbLine
 10
890.8082971807827
 20
121.8081394281245
 30
0.0
 11
888.8975492119321
 21
122.5035948139707
 31
0.0
  0
LINE
  5
1FE
330
320
100
AcDbEntity
  8
0
100
AcDbLine
 10
890.8082971807827
 20
121.8081394281245
 30
0.0
 11
892.6575382321695
 21
126.8888874599381
 31
0.0
  0
LINE
  5
1FF
330
320
100
AcDbEntity
  8
0
100
AcDbLine
 10
893.4451876589882
 20
121.0520232507476
 30
0.0
 11
894.5693285647983
 21
126.3406904035185
 31
0.0
  0
LINE
  5
200
330
320
100
AcDbEntity
  8
0
100
AcDbLine
 10
895.4341290425812
 20
120.6292607088879
 30
0.0
 11
893.4451876589882
 21
121.0520232507476
 31
0.0
  0
LINE
  5
201
330
320
100
AcDbEntity
  8
0
100
AcDbLine
 10
895.4341290425812
 20
120.6292607088879
 30
0.0
 11
896.5582699483915
 21
125.9179278616587
 31
0.0
  0
LINE
  5
202
330
320
100
AcDbEntity
  8
0
100
AcDbLine
 10
898.1505885170086
 20
120.2474872269166
 30
0.0
 11
898.5277491532019
 21
125.6411356102857
 31
0.0
  0
LINE
  5
203
330
320
100
AcDbEntity
  8
0
100
AcDbLine
 10
900.1790108336999
 20
120.1056461210354
 30
0.0
 11
898.1505885170086
 21
120.2474872269166
 31
0.0
  0
LINE
  5
204
330
320
100
AcDbEntity
  8
0
100
AcDbLine
 10
900.1790108336999
 20
120.1056461210354
 30
0.0
 11
900.5561714698933
 21
125.4992945044044
 31
0.0
  0
LINE
  5
205
330
320
100
AcDbEntity
  8
0
100
AcDbLine
 10
902.922166510606
 20
120.1056461210353
 30
0.0
 11
902.5450058744127
 21
125.4992945044044
 31
0.0
  0
LINE
  5
206
330
320
100
AcDbEntity
  8
0
100
AcDbLine
 10
904.9505888272973
 20
120.2474872269166
 30
0.0
 11
902.922166510606
 21
120.1056461210353
 31
0.0
  0
LINE
  5
207
330
320
100
AcDbEntity
  8
0
100
AcDbLine
 10
904.9505888272973
 20
120.2474872269166
 30
0.0
 11
904.5734281911041
 21
125.6411356102857
 31
0.0
  0
LINE
  5
208
330
320
100
AcDbEntity
  8
0
100
AcDbLine
 10
907.6670483017247
 20
120.6292607088879
 30
0.0
 11
906.5429073959147
 21
125.9179278616587
 31
0.0
  0
LINE
  5
209
330
320
100
AcDbEntity
  8
0
100
AcDbLine
 10
909.6559896853179
 20
121.0520232507477
 30
0.0
 11
907.6670483017247
 21
120.6292607088879
 31
0.0
  0
LINE
  5
20A
330
320
100
AcDbEntity
  8
0
100
AcDbLine
 10
909.6559896853179
 20
121.0520232507477
 30
0.0
 11
908.5318487795078
 21
126.3406904035185
 31
0.0
  0
LINE
  5
20B
330
320
100
AcDbEntity
  8
0
100
AcDbLine
 10
912.2928801635234
 20
121.8081394281244
 30
0.0
 11
910.4436391121365
 21
126.8888874599381
 31
0.0
  0
LINE
  5
20C
330
320
100
AcDbEntity
  8
0
100
AcDbLine
 10
914.2036281323738
 20
122.5035948139706
 30
0.0
 11
912.2928801635234
 21
121.8081394281244
 31
0.0
  0
LINE
  5
20D
330
320
100
AcDbEntity
  8
0
100
AcDbLine
 10
914.2036281323738
 20
122.5035948139706
 30
0.0
 11
912.3543870809871
 21
127.5843428457843
 31
0.0
  0
LINE
  5
20E
330
320
100
AcDbEntity
  8
0
100
AcDbLine
 10
916.7096255406182
 20
123.6193367454297
 30
0.0
 11
914.1712777172394
 21
128.3932746751122
 31
0.0
  0
LINE
  5
20F
330
320
100
AcDbEntity
  8
0
100
AcDbLine
 10
918.5049895589559
 20
124.5739487272455
 30
0.0
 11
916.7096255406182
 21
123.6193367454297
 31
0.0
  0
LINE
  5
210
330
320
100
AcDbEntity
  8
0
100
AcDbLine
 10
918.5049895589559
 20
124.5739487272455
 30
0.0
 11
915.9666417355774
 21
129.3478866569282
 31
0.0
  0
LINE
  5
211
330
320
100
AcDbEntity
  8
0
100
AcDbLine
 10
920.8313175082169
 20
126.027599765229
 30
0.0
 11
917.6532689659005
 21
130.4018083212529
 31
0.0
  0
LINE
  5
212
330
320
100
AcDbEntity
  8
0
100
AcDbLine
 10
922.4763528576215
 20
127.2227879066435
 30
0.0
 11
920.8313175082169
 21
126.027599765229
 31
0.0
  0
LINE
  5
213
330
320
100
AcDbEntity
  8
0
100
AcDbLine
 10
922.4763528576215
 20
127.2227879066435
 30
0.0
 11
919.298304315305
 21
131.5969964626676
 31
0.0
  0
LINE
  5
214
330
320
100
AcDbEntity
  8
0
100
AcDbLine
 10
924.5777320205256
 20
128.9860543872001
 30
0.0
 11
920.8218398591711
 21
132.875394575611
 31
0.0
  0
LINE
  5
217
330
320
100
AcDbEntity
  8
0
100
AcDbLine
 10
927.8759493805457
 20
132.4371176573188
 30
0.0
 11
923.61531776881
 21
135.7658878954081
 31
0.0
  0
LINE
  5
218
330
320
100
AcDbEntity
  8
0
100
AcDbLine
 10
929.1278203513895
 20
134.0394394310358
 30
0.0
 11
927.8759493805457
 21
132.4371176573188
 31
0.0
  0
LINE
  5
219
330
320
100
AcDbEntity
  8
0
100
AcDbLine
 10
929.1278203513895
 20
134.0394394310358
 30
0.0
 11
924.8671887396538
 21
137.3682096691252
 31
0.0
  0
LINE
  5
21A
330
320
100
AcDbEntity
  8
0
100
AcDbLine
 10
930.661773539031
 20
136.3136185545588
 30
0.0
 11
925.9793308248395
 21
139.0170281160622
 31
0.0
  0
LINE
  5
21B
330
320
100
AcDbEntity
  8
0
100
AcDbLine
 10
931.6784612976579
 20
138.0745734079342
 30
0.0
 11
930.661773539031
 21
136.3136185545588
 31
0.0
  0
LINE
  5
21C
330
320
100
AcDbEntity
  8
0
100
AcDbLine
 10
931.6784612976579
 20
138.0745734079342
 30
0.0
 11
926.9960185834666
 21
140.7779829694378
 31
0.0
  0
LINE
  5
21D
330
320
100
AcDbEntity
  8
0
100
AcDbLine
 10
932.8809815975644
 20
140.5401053984093
 30
0.0
 11
927.8678662021493
 21
142.5655354912948
 31
0.0
  0
LINE
  5
21E
330
320
100
AcDbEntity
  8
0
100
AcDbLine
 10
933.6426974732184
 20
142.4254183482787
 30
0.0
 11
932.8809815975644
 21
140.5401053984093
 31
0.0
  0
LINE
  5
21F
330
320
100
AcDbEntity
  8
0
100
AcDbLine
 10
933.6426974732184
 20
142.4254183482787
 30
0.0
 11
928.6295820778034
 21
144.4508484411644
 31
0.0
  0
LINE
  5
220
330
320
100
AcDbEntity
  8
0
100
AcDbLine
 10
934.4903791955983
 20
145.0343144300123
 30
0.0
 11
929.2441657077974
 21
146.3423423614145
 31
0.0
  0
LINE
  5
221
330
320
100
AcDbEntity
  8
0
100
AcDbLine
 10
934.9822972551986
 20
147.0072900043182
 30
0.0
 11
934.4903791955983
 21
145.0343144300123
 31
0.0
  0
LINE
  5
222
330
320
100
AcDbEntity
  8
0
100
AcDbLine
 10
934.9822972551986
 20
147.0072900043182
 30
0.0
 11
929.7360837673975
 21
148.3153179357207
 31
0.0
  0
LINE
  5
223
330
320
100
AcDbEntity
  8
0
100
AcDbLine
 10
935.4586412395501
 20
149.7087709826549
 30
0.0
 11
930.0814412374236
 21
150.2739374767488
 31
0.0
  0
LINE
  5
224
330
320
100
AcDbEntity
  8
0
100
AcDbLine
 10
935.6711868576145
 20
151.73100745607
 30
0.0
 11
935.4586412395501
 21
149.7087709826549
 31
0.0
  0
LINE
  5
225
330
320
100
AcDbEntity
  8
0
100
AcDbLine
 10
935.6711868576145
 20
151.73100745607
 30
0.0
 11
930.2939868554884
 21
152.2961739501641
 31
0.0
  0
LINE
  5
226
330
320
100
AcDbEntity
  8
0
100
AcDbLine
 10
935.766921610115
 20
154.4724920766552
 30
0.0
 11
930.3633961752305
 21
154.2837968105008
 31
0.0
  0
LINE
  5
227
330
320
100
AcDbEntity
  8
0
100
AcDbLine
 10
935.6959578279557
 20
156.5046289164842
 30
0.0
 11
935.766921610115
 21
154.4724920766552
 31
0.0
  0
LINE
  5
228
330
320
100
AcDbEntity
  8
0
100
AcDbLine
 10
935.6959578279557
 20
156.5046289164842
 30
0.0
 11
930.2924323930712
 21
156.3159336503299
 31
0.0
  0
LINE
  5
229
330
320
100
AcDbEntity
  8
0
100
AcDbLine
 10
935.409219980545
 20
159.2327572995714
 30
0.0
 11
930.0845425890731
 21
158.2938730118863
 31
0.0
  0
LINE
  5
22A
330
320
100
AcDbEntity
  8
0
100
AcDbLine
 10
935.0561280274613
 20
161.2352412737485
 30
0.0
 11
935.409219980545
 21
159.2327572995714
 31
0.0
  0
LINE
  5
22B
330
320
100
AcDbEntity
  8
0
100
AcDbLine
 10
935.0561280274613
 20
161.2352412737485
 30
0.0
 11
929.7314506359892
 21
160.2963569860637
 31
0.0
  0
LINE
  5
22C
330
320
100
AcDbEntity
  8
0
100
AcDbLine
 10
934.3924986061791
 20
163.8969135035601
 30
0.0
 11
929.250308046814
 21
162.2261145090395
 31
0.0
  0
LINE
  5
22D
330
320
100
AcDbEntity
  8
0
100
AcDbLine
 10
933.7641510154014
 20
165.8307685393199
 30
0.0
 11
934.3924986061791
 21
163.8969135035601
 31
0.0
  0
LINE
  5
22E
330
320
100
AcDbEntity
  8
0
100
AcDbLine
 10
933.7641510154014
 20
165.8307685393199
 30
0.0
 11
928.6219604560365
 21
164.1599695447994
 31
0.0
  0
LINE
  5
22F
330
320
100
AcDbEntity
  8
0
100
AcDbLine
 10
932.736546812066
 20
168.3741781935107
 30
0.0
 11
927.8769299748913
 21
166.0039846940769
 31
0.0
  0
LINE
  5
230
330
320
100
AcDbEntity
  8
0
100
AcDbLine
 10
931.8451736547146
 20
170.2017640023092
 30
0.0
 11
932.736546812066
 21
168.3741781935107
 31
0.0
  0
LINE
  5
231
330
320
100
AcDbEntity
  8
0
100
AcDbLine
 10
931.8451736547146
 20
170.2017640023092
 30
0.0
 11
926.9855568175394
 21
167.8315705028755
 31
0.0
  0
LINE
  5
232
330
320
100
AcDbEntity
  8
0
100
AcDbLine
 10
930.4735958162615
 20
172.5774065050453
 30
0.0
 11
925.9911396152799
 21
169.5539516211099
 31
0.0
  0
LINE
  5
233
330
320
100
AcDbEntity
  8
0
100
AcDbLine
 10
929.3365466569218
 20
174.2631512079626
 30
0.0
 11
930.4735958162615
 21
172.5774065050453
 31
0.0
  0
LINE
  5
234
330
320
100
AcDbEntity
  8
0
100
AcDbLine
 10
929.3365466569218
 20
174.2631512079626
 30
0.0
 11
924.85409045594
 21
171.2396963240273
 31
0.0
  0
LINE
  5
235
330
320
100
AcDbEntity
  8
0
100
AcDbLine
 10
927.6476913858298
 20
176.4247873801819
 30
0.0
 11
923.6296417322749
 21
172.8069192219315
 31
0.0
  0
LINE
  5
236
330
320
100
AcDbEntity
  8
0
100
AcDbLine
 10
927.1081195426436
 20
177.0240426218739
 30
0.0
 11
927.6476913858298
 21
176.4247873801819
 31
0.0
  0
LINE
  5
239
330
320
100
AcDbEntity
  8
0
100
AcDbLine
 10
922.7561805203238
 20
181.1484645148477
 30
0.0
 11
924.3138365360906
 21
179.8414359265168
 31
0.0
  0
LINE
  5
23A
330
320
100
AcDbEntity
  8
0
100
AcDbLine
 10
922.7561805203238
 20
181.1484645148477
 30
0.0
 11
919.2807441802388
 21
177.0066007707189
 31
0.0
  0
LINE
  5
23B
330
320
100
AcDbEntity
  8
0
100
AcDbLine
 10
920.5369209594907
 20
182.7608509664756
 30
0.0
 11
917.6717433479851
 21
178.1756083029474
 31
0.0
  0
LINE
  5
23C
330
320
100
AcDbEntity
  8
0
100
AcDbLine
 10
918.8125207233122
 20
183.8383758244887
 30
0.0
 11
920.5369209594907
 21
182.7608509664756
 31
0.0
  0
LINE
  5
23D
330
320
100
AcDbEntity
  8
0
100
AcDbLine
 10
918.8125207233122
 20
183.8383758244887
 30
0.0
 11
915.9473431118062
 21
179.2531331609607
 31
0.0
  0
LINE
  5
23E
330
320
100
AcDbEntity
  8
0
100
AcDbLine
 10
916.3904580215506
 20
185.1262094070908
 30
0.0
 11
914.1913065617409
 21
180.1868343569726
 31
0.0
  0
LINE
  5
23F
330
320
100
AcDbEntity
  8
0
100
AcDbLine
 10
914.5328770540812
 20
185.9532577390913
 30
0.0
 11
916.3904580215506
 21
185.1262094070908
 31
0.0
  0
LINE
  5
240
330
320
100
AcDbEntity
  8
0
100
AcDbLine
 10
914.5328770540812
 20
185.9532577390913
 30
0.0
 11
912.3337255942713
 21
181.0138826889732
 31
0.0
  0
LINE
  5
241
330
320
100
AcDbEntity
  8
0
100
AcDbLine
 10
911.9551539068256
 20
186.8914722368714
 30
0.0
 11
910.4648325803793
 21
181.6941041170579
 31
0.0
  0
LINE
  5
242
330
320
100
AcDbEntity
  8
0
100
AcDbLine
 10
910.0005479086304
 20
187.4519464878303
 30
0.0
 11
911.9551539068256
 21
186.8914722368714
 31
0.0
  0
LINE
  5
243
330
320
100
AcDbEntity
  8
0
100
AcDbLine
 10
910.0005479086304
 20
187.4519464878303
 30
0.0
 11
908.510226582184
 21
182.254578368017
 31
0.0
  0
LINE
  5
244
330
320
100
AcDbEntity
  8
0
100
AcDbLine
 10
907.3173367648253
 20
188.0222806227921
 30
0.0
 11
906.5648529811465
 21
182.6680802918171
 31
0.0
  0
LINE
  5
245
330
320
100
AcDbEntity
  8
0
100
AcDbLine
 10
905.3037499183275
 20
188.3052717989447
 30
0.0
 11
907.3173367648253
 21
188.0222806227921
 31
0.0
  0
LINE
  5
246
330
320
100
AcDbEntity
  8
0
100
AcDbLine
 10
905.3037499183275
 20
188.3052717989447
 30
0.0
 11
904.5512661346485
 21
182.9510714679697
 31
0.0
  0
LINE
  5
24C
330
320
100
AcDbEntity
  8
0
100
AcDbLine
 10
882.6402112133635
 20
176.0337434596654
 30
0.0
 11
832.8385624100629
 21
225.8353922629662
 31
0.0
  0
LINE
  5
24D
330
320
100
AcDbEntity
  8
0
100
AcDbLine
 10
879.8117840886174
 20
173.2053163349191
 30
0.0
 11
830.0101352853166
 21
223.0069651382199
 31
0.0
  0
LINE
  5
24F
330
320
100
AcDbEntity
  8
0
100
AcDbLine
 10
876.6972525388201
 20
177.7340614470897
 30
0.0
 11
830.7065478838534
 21
223.7247661020563
 31
0.0
  0
LINE
  5
250
330
320
100
AcDbEntity
  8
0
100
AcDbLine
 10
878.1056420131353
 20
179.1540990975208
 30
0.0
 11
832.1207614462265
 21
225.1389796644294
 31
0.0
  0
LINE
  5
251
330
320
100
AcDbEntity
  8
0
100
AcDbLine
 10
875.9930578016623
 20
177.0240426218741
 30
0.0
 11
878.7873408082152
 21
179.8414359265167
 31
0.0
  0
CIRCLE
  5
254
330
320
100
AcDbEntity
  8
0
100
AcDbCircle
 10
879.2982888545408
 20
176.5316261933913
 30
0.0
 40
0.4853732833410716
  0
LINE
  5
267
330
320
100
AcDbEntity
  8
0
100
AcDbLine
 10
882.6402112133637
 20
132.5561342925942
 30
0.0
 11
832.8385624100629
 21
82.75448548929364
 31
0.0
  0
LINE
  5
268
330
320
100
AcDbEntity
  8
0
100
AcDbLine
 10
878.1114661011931
 20
129.4416027427969
 30
0.0
 11
832.1207614462267
 21
83.45089808783042
 31
0.0
  0
LINE
  5
269
330
320
100
AcDbEntity
  8
0
100
AcDbLine
 10
876.691428450762
 20
130.8499922171122
 30
0.0
 11
830.7065478838534
 21
84.86511165020352
 31
0.0
  0
LINE
  5
26A
330
320
100
AcDbEntity
  8
0
100
AcDbLine
 10
879.8117840886176
 20
135.3845614173404
 30
0.0
 11
830.0101352853166
 21
85.58291261403997
 31
0.0
  0
LINE
  5
26B
330
320
100
AcDbEntity
  8
0
100
AcDbLine
 10
878.8214849264087
 20
128.7374080056392
 30
0.0
 11
876.0040916217661
 21
131.5316910121921
 31
0.0
  0
CIRCLE
  5
26C
330
320
100
AcDbEntity
  8
0
100
AcDbCircle
 10
879.3139013548914
 20
132.0426390585177
 30
0.0
 40
0.4853732833410716
  0
LINE
  5
26D
330
320
100
AcDbEntity
  8
0
100
AcDbLine
 10
923.2893932556885
 20
135.3845614173406
 30
0.0
 11
973.0910420589893
 21
85.58291261403983
 31
0.0
  0
LINE
  5
26E
330
320
100
AcDbEntity
  8
0
100
AcDbLine
 10
926.4039248054858
 20
130.8558163051699
 30
0.0
 11
972.3946294604525
 21
84.86511165020345
 31
0.0
  0
LINE
  5
26F
330
320
100
AcDbEntity
  8
0
100
AcDbLine
 10
924.9955353311705
 20
129.4357786547389
 30
0.0
 11
970.9804158980794
 21
83.45089808783033
 31
0.0
  0
LINE
  5
270
330
320
100
AcDbEntity
  8
0
100
AcDbLine
 10
920.4609661309422
 20
132.5561342925943
 30
0.0
 11
970.262614934243
 21
82.75448548929356
 31
0.0
  0
LINE
  5
271
330
320
100
AcDbEntity
  8
0
100
AcDbLine
 10
927.1081195426434
 20
131.5658351303855
 30
0.0
 11
924.3138365360906
 21
128.748441825743
 31
0.0
  0
CIRCLE
  5
272
330
320
100
AcDbEntity
  8
0
100
AcDbCircle
 10
923.8028884897651
 20
132.0582515588684
 30
0.0
 40
0.4853732833410716
  0
LINE
  5
273
330
320
100
AcDbEntity
  8
0
100
AcDbLine
 10
920.4609661309422
 20
176.0337434596652
 30
0.0
 11
970.262614934243
 21
225.835392262966
 31
0.0
  0
LINE
  5
274
330
320
100
AcDbEntity
  8
0
100
AcDbLine
 10
924.9897112431128
 20
179.1482750094626
 30
0.0
 11
970.9804158980794
 21
225.1389796644292
 31
0.0
  0
LINE
  5
275
330
320
100
AcDbEntity
  8
0
100
AcDbLine
 10
926.4097488935441
 20
177.7398855351473
 30
0.0
 11
972.3946294604527
 21
223.7247661020561
 31
0.0
  0
LINE
  5
276
330
320
100
AcDbEntity
  8
0
100
AcDbLine
 10
923.2893932556885
 20
173.205316334919
 30
0.0
 11
973.0910420589893
 21
223.0069651382196
 31
0.0
  0
LINE
  5
277
330
320
100
AcDbEntity
  8
0
100
AcDbLine
 10
924.2796924178971
 20
179.8524697466202
 30
0.0
 11
927.0970857225398
 21
177.0581867400674
 31
0.0
  0
CIRCLE
  5
278
330
320
100
AcDbEntity
  8
0
100
AcDbCircle
 10
923.7872759894145
 20
176.5472386937419
 30
0.0
 40
0.4853732833410716
  0
LINE
  5
27E
330
320
100
AcDbEntity
  8
0
100
AcDbLine
 10
916.7562734796084
 20
172.0016417722408
 30
0.0
 11
919.4730776137003
 21
169.286738393388
 31
0.0
  0
LINE
  5
27F
330
320
100
AcDbEntity
  8
0
100
AcDbLine
 10
913.2219770040762
 20
168.4648708688543
 30
0.0
 11
915.9387811381682
 21
165.7499674900015
 31
0.0
  0
LINE
  5
280
330
320
100
AcDbEntity
  8
0
100
AcDbLine
 10
913.2219770040762
 20
168.4648708688543
 30
0.0
 11
916.7562734796084
 21
172.0016417722408
 31
0.0
  0
LINE
  5
281
330
320
100
AcDbEntity
  8
0
100
AcDbLine
 10
915.9387811381682
 20
165.7499674900015
 30
0.0
 11
919.4730776137003
 21
169.286738393388
 31
0.0
  0
LINE
  5
285
330
320
100
AcDbEntity
  8
0
100
AcDbLine
 10
894.1697825798646
 20
198.2078649723341
 30
0.0
 11
883.7113631337503
 21
236.5954965225009
 31
0.0
  0
LINE
  5
286
330
320
100
AcDbEntity
  8
0
100
AcDbLine
 10
883.7113631337503
 20
236.595496522501
 30
0.0
 11
884.5087564692759
 21
250.824684740306
 31
0.0
  0
LINE
  5
287
330
320
100
AcDbEntity
  8
0
100
AcDbLine
 10
924.9989160152995
 20
249.4715737517237
 30
0.0
 11
916.5332970029959
 21
234.7647498302921
 31
0.0
  0
LINE
  5
288
330
320
100
AcDbEntity
  8
0
100
AcDbLine
 10
916.5332970029961
 20
234.7647498302923
 30
0.0
 11
911.1964775641364
 21
197.7665181479503
 31
0.0
  0
ARC
  5
28A
330
320
100
AcDbEntity
  8
0
100
AcDbCircle
 10
901.550588672153
 20
154.2949388761298
 30
0.0
 40
98.02252741810661
100
AcDbArc
 50
76.15986552396301
 51
100.0121076848687
  0
LINE
  5
28B
330
320
100
AcDbEntity
  8
0
100
AcDbLine
 10
862.61622323481
 20
175.9036538979465
 30
0.0
 11
826.0828464832933
 21
191.661229107158
 31
0.0
  0
LINE
  5
28C
330
320
100
AcDbEntity
  8
0
100
AcDbLine
 10
826.0828464832933
 20
191.6612291071583
 30
0.0
 11
815.4551857774205
 21
201.1564100633122
 31
0.0
  0
ARC
  5
28D
330
320
100
AcDbEntity
  8
0
100
AcDbCircle
 10
901.550588672153
 20
154.2949388761298
 30
0.0
 40
98.02252741810661
100
AcDbArc
 50
127.5884369525344
 51
151.4406791134401
  0
LINE
  5
28E
330
320
100
AcDbEntity
  8
0
100
AcDbLine
 10
841.7582921001464
 20
231.9692406243829
 30
0.0
 11
847.9783229284429
 21
216.1809984292392
 31
0.0
  0
LINE
  5
28F
330
320
100
AcDbEntity
  8
0
100
AcDbLine
 10
847.9783229284427
 20
216.1809984292395
 30
0.0
 11
873.5772527588533
 21
188.9404848349446
 31
0.0
  0
LINE
  5
290
330
320
100
AcDbEntity
  8
0
100
AcDbLine
 10
860.3810351803925
 20
137.3276396746742
 30
0.0
 11
825.2830789624393
 21
118.5893830144383
 31
0.0
  0
LINE
  5
291
330
320
100
AcDbEntity
  8
0
100
AcDbLine
 10
825.2830789624393
 20
118.5893830144384
 30
0.0
 11
811.2332094914608
 21
116.2004917825638
 31
0.0
  0
ARC
  5
292
330
320
100
AcDbEntity
  8
0
100
AcDbCircle
 10
901.5505886721533
 20
154.29493887613
 30
0.0
 40
98.02252741810661
100
AcDbArc
 50
179.0170083811058
 51
202.8692505420115
  0
LINE
  5
293
330
320
100
AcDbEntity
  8
0
100
AcDbLine
 10
803.5424870442884
 20
155.9765740136035
 30
0.0
 11
819.7643576339713
 21
150.9957819391395
 31
0.0
  0
LINE
  5
294
330
320
100
AcDbEntity
  8
0
100
AcDbLine
 10
819.7643576339711
 20
150.9957819391397
 30
0.0
 11
857.0225204483476
 21
154.0256487746077
 31
0.0
  0
LINE
  5
295
330
320
100
AcDbEntity
  8
0
100
AcDbLine
 10
889.1473606111154
 20
111.5283478199264
 30
0.0
 11
881.914301826676
 21
72.40454874617757
 31
0.0
  0
LINE
  5
296
330
320
100
AcDbEntity
  8
0
100
AcDbLine
 10
881.9143018266759
 20
72.40454874617757
 30
0.0
 11
875.0220618673459
 21
59.93046914837652
 31
0.0
  0
ARC
  5
297
330
320
100
AcDbEntity
  8
0
100
AcDbCircle
 10
901.5505886721533
 20
154.2949388761298
 30
0.0
 40
98.02252741810661
100
AcDbArc
 50
230.4455798096772
 51
254.297821970583
  0
LINE
  5
298
330
320
100
AcDbEntity
  8
0
100
AcDbLine
 10
839.1287815151438
 20
78.71760184520119
 30
0.0
 11
853.1370924463265
 21
88.29489791313054
 31
0.0
  0
LINE
  5
299
330
320
100
AcDbEntity
  8
0
100
AcDbLine
 10
853.1370924463262
 20
88.29489791313046
 30
0.0
 11
873.9983317174274
 21
119.3135936532338
 31
0.0
  0
LINE
  5
29A
330
320
100
AcDbEntity
  8
0
100
AcDbLine
 10
927.2535697515433
 20
117.9331713099738
 30
0.0
 11
953.3320491928112
 21
87.88484850530472
 31
0.0
  0
LINE
  5
29B
330
320
100
AcDbEntity
  8
0
100
AcDbLine
 10
953.332049192811
 20
87.8848485053046
 30
0.0
 11
958.7874360105784
 21
74.71881690357304
 31
0.0
  0
ARC
  5
29C
330
320
100
AcDbEntity
  8
0
100
AcDbCircle
 10
901.5505886721529
 20
154.2949388761298
 30
0.0
 40
98.02252741810661
100
AcDbArc
 50
281.8741512382487
 51
305.7263933991544
  0
LINE
  5
29D
330
320
100
AcDbEntity
  8
0
100
AcDbLine
 10
921.7199699480419
 20
58.36990595780719
 30
0.0
 11
922.9661773720762
 21
75.2933908877427
 31
0.0
  0
LINE
  5
29E
330
320
100
AcDbEntity
  8
0
100
AcDbLine
 10
922.966177372076
 20
75.29339088774236
 30
0.0
 11
911.7215544370328
 21
110.9432049741012
 31
0.0
  0
LINE
  5
29F
330
320
100
AcDbEntity
  8
0
100
AcDbLine
 10
946.0049098939267
 20
151.7191474222213
 30
0.0
 11
985.7573006375922
 21
153.3733008326293
 31
0.0
  0
LINE
  5
2A0
330
320
100
AcDbEntity
  8
0
100
AcDbLine
 10
985.7573006375922
 20
153.3733008326291
 30
0.0
 11
999.4522966890675
 21
149.4296075611714
 31
0.0
  0
ARC
  5
2A1
330
320
100
AcDbEntity
  8
0
100
AcDbCircle
 10
901.550588672153
 20
154.2949388761297
 30
0.0
 40
98.02252741810661
100
AcDbArc
 50
333.3027226668201
 51
357.1549648277258
  0
LINE
  5
2A2
330
320
100
AcDbEntity
  8
0
100
AcDbLine
 10
989.123202899797
 20
110.2557163719834
 30
0.0
 11
976.6688872083861
 21
121.7816608355035
 31
0.0
  0
LINE
  5
2A3
330
320
100
AcDbEntity
  8
0
100
AcDbLine
 10
976.6688872083864
 20
121.7816608355033
 30
0.0
 11
941.7858324857926
 21
135.217556137409
 31
0.0
  0
LINE
  5
2A4
330
320
100
AcDbEntity
  8
0
100
AcDbLine
 10
931.281239453419
 20
187.4447470358322
 30
0.0
 11
954.7731804685091
 21
219.5557654046999
 31
0.0
  0
LINE
  5
2A5
330
320
100
AcDbEntity
  8
0
100
AcDbLine
 10
954.7731804685091
 20
219.5557654046998
 30
0.0
 11
966.3951743999226
 21
227.8040919336057
 31
0.0
  0
ARC
  5
2A6
330
320
100
AcDbEntity
  8
0
100
AcDbCircle
 10
901.550588672153
 20
154.2949388761298
 30
0.0
 40
98.02252741810661
100
AcDbArc
 50
24.73129409539152
 51
48.58353625629727
  0
LINE
  5
2A7
330
320
100
AcDbEntity
  8
0
100
AcDbLine
 10
990.5824711823543
 20
195.3039595682069
 30
0.0
 11
973.8059861128724
 21
192.7530922978611
 31
0.0
  0
LINE
  5
2A8
330
320
100
AcDbEntity
  8
0
100
AcDbLine
 10
973.8059861128727
 20
192.753092297861
 30
0.0
 11
941.5521512934811
 21
173.857565610662
 31
0.0
  0
DIMENSION
  5
2A9
330
320
100
AcDbEntity
  8
koty
100
AcDbDimension
  2
*D3
 10
687.4132684200503
 20
1.156731952832161
 30
0.0
 11
600.4132684200503
 21
17.40673195283216
 31
0.0
 70
    32
 71
     0
 42
174.0
  3
ISO-25
100
AcDbAlignedDimension
 13
513.4132684200503
 23
46.29493887612989
 33
0.0
 14
687.4132684200503
 24
46.29493887612989
 34
0.0
100
AcDbRotatedDimension
  0
DIMENSION
  5
2C1
330
320
100
AcDbEntity
  8
koty
100
AcDbDimension
  2
*D4
 10
725.4132684200503
 20
-70.64558041495184
 30
0.0
 11
600.4132684200503
 21
-54.39558041495184
 31
0.0
 70
    32
 71
     0
 42
249.9999999999999
  3
ISO-25
100
AcDbAlignedDimension
 13
475.4132684200503
 23
51.29493887612989
 33
0.0
 14
725.4132684200503
 24
51.29493887612989
 34
0.0
100
AcDbRotatedDimension
  0
DIMENSION
  5
2D9
330
320
100
AcDbEntity
  8
koty
100
AcDbDimension
  2
*D5
 10
408.3451305069175
 20
257.2949388761299
 30
0.0
 11
392.0951305069175
 21
154.2949388761299
 31
0.0
 70
    32
 71
     0
 42
206.0
  3
ISO-25
100
AcDbAlignedDimension
 13
475.4132684200503
 23
51.29493887612989
 33
0.0
 14
475.4132684200503
 24
257.2949388761299
 34
0.0
 50
90.0
100
AcDbRotatedDimension
  0
TEXT
  5
2F1
330
320
100
AcDbEntity
  8
popis
100
AcDbText
 10
460.3449812506077
 20
303.7477361332257
 30
0.0
 40
15.0
  1
TREB 200 malý axiální ventilátor
100
AcDbText
  0
VIEWPORT
  5
373
330
31C
100
AcDbEntity
 67
     1
  8
0
 60
     1
100
AcDbViewport
 10
0.0
 20
0.0
 30
0.0
 40
10.0
 41
10.0
 69
     1
 12
0.0
 22
0.0
 13
0.0
 23
0.0
 14
1.0
 24
1.0
 15
0.0
 25
0.0
 16
0.0
 26
0.0
 36
1.0
 17
0.0
 27
0.0
 37
0.0
 42
0.0
 43
0.0
 44
0.0
 45
10.0
 50
0.0
 51
0.0000000000007958
 72
   100
 90
   163872
  1

281
     0
 71
     0
 74
     0
110
0.0
120
0.0
130
0.0
111
1.0
121
0.0
131
0.0
112
0.0
122
1.0
132
0.0
 79
     0
146
0.0
1001
VD_INVISIBLE_NOT_FOR_READ
1000
VD_INVISIBLE_NOT_FOR_READ
  0
VIEWPORT
  5
374
330
31C
100
AcDbEntity
 67
     1
  8
0
 60
     1
100
AcDbViewport
 10
0.0
 20
0.0
 30
0.0
 40
10.0
 41
10.0
 69
     2
 12
0.0
 22
0.0
 13
0.0
 23
0.0
 14
1.0
 24
1.0
 15
0.0
 25
0.0
 16
0.0
 26
0.0
 36
1.0
 17
0.0
 27
0.0
 37
0.0
 42
0.0
 43
0.0
 44
0.0
 45
10.0
 50
0.0
 51
0.0000000000007958
 72
   100
 90
   163872
  1

281
     0
 71
     0
 74
     0
110
0.0
120
0.0
130
0.0
111
1.0
121
0.0
131
0.0
112
0.0
122
1.0
132
0.0
 79
     0
146
0.0
1001
VD_INVISIBLE_NOT_FOR_READ
1000
VD_INVISIBLE_NOT_FOR_READ
  0
ENDSEC
  0
SECTION
  2
OBJECTS
  0
DICTIONARY
  5
30D
330
0
100
AcDbDictionary
281
     1
  3
ACAD_GROUP
350
30E
  3
ACAD_LAYOUT
350
31B
  3
ACAD_MLINESTYLE
350
318
  3
ACAD_PLOTSETTINGS
350
31A
  3
ACAD_PLOTSTYLENAME
350
30F
  3
VECTORDRAW_OBJECTS
350
330
  0
DICTIONARY
  5
30E
102
{ACAD_REACTORS
330
30D
102
}
330
30D
100
AcDbDictionary
281
     1
  0
DICTIONARY
  5
31B
102
{ACAD_REACTORS
330
30D
102
}
330
30D
100
AcDbDictionary
281
     1
  3
Model
350
323
  3
Rozvržení1
350
31F
  3
Rozvržení2
350
327
  0
DICTIONARY
  5
318
102
{ACAD_REACTORS
330
30D
102
}
330
30D
100
AcDbDictionary
281
     1
  3
Standard
350
319
  0
DICTIONARY
  5
31A
102
{ACAD_REACTORS
330
30D
102
}
330
30D
100
AcDbDictionary
281
     1
  0
ACDBDICTIONARYWDFLT
  5
30F
102
{ACAD_REACTORS
330
30D
102
}
330
30D
100
AcDbDictionary
281
     1
  3
Normal
350
310
100
AcDbDictionaryWithDefault
340
310
  0
DICTIONARY
  5
330
102
{ACAD_REACTORS
330
30D
102
}
330
30D
100
AcDbDictionary
281
     1
  3
SERIALNO
350
331
  0
LAYOUT
  5
323
102
{ACAD_REACTORS
330
31B
102
}
330
31B
100
AcDbPlotSettings
  1
VectorDraw Printer Drawing
  2

  4

  6

 40
0.0
 41
0.0
 42
0.0
 43
0.0
 44
0.0
 45
0.0
 46
0.0
 47
0.0
 48
0.0
 49
0.0
140
0.0
141
0.0
142
1.0
143
1.0
 70
  1712
 72
     0
 73
     0
 74
     0
  7

 75
     0
147
1.0
148
0.0
149
0.0
100
AcDbLayout
  1
Model
 70
     1
 71
     0
 10
0.0
 20
0.0
 11
12.0
 21
9.0
 12
0.0
 22
0.0
 32
0.0
 14
375.9105151223019
 24
-83.14558041495184
 34
0.0
 15
1004.550588672153
 25
318.7477361332257
 35
0.0
146
0.0
 13
0.0
 23
0.0
 33
0.0
 16
1.0
 26
0.0
 36
0.0
 17
0.0
 27
1.0
 37
0.0
 76
     0
330
320
  0
LAYOUT
  5
31F
102
{ACAD_REACTORS
330
31B
102
}
330
31B
100
AcDbPlotSettings
  1
VectorDraw Printer Drawing
  2

  4

  6

 40
0.0
 41
0.0
 42
0.0
 43
0.0
 44
0.0
 45
0.0
 46
0.0
 47
0.0
 48
0.0
 49
0.0
140
0.0
141
0.0
142
1.0
143
1.0
 70
   688
 72
     0
 73
     0
 74
     5
  7

 75
    16
147
1.0
148
0.0
149
0.0
100
AcDbLayout
  1
Rozvržení1
 70
     1
 71
     1
 10
0.0
 20
0.0
 11
12.0
 21
9.0
 12
0.0
 22
0.0
 32
0.0
 14
1.000000000000000E+20
 24
1.000000000000000E+20
 34
1.000000000000000E+20
 15
-1.000000000000000E+20
 25
-1.000000000000000E+20
 35
-1.000000000000000E+20
146
0.0
 13
0.0
 23
0.0
 33
0.0
 16
1.0
 26
0.0
 36
0.0
 17
0.0
 27
1.0
 37
0.0
 76
     0
330
31C
331
373
  0
LAYOUT
  5
327
102
{ACAD_REACTORS
330
31B
102
}
330
31B
100
AcDbPlotSettings
  1
VectorDraw Printer Drawing
  2

  4

  6

 40
0.0
 41
0.0
 42
0.0
 43
0.0
 44
0.0
 45
0.0
 46
0.0
 47
0.0
 48
0.0
 49
0.0
140
0.0
141
0.0
142
1.0
143
1.0
 70
   688
 72
     0
 73
     0
 74
     5
  7

 75
    16
147
1.0
148
0.0
149
0.0
100
AcDbLayout
  1
Rozvržení2
 70
     1
 71
     2
 10
0.0
 20
0.0
 11
12.0
 21
9.0
 12
0.0
 22
0.0
 32
0.0
 14
0.0
 24
0.0
 34
0.0
 15
0.0
 25
0.0
 35
0.0
146
0.0
 13
0.0
 23
0.0
 33
0.0
 16
1.0
 26
0.0
 36
0.0
 17
0.0
 27
1.0
 37
0.0
 76
     0
330
324
331
375
  0
MLINESTYLE
  5
319
102
{ACAD_REACTORS
330
318
102
}
330
318
100
AcDbMlineStyle
  2
Standard
 70
     0
  3

 62
   256
 51
90.0
 52
90.0
 71
     2
 49
0.5
 62
   256
  6
BYLAYER
 49
-0.5
 62
   256
  6
BYLAYER
  0
ACDBPLACEHOLDER
  5
310
102
{ACAD_REACTORS
330
30F
102
}
330
30F
  0
XRECORD
  5
331
102
{ACAD_REACTORS
330
330
102
}
330
330
100
AcDbXrecord
280
     1
1000
rInJVR9YY4Q8hfPWdUq5j5319
1070
     4
1070
     6
  0
ENDSEC
  0
EOF
