  0
SECTION
  2
HEADER
  9
$ACADVER
  1
AC1015
  9
$ACADMAINTVER
 70
     6
  9
$DWGCODEPAGE
  3
ANSI_1252
  9
$INSBASE
 10
0.0
 20
0.0
 30
0.0
  9
$EXTMIN
 10
-666.3995785791221
 20
-183.3192419298866
 30
0.0
  9
$EXTMAX
 10
616.8451349933469
 20
630.5952165948949
 30
0.0
  9
$LIMMIN
 10
0.0
 20
0.0
  9
$LIMMAX
 10
12.0
 20
9.0
  9
$ORTHOMODE
 70
     0
  9
$REGENMODE
 70
     1
  9
$FILLMODE
 70
     1
  9
$QTEXTMODE
 70
     0
  9
$MIRRTEXT
 70
     1
  9
$LTSCALE
 40
1.0
  9
$ATTMODE
 70
     1
  9
$TEXTSIZE
 40
0.2
  9
$TRACEWID
 40
0.05
  9
$TEXTSTYLE
  7
Standard
  9
$CLAYER
  8
popis
  9
$CELTYPE
  6
Continuous
  9
$CECOLOR
 62
    51
  9
$CELTSCALE
 40
1.0
  9
$DISPSILH
 70
     0
  9
$DIMSCALE
 40
10.0
  9
$DIMASZ
 40
2.0
  9
$DIMEXO
 40
0.625
  9
$DIMDLI
 40
0.38
  9
$DIMRND
 40
0.0
  9
$DIMDLE
 40
0.0
  9
$DIMEXE
 40
1.25
  9
$DIMTP
 40
0.0
  9
$DIMTM
 40
0.0
  9
$DIMTXT
 40
2.0
  9
$DIMCEN
 40
0.09
  9
$DIMTSZ
 40
0.0
  9
$DIMTOL
 70
     0
  9
$DIMLIM
 70
     0
  9
$DIMTIH
 70
     0
  9
$DIMTOH
 70
     0
  9
$DIMSE1
 70
     0
  9
$DIMSE2
 70
     0
  9
$DIMTAD
 70
     1
  9
$DIMZIN
 70
     0
  9
$DIMBLK
  1
VDDIM_DEFAULT
  9
$DIMASO
 70
     1
  9
$DIMSHO
 70
     1
  9
$DIMPOST
  1

  9
$DIMAPOST
  1

  9
$DIMALT
 70
     0
  9
$DIMALTD
 70
     2
  9
$DIMALTF
 40
25.4
  9
$DIMLFAC
 40
1.0
  9
$DIMTOFL
 70
     1
  9
$DIMTVP
 40
0.0
  9
$DIMTIX
 70
     1
  9
$DIMSOXD
 70
     0
  9
$DIMSAH
 70
     0
  9
$DIMBLK1
  1

  9
$DIMBLK2
  1

  9
$DIMSTYLE
  2
ISO-25
  9
$DIMCLRD
 70
     0
  9
$DIMCLRE
 70
     0
  9
$DIMCLRT
 70
   256
  9
$DIMTFAC
 40
1.0
  9
$DIMGAP
 40
0.625
  9
$DIMJUST
 70
     0
  9
$DIMSD1
 70
     0
  9
$DIMSD2
 70
     0
  9
$DIMTOLJ
 70
     1
  9
$DIMTZIN
 70
     0
  9
$DIMALTZ
 70
     0
  9
$DIMALTTZ
 70
     0
  9
$DIMUPT
 70
     1
  9
$DIMDEC
 70
     0
  9
$DIMTDEC
 70
     4
  9
$DIMALTU
 70
     2
  9
$DIMALTTD
 70
     2
  9
$DIMTXSTY
  7
Standard
  9
$DIMAUNIT
 70
     0
  9
$DIMADEC
 70
     0
  9
$DIMALTRND
 40
0.0
  9
$DIMAZIN
 70
     0
  9
$DIMDSEP
 70
    46
  9
$DIMATFIT
 70
     3
  9
$DIMFRAC
 70
     0
  9
$DIMLDRBLK
  1

  9
$DIMLUNIT
 70
     2
  9
$DIMLWD
 70
    -2
  9
$DIMLWE
 70
    -2
  9
$DIMTMOVE
 70
     0
  9
$LUNITS
 70
     2
  9
$LUPREC
 70
     4
  9
$SKETCHINC
 40
0.1
  9
$FILLETRAD
 40
0.5
  9
$AUNITS
 70
     0
  9
$AUPREC
 70
     0
  9
$MENU
  1
.
  9
$ELEVATION
 40
0.0
  9
$PELEVATION
 40
0.0
  9
$THICKNESS
 40
0.0
  9
$LIMCHECK
 70
     0
  9
$CHAMFERA
 40
0.5
  9
$CHAMFERB
 40
0.5
  9
$CHAMFERC
 40
1.0
  9
$CHAMFERD
 40
0.0
  9
$SKPOLY
 70
     0
  9
$TDCREATE
 40
2455643.637949722
  9
$TDUCREATE
 40
2455643.596283055
  9
$TDUPDATE
 40
2455643.637949734
  9
$TDUUPDATE
 40
2455643.596283067
  9
$TDINDWG
 40
0.0000000116
  9
$TDUSRTIMER
 40
0.0000000116
  9
$USRTIMER
 70
     1
  9
$ANGBASE
 50
0.0
  9
$ANGDIR
 70
     0
  9
$PDMODE
 70
     0
  9
$PDSIZE
 40
0.0
  9
$PLINEWID
 40
0.0
  9
$SPLFRAME
 70
     0
  9
$SPLINETYPE
 70
     6
  9
$SPLINESEGS
 70
     8
  9
$HANDSEED
  5
2FB
  9
$SURFTAB1
 70
     6
  9
$SURFTAB2
 70
     6
  9
$SURFTYPE
 70
     6
  9
$SURFU
 70
     6
  9
$SURFV
 70
     6
  9
$UCSBASE
  2

  9
$UCSNAME
  2

  9
$UCSORG
 10
0.0
 20
0.0
 30
0.0
  9
$UCSXDIR
 10
1.0
 20
0.0
 30
0.0
  9
$UCSYDIR
 10
0.0
 20
1.0
 30
0.0
  9
$UCSORTHOREF
  2

  9
$UCSORTHOVIEW
 70
     0
  9
$UCSORGTOP
 10
0.0
 20
0.0
 30
0.0
  9
$UCSORGBOTTOM
 10
0.0
 20
0.0
 30
0.0
  9
$UCSORGLEFT
 10
0.0
 20
0.0
 30
0.0
  9
$UCSORGRIGHT
 10
0.0
 20
0.0
 30
0.0
  9
$UCSORGFRONT
 10
0.0
 20
0.0
 30
0.0
  9
$UCSORGBACK
 10
0.0
 20
0.0
 30
0.0
  9
$PUCSBASE
  2

  9
$PUCSNAME
  2

  9
$PUCSORG
 10
0.0
 20
0.0
 30
0.0
  9
$PUCSXDIR
 10
1.0
 20
0.0
 30
0.0
  9
$PUCSYDIR
 10
0.0
 20
1.0
 30
0.0
  9
$PUCSORTHOREF
  2

  9
$PUCSORTHOVIEW
 70
     0
  9
$PUCSORGTOP
 10
0.0
 20
0.0
 30
0.0
  9
$PUCSORGBOTTOM
 10
0.0
 20
0.0
 30
0.0
  9
$PUCSORGLEFT
 10
0.0
 20
0.0
 30
0.0
  9
$PUCSORGRIGHT
 10
0.0
 20
0.0
 30
0.0
  9
$PUCSORGFRONT
 10
0.0
 20
0.0
 30
0.0
  9
$PUCSORGBACK
 10
0.0
 20
0.0
 30
0.0
  9
$USERI1
 70
     0
  9
$USERI2
 70
     0
  9
$USERI3
 70
     0
  9
$USERI4
 70
     0
  9
$USERI5
 70
     0
  9
$USERR1
 40
0.0
  9
$USERR2
 40
0.0
  9
$USERR3
 40
0.0
  9
$USERR4
 40
0.0
  9
$USERR5
 40
0.0
  9
$WORLDVIEW
 70
     1
  9
$SHADEDGE
 70
     3
  9
$SHADEDIF
 70
    70
  9
$TILEMODE
 70
     1
  9
$MAXACTVP
 70
    64
  9
$PINSBASE
 10
0.0
 20
0.0
 30
0.0
  9
$PLIMCHECK
 70
     0
  9
$PEXTMIN
 10
1.000000000000000E+20
 20
1.000000000000000E+20
 30
1.000000000000000E+20
  9
$PEXTMAX
 10
-1.000000000000000E+20
 20
-1.000000000000000E+20
 30
-1.000000000000000E+20
  9
$PLIMMIN
 10
0.0
 20
0.0
  9
$PLIMMAX
 10
12.0
 20
9.0
  9
$UNITMODE
 70
     0
  9
$VISRETAIN
 70
     1
  9
$PLINEGEN
 70
     0
  9
$PSLTSCALE
 70
     1
  9
$TREEDEPTH
 70
  3020
  9
$CMLSTYLE
  2
Standard
  9
$CMLJUST
 70
     0
  9
$CMLSCALE
 40
1.0
  9
$PROXYGRAPHICS
 70
     1
  9
$MEASUREMENT
 70
     0
  9
$CELWEIGHT
370
     0
  9
$ENDCAPS
280
     0
  9
$JOINSTYLE
280
     0
  9
$LWDISPLAY
290
     0
  9
$INSUNITS
 70
     1
  9
$HYPERLINKBASE
  1

  9
$STYLESHEET
  1

  9
$XEDIT
290
     1
  9
$CEPSNTYPE
380
     0
  9
$PSTYLEMODE
290
     0
  9
$FINGERPRINTGUID
  2
{FAEB1C30-E019-11D5-929B-00C0DF256EC4}
  9
$VERSIONGUID
  2
{FAEB1C32-E019-11D5-929B-00C0DF256EC4}
  9
$EXTNAMES
290
     1
  9
$PSVPSCALE
 40
0.0
  9
$OLESTARTUP
290
     0
  0
ENDSEC
  0
SECTION
  2
CLASSES
  0
CLASS
  1
ACDBDICTIONARYWDFLT
  2
AcDbDictionaryWithDefault
  3
ObjectDBX Classes
 90
        0
280
     0
281
     0
  0
CLASS
  1
ACDBPLACEHOLDER
  2
AcDbPlaceHolder
  3
ObjectDBX Classes
 90
        0
280
     0
281
     0
  0
CLASS
  1
LAYOUT
  2
AcDbLayout
  3
ObjectDBX Classes
 90
        0
280
     0
281
     0
  0
ENDSEC
  0
SECTION
  2
TABLES
  0
TABLE
  2
VPORT
  5
278
330
0
100
AcDbSymbolTable
 70
     2
  0
VPORT
  5
299
330
278
100
AcDbSymbolTableRecord
100
AcDbViewportTableRecord
  2
*Active
 70
     0
 10
0.0
 20
0.0
 11
1.0
 21
1.0
 12
16.0
 22
125.0
 13
0.0
 23
0.0
 14
10.0
 24
10.0
 15
10.0
 25
10.0
 16
0.0
 26
0.0
 36
1.0
 17
0.0
 27
0.0
 37
0.0
 40
1183.895540211021
 41
0.0149985840410278
 42
50.0
 43
0.0
 44
0.0
 50
0.0
 51
0.0000000000007958
 71
     0
 72
   100
 73
     1
 74
     3
 75
     0
 76
     0
 77
     0
 78
     0
281
     0
 65
     1
110
0.0
120
0.0
130
0.0
111
1.0
121
0.0
131
0.0
112
0.0
122
1.0
132
0.0
 79
     0
146
0.0
  0
ENDTAB
  0
TABLE
  2
LTYPE
  5
275
330
0
100
AcDbSymbolTable
 70
    25
  0
LTYPE
  5
284
330
275
100
AcDbSymbolTableRecord
100
AcDbLinetypeTableRecord
  2
ByBlock
 70
     0
  3

 72
    65
 73
     0
 40
0.0
  0
LTYPE
  5
285
330
275
100
AcDbSymbolTableRecord
100
AcDbLinetypeTableRecord
  2
ByLayer
 70
     0
  3

 72
    65
 73
     0
 40
0.0
  0
LTYPE
  5
286
330
275
100
AcDbSymbolTableRecord
100
AcDbLinetypeTableRecord
  2
Continuous
 70
     0
  3
Solid line
 72
    65
 73
     0
 40
0.0
  0
LTYPE
  5
2A1
330
275
100
AcDbSymbolTableRecord
100
AcDbLinetypeTableRecord
  2
CENTER
 70
     0
  3
Center ____ _ ____ _ ____ _ ____ _ ____ _ ____
 72
    65
 73
     4
 40
2.0
 49
1.25
 74
     0
 49
-0.25
 74
     0
 49
0.25
 74
     0
 49
-0.25
 74
     0
  0
LTYPE
  5
2A2
330
275
100
AcDbSymbolTableRecord
100
AcDbLinetypeTableRecord
  2
DASHDOT
 70
     0
  3
Dashdot __ . __ . __ . __ . __ . __ . __ . __
 72
    65
 73
     4
 40
1.0
 49
0.5
 74
     0
 49
-0.25
 74
     0
 49
0.0
 74
     0
 49
-0.25
 74
     0
  0
LTYPE
  5
2A3
330
275
100
AcDbSymbolTableRecord
100
AcDbLinetypeTableRecord
  2
DASHED
 70
     0
  3
Dashed __ __ __ __ __ __ __ __ __ __ __ __ __ _
 72
    65
 73
     2
 40
0.75
 49
0.5
 74
     0
 49
-0.25
 74
     0
  0
LTYPE
  5
2A4
330
275
100
AcDbSymbolTableRecord
100
AcDbLinetypeTableRecord
  2
HIDDEN
 70
     0
  3
Hidden __ __ __ __ __ __ __ __ __ __ __ __ __ __
 72
    65
 73
     2
 40
0.375
 49
0.25
 74
     0
 49
-0.125
 74
     0
  0
LTYPE
  5
2A5
330
275
100
AcDbSymbolTableRecord
100
AcDbLinetypeTableRecord
  2
HIDDEN2
 70
     0
  3
Hidden2 _ _ _ _ _ _ _ _ _ _ _ _ _ _ _ _ _ 
 72
    65
 73
     2
 40
0.1875
 49
0.125
 74
     0
 49
-0.0625
 74
     0
  0
LTYPE
  5
2A6
330
275
100
AcDbSymbolTableRecord
100
AcDbLinetypeTableRecord
  2
BORDER
 70
     0
  3
Border __ __ . __ __ . __ __ . __ __ . __ __ .
 72
    65
 73
     6
 40
1.75
 49
0.5
 74
     0
 49
-0.25
 74
     0
 49
0.5
 74
     0
 49
-0.25
 74
     0
 49
0.0
 74
     0
 49
-0.25
 74
     0
  0
LTYPE
  5
2A7
330
275
100
AcDbSymbolTableRecord
100
AcDbLinetypeTableRecord
  2
BORDER2
 70
     0
  3
Border2 __.__.__.__.__.__.__.__.__.__.__.
 72
    65
 73
     6
 40
0.875
 49
0.25
 74
     0
 49
-0.125
 74
     0
 49
0.25
 74
     0
 49
-0.125
 74
     0
 49
0.0
 74
     0
 49
-0.125
 74
     0
  0
LTYPE
  5
2A8
330
275
100
AcDbSymbolTableRecord
100
AcDbLinetypeTableRecord
  2
BORDERX2
 70
     0
  3
Borderx2  ____  ____  .  ____  ____  .  ___
 72
    65
 73
     6
 40
3.5
 49
1.0
 74
     0
 49
-0.5
 74
     0
 49
1.0
 74
     0
 49
-0.5
 74
     0
 49
0.0
 74
     0
 49
-0.5
 74
     0
  0
LTYPE
  5
2A9
330
275
100
AcDbSymbolTableRecord
100
AcDbLinetypeTableRecord
  2
CENTER2
 70
     0
  3
Center2  ___ _ ___ _ ___ _ ___ _ ___ _ ___
 72
    65
 73
     4
 40
1.125
 49
0.75
 74
     0
 49
-0.125
 74
     0
 49
0.125
 74
     0
 49
-0.125
 74
     0
  0
LTYPE
  5
2AA
330
275
100
AcDbSymbolTableRecord
100
AcDbLinetypeTableRecord
  2
CENTERX2
 70
     0
  3
Centerx2  ________  __  ________  __  _____
 72
    65
 73
     4
 40
4.0
 49
2.5
 74
     0
 49
-0.5
 74
     0
 49
0.5
 74
     0
 49
-0.5
 74
     0
  0
LTYPE
  5
2AB
330
275
100
AcDbSymbolTableRecord
100
AcDbLinetypeTableRecord
  2
DASHDOT2
 70
     0
  3
Dashdot2  _._._._._._._._._._._._._._._.
 72
    65
 73
     4
 40
0.5
 49
0.25
 74
     0
 49
-0.125
 74
     0
 49
0.0
 74
     0
 49
-0.125
 74
     0
  0
LTYPE
  5
2AC
330
275
100
AcDbSymbolTableRecord
100
AcDbLinetypeTableRecord
  2
DASHDOTX2
 70
     0
  3
Dashdotx2 ____  .  ____  .  ____  .  ___
 72
    65
 73
     4
 40
2.0
 49
1.0
 74
     0
 49
-0.5
 74
     0
 49
0.0
 74
     0
 49
-0.5
 74
     0
  0
LTYPE
  5
2AD
330
275
100
AcDbSymbolTableRecord
100
AcDbLinetypeTableRecord
  2
DASHED2
 70
     0
  3
Dashed2 _ _ _ _ _ _ _ _ _ _ _ _ _ _ _ _ _ 
 72
    65
 73
     2
 40
0.375
 49
0.25
 74
     0
 49
-0.125
 74
     0
  0
LTYPE
  5
2AE
330
275
100
AcDbSymbolTableRecord
100
AcDbLinetypeTableRecord
  2
DASHEDX2
 70
     0
  3
Dashedx2 ____  ____  ____  ____  ____  ___
 72
    65
 73
     2
 40
1.5
 49
1.0
 74
     0
 49
-0.5
 74
     0
  0
LTYPE
  5
2AF
330
275
100
AcDbSymbolTableRecord
100
AcDbLinetypeTableRecord
  2
DIVIDE
 70
     0
  3
Divide ____ . . ____ . . ____ . . ____ . . ____
 72
    65
 73
     6
 40
1.25
 49
0.5
 74
     0
 49
-0.25
 74
     0
 49
0.0
 74
     0
 49
-0.25
 74
     0
 49
0.0
 74
     0
 49
-0.25
 74
     0
  0
LTYPE
  5
2B0
330
275
100
AcDbSymbolTableRecord
100
AcDbLinetypeTableRecord
  2
DIVIDE2
 70
     0
  3
Divide2 __..__..__..__..__..__..__..__.._
 72
    65
 73
     6
 40
0.625
 49
0.25
 74
     0
 49
-0.125
 74
     0
 49
0.0
 74
     0
 49
-0.125
 74
     0
 49
0.0
 74
     0
 49
-0.125
 74
     0
  0
LTYPE
  5
2B1
330
275
100
AcDbSymbolTableRecord
100
AcDbLinetypeTableRecord
  2
DIVIDEX2
 70
     0
  3
Dividex2 ________  .  .  ________  .  .  _
 72
    65
 73
     6
 40
2.5
 49
1.0
 74
     0
 49
-0.5
 74
     0
 49
0.0
 74
     0
 49
-0.5
 74
     0
 49
0.0
 74
     0
 49
-0.5
 74
     0
  0
LTYPE
  5
2B2
330
275
100
AcDbSymbolTableRecord
100
AcDbLinetypeTableRecord
  2
DOT
 70
     0
  3
Dot . . . . . . . . . . . . . . . . . . . . . . . .
 72
    65
 73
     2
 40
0.25
 49
0.0
 74
     0
 49
-0.25
 74
     0
  0
LTYPE
  5
2B3
330
275
100
AcDbSymbolTableRecord
100
AcDbLinetypeTableRecord
  2
DOT2
 70
     0
  3
Dot2 ........................................
 72
    65
 73
     2
 40
0.125
 49
0.0
 74
     0
 49
-0.125
 74
     0
  0
LTYPE
  5
2B4
330
275
100
AcDbSymbolTableRecord
100
AcDbLinetypeTableRecord
  2
DOTX2
 70
     0
  3
Dotx2 .  .  .  .  .  .  .  .  .  .  .  .  .  .
 72
    65
 73
     2
 40
0.5
 49
0.0
 74
     0
 49
-0.5
 74
     0
  0
LTYPE
  5
2B5
330
275
100
AcDbSymbolTableRecord
100
AcDbLinetypeTableRecord
  2
HIDDENX2
 70
     0
  3
Hiddenx2 ____ ____ ____ ____ ____ ____ ____ 
 72
    65
 73
     2
 40
0.75
 49
0.5
 74
     0
 49
-0.25
 74
     0
  0
LTYPE
  5
2B6
330
275
100
AcDbSymbolTableRecord
100
AcDbLinetypeTableRecord
  2
PHANTOM
 70
     0
  3
Phantom ______  __  __  ______  __  __  ______ 
 72
    65
 73
     6
 40
2.5
 49
1.25
 74
     0
 49
-0.25
 74
     0
 49
0.25
 74
     0
 49
-0.25
 74
     0
 49
0.25
 74
     0
 49
-0.25
 74
     0
  0
LTYPE
  5
2B7
330
275
100
AcDbSymbolTableRecord
100
AcDbLinetypeTableRecord
  2
PHANTOM2
 70
     0
  3
Phantom2 ___ _ _ ___ _ _ ___ _ _ ___ _ _
 72
    65
 73
     6
 40
1.25
 49
0.625
 74
     0
 49
-0.125
 74
     0
 49
0.125
 74
     0
 49
-0.125
 74
     0
 49
0.125
 74
     0
 49
-0.125
 74
     0
  0
LTYPE
  5
2B8
330
275
100
AcDbSymbolTableRecord
100
AcDbLinetypeTableRecord
  2
PHANTOMX2
 70
     0
  3
Phantomx2 ____________    ____    ____   _
 72
    65
 73
     6
 40
5.0
 49
2.5
 74
     0
 49
-0.5
 74
     0
 49
0.5
 74
     0
 49
-0.5
 74
     0
 49
0.5
 74
     0
 49
-0.5
 74
     0
  0
ENDTAB
  0
TABLE
  2
LAYER
  5
272
330
0
100
AcDbSymbolTable
 70
     4
  0
LAYER
  5
280
330
272
100
AcDbSymbolTableRecord
100
AcDbLayerTableRecord
  2
0
 70
     0
 62
    90
  6
Continuous
370
     0
390
27F
  0
LAYER
  5
2B
330
272
100
AcDbSymbolTableRecord
100
AcDbLayerTableRecord
  2
koty
 70
     0
 62
    41
  6
Continuous
370
     0
390
27F
  0
LAYER
  5
2C
330
272
100
AcDbSymbolTableRecord
100
AcDbLayerTableRecord
  2
popis
 70
     0
 62
   210
  6
Continuous
370
     0
390
27F
  0
LAYER
  5
154
330
272
100
AcDbSymbolTableRecord
100
AcDbLayerTableRecord
  2
Defpoints
 70
     0
 62
     7
  6
Continuous
290
     0
370
     0
390
27F
  0
ENDTAB
  0
TABLE
  2
STYLE
  5
273
330
0
100
AcDbSymbolTable
 70
     2
  0
STYLE
  5
281
330
273
100
AcDbSymbolTableRecord
100
AcDbTextStyleTableRecord
  2
Standard
 70
     0
 40
0.0
 41
1.0
 50
0.0
 71
     0
 42
0.2
  3
txt.shx
  4

1001
ACAD
1000
txt.shx
1071
        0
  0
STYLE
  5
1DD
330
273
100
AcDbSymbolTableRecord
100
AcDbTextStyleTableRecord
  2
Proxy_1DC
 70
     0
 40
20.0
 41
1.0
 50
0.0
 71
     0
 42
0.2
  3
txt.shx
  4

1001
ACAD
1000
txt.shx
1071
        0
  0
ENDTAB
  0
TABLE
  2
VIEW
  5
276
330
0
100
AcDbSymbolTable
 70
     0
  0
ENDTAB
  0
TABLE
  2
UCS
  5
277
330
0
100
AcDbSymbolTable
 70
     0
  0
ENDTAB
  0
TABLE
  2
APPID
  5
279
330
0
100
AcDbSymbolTable
 70
     6
  0
APPID
  5
282
330
279
100
AcDbSymbolTableRecord
100
AcDbRegAppTableRecord
  2
ACAD
 70
     0
  0
APPID
  5
29A
330
279
100
AcDbSymbolTableRecord
100
AcDbRegAppTableRecord
  2
VD_INVISIBLE_NOT_FOR_READ
 70
     0
  0
APPID
  5
29B
330
279
100
AcDbSymbolTableRecord
100
AcDbRegAppTableRecord
  2
VD_TEMPHATCH
 70
     0
  0
APPID
  5
29C
330
279
100
AcDbSymbolTableRecord
100
AcDbRegAppTableRecord
  2
VDEXTRAPARAM
 70
     0
  0
APPID
  5
29D
330
279
100
AcDbSymbolTableRecord
100
AcDbRegAppTableRecord
  2
PE_URL
 70
     0
  0
APPID
  5
29E
330
279
100
AcDbSymbolTableRecord
100
AcDbRegAppTableRecord
  2
VD_UNKNOWN
 70
     0
  0
ENDTAB
  0
TABLE
  2
DIMSTYLE
  5
27A
330
0
100
AcDbSymbolTable
 70
     2
100
AcDbDimStyleTable
  0
DIMSTYLE
105
297
330
27A
100
AcDbSymbolTableRecord
100
AcDbDimStyleTableRecord
  2
STANDARD
 70
     0
 41
0.2
 42
0.05
 44
0.2
 73
     0
 74
     0
140
0.2
172
     1
174
     1
177
   256
178
   256
288
     1
340
281
342
1E0
  0
DIMSTYLE
105
27
102
{ACAD_REACTORS
330
153
330
16C
330
184
330
19C
330
1B4
102
}
330
27A
100
AcDbSymbolTableRecord
100
AcDbDimStyleTableRecord
  2
ISO-25
 70
     0
 40
10.0
 41
2.0
 42
0.625
 44
1.25
 73
     0
 74
     0
 77
     1
140
2.0
147
0.625
172
     1
174
     1
178
   256
271
     0
288
     1
340
281
342
1E0
  0
ENDTAB
  0
TABLE
  2
BLOCK_RECORD
  5
271
330
0
100
AcDbSymbolTable
 70
     8
  0
BLOCK_RECORD
  5
28F
330
271
100
AcDbSymbolTableRecord
100
AcDbBlockTableRecord
  2
*Model_Space
340
292
  0
BLOCK_RECORD
  5
28B
330
271
100
AcDbSymbolTableRecord
100
AcDbBlockTableRecord
  2
*Paper_Space
340
28E
  0
BLOCK_RECORD
  5
293
330
271
100
AcDbSymbolTableRecord
100
AcDbBlockTableRecord
  2
*Paper_Space0
340
296
  0
BLOCK_RECORD
  5
1E0
330
271
100
AcDbSymbolTableRecord
100
AcDbBlockTableRecord
  2
VDDIM_DEFAULT
340
0
102
{BLKREFS
331
2C3
331
2C2
331
2CF
331
2CE
331
2DB
331
2DA
331
2E7
331
2E6
331
2F1
102
}
  0
BLOCK_RECORD
  5
1E2
330
271
100
AcDbSymbolTableRecord
100
AcDbBlockTableRecord
  2
VDDIM_NONE
340
0
  0
BLOCK_RECORD
  5
2BE
330
271
100
AcDbSymbolTableRecord
100
AcDbBlockTableRecord
  2
*D3
340
0
  0
BLOCK_RECORD
  5
2CA
330
271
100
AcDbSymbolTableRecord
100
AcDbBlockTableRecord
  2
*D4
340
0
  0
BLOCK_RECORD
  5
2D6
330
271
100
AcDbSymbolTableRecord
100
AcDbBlockTableRecord
  2
*D5
340
0
  0
BLOCK_RECORD
  5
2E2
330
271
100
AcDbSymbolTableRecord
100
AcDbBlockTableRecord
  2
*D6
340
0
  0
BLOCK_RECORD
  5
2EE
330
271
100
AcDbSymbolTableRecord
100
AcDbBlockTableRecord
  2
*D7
340
0
  0
ENDTAB
  0
ENDSEC
  0
SECTION
  2
BLOCKS
  0
BLOCK
  5
290
330
28F
100
AcDbEntity
  8
0
100
AcDbBlockBegin
  2
*Model_Space
 70
     0
 71
     0
 10
0.0
 20
0.0
 30
0.0
  3
*Model_Space
  1

  0
ENDBLK
  5
291
330
28F
100
AcDbEntity
  8
0
100
AcDbBlockEnd
  0
BLOCK
  5
28C
330
28B
100
AcDbEntity
 67
     1
  8
0
100
AcDbBlockBegin
  2
*Paper_Space
 70
     0
 71
     0
 10
0.0
 20
0.0
 30
0.0
  3
*Paper_Space
  1

  0
ENDBLK
  5
28D
330
28B
100
AcDbEntity
 67
     1
  8
0
100
AcDbBlockEnd
  0
BLOCK
  5
294
330
293
100
AcDbEntity
  8
0
100
AcDbBlockBegin
  2
*Paper_Space0
 70
     0
 71
     0
 10
0.0
 20
0.0
 30
0.0
  3
*Paper_Space0
  1

  0
VIEWPORT
  5
2F9
330
293
100
AcDbEntity
  8
0
 60
     1
100
AcDbViewport
 10
0.0
 20
0.0
 30
0.0
 40
10.0
 41
10.0
 69
     1
 12
0.0
 22
0.0
 13
0.0
 23
0.0
 14
1.0
 24
1.0
 15
0.0
 25
0.0
 16
0.0
 26
0.0
 36
1.0
 17
0.0
 27
0.0
 37
0.0
 42
0.0
 43
0.0
 44
0.0
 45
10.0
 50
0.0
 51
0.0000000000007958
 72
   100
 90
   163872
  1

281
     0
 71
     0
 74
     0
110
0.0
120
0.0
130
0.0
111
1.0
121
0.0
131
0.0
112
0.0
122
1.0
132
0.0
 79
     0
146
0.0
1001
VD_INVISIBLE_NOT_FOR_READ
1000
VD_INVISIBLE_NOT_FOR_READ
  0
VIEWPORT
  5
2FA
330
293
100
AcDbEntity
  8
0
 60
     1
100
AcDbViewport
 10
0.0
 20
0.0
 30
0.0
 40
10.0
 41
10.0
 69
     2
 12
0.0
 22
0.0
 13
0.0
 23
0.0
 14
1.0
 24
1.0
 15
0.0
 25
0.0
 16
0.0
 26
0.0
 36
1.0
 17
0.0
 27
0.0
 37
0.0
 42
0.0
 43
0.0
 44
0.0
 45
10.0
 50
0.0
 51
0.0000000000007958
 72
   100
 90
   163872
  1

281
     0
 71
     0
 74
     0
110
0.0
120
0.0
130
0.0
111
1.0
121
0.0
131
0.0
112
0.0
122
1.0
132
0.0
 79
     0
146
0.0
1001
VD_INVISIBLE_NOT_FOR_READ
1000
VD_INVISIBLE_NOT_FOR_READ
  0
ENDBLK
  5
295
330
293
100
AcDbEntity
  8
0
100
AcDbBlockEnd
  0
BLOCK
  5
2B9
330
1E0
100
AcDbEntity
  8
0
100
AcDbBlockBegin
  2
VDDIM_DEFAULT
 70
     0
 71
     0
 10
0.0
 20
0.0
 30
0.0
  3
VDDIM_DEFAULT
  1

  0
LWPOLYLINE
  5
1E1
330
1E0
100
AcDbEntity
  8
0
  6
Continuous
 62
     0
100
AcDbPolyline
 90
        4
 70
     0
 43
0.0
 10
0.0
 20
0.0
 10
-1.0
 20
-0.1665
 10
-1.0
 20
0.1665
 10
0.0
 20
0.0
1001
VDEXTRAPARAM
1071
        1
1071
        0
1071
        0
1040
1.0
1000

1000

1040
0.0
1040
0.0
  0
HATCH
  5
2BD
330
1E0
100
AcDbEntity
  8
0
  6
Continuous
 62
     0
100
AcDbHatch
 10
0.0
 20
0.0
 30
0.0
210
0.0
220
0.0
230
1.0
  2
SOLID
 70
     1
 71
     0
 91
        1
 92
        2
 72
     0
 73
     1
 93
        3
 10
0.0
 20
0.0
 10
-1.0
 20
-0.1665
 10
-1.0
 20
0.1665
 97
        0
 75
     0
 76
     1
 98
        1
 10
0.0
 20
0.0
1001
VDEXTRAPARAM
1071
        1
1071
        0
1071
        0
1040
1.0
1000

1000

1040
0.0
1040
0.0
1001
VD_TEMPHATCH
1000
VD_TEMPHATCH
  0
ENDBLK
  5
2BA
330
1E0
100
AcDbEntity
  8
0
100
AcDbBlockEnd
  0
BLOCK
  5
2BB
330
1E2
100
AcDbEntity
  8
0
100
AcDbBlockBegin
  2
VDDIM_NONE
 70
     0
 71
     0
 10
0.0
 20
0.0
 30
0.0
  3
VDDIM_NONE
  1

  0
ENDBLK
  5
2BC
330
1E2
100
AcDbEntity
  8
0
100
AcDbBlockEnd
  0
BLOCK
  5
2C8
330
2BE
100
AcDbEntity
  8
0
100
AcDbBlockBegin
  2
*D3
 70
     1
 71
     0
 10
0.0
 20
0.0
 30
0.0
  3
*D3
  1

  0
LINE
  5
2BF
330
2BE
100
AcDbEntity
  8
koty
 62
     0
370
    -2
100
AcDbLine
 10
-448.341052232889
 20
489.7825634891738
 30
0.0
 11
-512.6994231494027
 21
489.7825634891738
 31
0.0
  0
LINE
  5
2C0
330
2BE
100
AcDbEntity
  8
koty
 62
     0
370
    -2
100
AcDbLine
 10
-448.3410522328904
 20
-70.21743651082909
 30
0.0
 11
-512.6994231494027
 21
-70.21743651082909
 31
0.0
  0
LINE
  5
2C1
330
2BE
100
AcDbEntity
  8
koty
 62
     0
370
    -2
100
AcDbLine
 10
-500.1994231494027
 20
469.7825634891737
 30
0.0
 11
-500.1994231494027
 21
-50.21743651082903
 31
0.0
  0
INSERT
  5
2C2
330
2BE
100
AcDbEntity
  8
koty
 62
     0
370
    -2
100
AcDbBlockReference
  2
VDDIM_DEFAULT
 10
-500.1994231494027
 20
489.7825634891737
 30
0.0
 41
20.0
 42
20.0
 43
20.0
 50
90.0
  0
INSERT
  5
2C3
330
2BE
100
AcDbEntity
  8
koty
 62
     0
370
    -2
100
AcDbBlockReference
  2
VDDIM_DEFAULT
 10
-500.1994231494027
 20
-70.21743651082909
 30
0.0
 41
20.0
 42
20.0
 43
20.0
 50
270.0
  0
MTEXT
  5
2C4
330
2BE
100
AcDbEntity
  8
koty
100
AcDbMText
 10
-516.4494231494027
 20
209.7825634891724
 30
0.0
 40
20.0
 41
0.0
 71
     5
 72
     1
  1
\A1;560
 11
1.015061051085852E-16
 21
1.0
 31
0.0
 73
     1
 44
1.0
  0
POINT
  5
2C5
330
2BE
100
AcDbEntity
  8
Defpoints
 62
     0
100
AcDbPoint
 10
-442.091052232889
 20
489.7825634891738
 30
0.0
  0
POINT
  5
2C6
330
2BE
100
AcDbEntity
  8
Defpoints
 62
     0
100
AcDbPoint
 10
-442.0910522328904
 20
-70.21743651082909
 30
0.0
  0
POINT
  5
2C7
330
2BE
100
AcDbEntity
  8
Defpoints
 62
     0
100
AcDbPoint
 10
-500.1994231494027
 20
-70.21743651082909
 30
0.0
  0
ENDBLK
  5
2C9
330
2BE
100
AcDbEntity
  8
0
100
AcDbBlockEnd
  0
BLOCK
  5
2D4
330
2CA
100
AcDbEntity
  8
0
100
AcDbBlockBegin
  2
*D4
 70
     1
 71
     0
 10
0.0
 20
0.0
 30
0.0
  3
*D4
  1

  0
LINE
  5
2CB
330
2CA
100
AcDbEntity
  8
koty
 62
     0
370
    -2
100
AcDbLine
 10
-448.3410522328906
 20
-100.2174365108289
 30
0.0
 11
-579.5381727771601
 21
-100.2174365108289
 31
0.0
  0
LINE
  5
2CC
330
2CA
100
AcDbEntity
  8
koty
 62
     0
370
    -2
100
AcDbLine
 10
-448.341052232889
 20
519.7825634891738
 30
0.0
 11
-579.5381727771601
 21
519.7825634891738
 31
0.0
  0
LINE
  5
2CD
330
2CA
100
AcDbEntity
  8
koty
 62
     0
370
    -2
100
AcDbLine
 10
-567.0381727771601
 20
-80.21743651082886
 30
0.0
 11
-567.0381727771601
 21
499.7825634891738
 31
0.0
  0
INSERT
  5
2CE
330
2CA
100
AcDbEntity
  8
koty
 62
     0
370
    -2
100
AcDbBlockReference
  2
VDDIM_DEFAULT
 10
-567.0381727771601
 20
-100.2174365108289
 30
0.0
 41
20.0
 42
20.0
 43
20.0
 50
270.0
  0
INSERT
  5
2CF
330
2CA
100
AcDbEntity
  8
koty
 62
     0
370
    -2
100
AcDbBlockReference
  2
VDDIM_DEFAULT
 10
-567.0381727771601
 20
519.7825634891738
 30
0.0
 41
20.0
 42
20.0
 43
20.0
 50
90.0
  0
MTEXT
  5
2D0
330
2CA
100
AcDbEntity
  8
koty
100
AcDbMText
 10
-583.2881727771601
 20
209.7825634891725
 30
0.0
 40
20.0
 41
0.0
 71
     5
 72
     1
  1
\A1;620
 11
0.0
 21
-1.0
 31
0.0
 73
     1
 44
1.0
  0
POINT
  5
2D1
330
2CA
100
AcDbEntity
  8
Defpoints
 62
     0
100
AcDbPoint
 10
-442.0910522328906
 20
-100.2174365108289
 30
0.0
  0
POINT
  5
2D2
330
2CA
100
AcDbEntity
  8
Defpoints
 62
     0
100
AcDbPoint
 10
-442.091052232889
 20
519.7825634891738
 30
0.0
  0
POINT
  5
2D3
330
2CA
100
AcDbEntity
  8
Defpoints
 62
     0
100
AcDbPoint
 10
-567.0381727771601
 20
519.7825634891738
 30
0.0
  0
ENDBLK
  5
2D5
330
2CA
100
AcDbEntity
  8
0
100
AcDbBlockEnd
  0
BLOCK
  5
2E0
330
2D6
100
AcDbEntity
  8
0
100
AcDbBlockBegin
  2
*D5
 70
     1
 71
     0
 10
0.0
 20
0.0
 30
0.0
  3
*D5
  1

  0
LINE
  5
2D7
330
2D6
100
AcDbEntity
  8
koty
 62
     0
370
    -2
100
AcDbLine
 10
-448.341052232889
 20
537.2825634891738
 30
0.0
 11
-646.4649631945066
 21
537.2825634891739
 31
0.0
  0
LINE
  5
2D8
330
2D6
100
AcDbEntity
  8
koty
 62
     0
370
    -2
100
AcDbLine
 10
-448.3410522328907
 20
-117.7174365108289
 30
0.0
 11
-646.4649631945067
 21
-117.7174365108289
 31
0.0
  0
LINE
  5
2D9
330
2D6
100
AcDbEntity
  8
koty
 62
     0
370
    -2
100
AcDbLine
 10
-633.9649631945066
 20
517.2825634891738
 30
0.0
 11
-633.9649631945067
 21
-97.71743651082898
 31
0.0
  0
INSERT
  5
2DA
330
2D6
100
AcDbEntity
  8
koty
 62
     0
370
    -2
100
AcDbBlockReference
  2
VDDIM_DEFAULT
 10
-633.9649631945066
 20
537.2825634891738
 30
0.0
 41
20.0
 42
20.0
 43
20.0
 50
89.99999999999999
  0
INSERT
  5
2DB
330
2D6
100
AcDbEntity
  8
koty
 62
     0
370
    -2
100
AcDbBlockReference
  2
VDDIM_DEFAULT
 10
-633.9649631945067
 20
-117.717436510829
 30
0.0
 41
20.0
 42
20.0
 43
20.0
 50
270.0
  0
MTEXT
  5
2DC
330
2D6
100
AcDbEntity
  8
koty
100
AcDbMText
 10
-650.2149631945067
 20
209.7825634891725
 30
0.0
 40
20.0
 41
0.0
 71
     5
 72
     1
  1
\A1;655
 11
1.735676911780390E-16
 21
1.0
 31
0.0
 73
     1
 44
1.0
  0
POINT
  5
2DD
330
2D6
100
AcDbEntity
  8
Defpoints
 62
     0
100
AcDbPoint
 10
-442.091052232889
 20
537.2825634891738
 30
0.0
  0
POINT
  5
2DE
330
2D6
100
AcDbEntity
  8
Defpoints
 62
     0
100
AcDbPoint
 10
-442.0910522328907
 20
-117.7174365108289
 30
0.0
  0
POINT
  5
2DF
330
2D6
100
AcDbEntity
  8
Defpoints
 62
     0
100
AcDbPoint
 10
-633.9649631945067
 20
-117.7174365108289
 30
0.0
  0
ENDBLK
  5
2E1
330
2D6
100
AcDbEntity
  8
0
100
AcDbBlockEnd
  0
BLOCK
  5
2EC
330
2E2
100
AcDbEntity
  8
0
100
AcDbBlockBegin
  2
*D6
 70
     1
 71
     0
 10
0.0
 20
0.0
 30
0.0
  3
*D6
  1

  0
LINE
  5
2E3
330
2E2
100
AcDbEntity
  8
koty
 62
     0
370
    -2
100
AcDbLine
 10
-442.0910522328907
 20
-123.9674365108289
 30
0.0
 11
-442.0910522328907
 21
-183.3192419298866
 31
0.0
  0
LINE
  5
2E4
330
2E2
100
AcDbEntity
  8
koty
 62
     0
370
    -2
100
AcDbLine
 10
-202.0910522328907
 20
-123.9674365108302
 30
0.0
 11
-202.0910522328907
 21
-183.3192419298866
 31
0.0
  0
LINE
  5
2E5
330
2E2
100
AcDbEntity
  8
koty
 62
     0
370
    -2
100
AcDbLine
 10
-422.0910522328907
 20
-170.8192419298866
 30
0.0
 11
-222.0910522328907
 21
-170.8192419298866
 31
0.0
  0
INSERT
  5
2E6
330
2E2
100
AcDbEntity
  8
koty
 62
     0
370
    -2
100
AcDbBlockReference
  2
VDDIM_DEFAULT
 10
-442.0910522328907
 20
-170.8192419298866
 30
0.0
 41
20.0
 42
20.0
 43
20.0
 50
180.0
  0
INSERT
  5
2E7
330
2E2
100
AcDbEntity
  8
koty
 62
     0
370
    -2
100
AcDbBlockReference
  2
VDDIM_DEFAULT
 10
-202.0910522328907
 20
-170.8192419298866
 30
0.0
 41
20.0
 42
20.0
 43
20.0
 50
360.0
  0
MTEXT
  5
2E8
330
2E2
100
AcDbEntity
  8
koty
100
AcDbMText
 10
-322.0910522328907
 20
-154.5692419298866
 30
0.0
 40
20.0
 41
0.0
 71
     5
 72
     1
  1
\A1;240
 73
     1
 44
1.0
  0
POINT
  5
2E9
330
2E2
100
AcDbEntity
  8
Defpoints
 62
     0
100
AcDbPoint
 10
-442.0910522328907
 20
-117.7174365108289
 30
0.0
  0
POINT
  5
2EA
330
2E2
100
AcDbEntity
  8
Defpoints
 62
     0
100
AcDbPoint
 10
-202.0910522328907
 20
-117.7174365108302
 30
0.0
  0
POINT
  5
2EB
330
2E2
100
AcDbEntity
  8
Defpoints
 62
     0
100
AcDbPoint
 10
-202.0910522328907
 20
-170.8192419298866
 30
0.0
  0
ENDBLK
  5
2ED
330
2E2
100
AcDbEntity
  8
0
100
AcDbBlockEnd
  0
BLOCK
  5
2F4
330
2EE
100
AcDbEntity
  8
0
100
AcDbBlockBegin
  2
*D7
 70
     1
 71
     0
 10
0.0
 20
0.0
 30
0.0
  3
*D7
  1

  0
LINE
  5
2EF
330
2EE
100
AcDbEntity
  8
koty
 62
     0
370
    -2
100
AcDbLine
 10
320.275312803738
 20
519.8406010694824
 30
0.0
 11
315.3450892217603
 21
519.8313499669238
 31
0.0
  0
MTEXT
  5
2F0
330
2EE
100
AcDbEntity
  8
koty
100
AcDbMText
 10
288.7187940843244
 20
556.2762325054432
 30
0.0
 40
20.0
 41
0.0
 71
     5
 72
     1
  1
\A1;\U+220512
 11
0.9999982395543593
 21
0.001876402990395341
 31
0.0
 73
     1
 44
1.0
  0
INSERT
  5
2F1
330
2EE
100
AcDbEntity
  8
koty
 62
     0
370
    -2
100
AcDbBlockReference
  2
VDDIM_DEFAULT
 10
295.3451244306731
 20
519.7938219071159
 30
0.0
 41
20.0
 42
20.0
 43
20.0
 50
180.1075100351046
  0
POINT
  5
2F2
330
2EE
100
AcDbEntity
  8
Defpoints
 62
     0
100
AcDbPoint
 10
295.3451244306731
 20
519.7938219071159
 30
0.0
  0
POINT
  5
2F3
330
2EE
100
AcDbEntity
  8
Defpoints
 62
     0
100
AcDbPoint
 10
283.3451455560208
 20
519.7713050712312
 30
0.0
  0
ENDBLK
  5
2F5
330
2EE
100
AcDbEntity
  8
0
100
AcDbBlockEnd
  0
ENDSEC
  0
SECTION
  2
ENTITIES
  0
CIRCLE
  5
35
330
28F
100
AcDbEntity
  8
0
100
AcDbCircle
 10
289.345134993347
 20
209.7825634891737
 30
0.0
 40
280.0
  0
CIRCLE
  5
36
330
28F
100
AcDbEntity
  8
0
100
AcDbCircle
 10
289.345134993347
 20
209.7825634891737
 30
0.0
 40
327.4999999999999
  0
CIRCLE
  5
37
330
28F
100
AcDbEntity
  8
0
100
AcDbCircle
 10
289.345134993347
 20
209.7825634891737
 30
0.0
 40
56.0
  0
CIRCLE
  5
38
330
28F
100
AcDbEntity
  8
0
100
AcDbCircle
 10
289.345134993347
 20
209.7825634891737
 30
0.0
 40
33.6
  0
CIRCLE
  5
3E
330
28F
100
AcDbEntity
  8
0
100
AcDbCircle
 10
289.345134993347
 20
519.7825634891738
 30
0.0
 40
6.0
  0
CIRCLE
  5
3F
330
28F
100
AcDbEntity
  8
0
100
AcDbCircle
 10
134.345134993347
 20
478.2504386623497
 30
0.0
 40
6.0
  0
CIRCLE
  5
40
330
28F
100
AcDbEntity
  8
0
100
AcDbCircle
 10
20.87725982017104
 20
364.7825634891737
 30
0.0
 40
6.0
  0
CIRCLE
  5
41
330
28F
100
AcDbEntity
  8
0
100
AcDbCircle
 10
-20.65486500665298
 20
209.7825634891737
 30
0.0
 40
6.0
  0
CIRCLE
  5
42
330
28F
100
AcDbEntity
  8
0
100
AcDbCircle
 10
20.8772598201711
 20
54.78256348917383
 30
0.0
 40
6.0
  0
CIRCLE
  5
43
330
28F
100
AcDbEntity
  8
0
100
AcDbCircle
 10
134.345134993347
 20
-58.68531168400219
 30
0.0
 40
6.0
  0
CIRCLE
  5
44
330
28F
100
AcDbEntity
  8
0
100
AcDbCircle
 10
289.3451349933469
 20
-100.2174365108262
 30
0.0
 40
6.0
  0
CIRCLE
  5
45
330
28F
100
AcDbEntity
  8
0
100
AcDbCircle
 10
444.3451349933469
 20
-58.68531168400238
 30
0.0
 40
6.0
  0
CIRCLE
  5
46
330
28F
100
AcDbEntity
  8
0
100
AcDbCircle
 10
557.8130101665229
 20
54.78256348917364
 30
0.0
 40
6.0
  0
CIRCLE
  5
47
330
28F
100
AcDbEntity
  8
0
100
AcDbCircle
 10
599.345134993347
 20
209.7825634891736
 30
0.0
 40
6.0
  0
CIRCLE
  5
48
330
28F
100
AcDbEntity
  8
0
100
AcDbCircle
 10
557.813010166523
 20
364.7825634891737
 30
0.0
 40
6.0
  0
CIRCLE
  5
49
330
28F
100
AcDbEntity
  8
0
100
AcDbCircle
 10
444.3451349933469
 20
478.2504386623497
 30
0.0
 40
6.0
  0
LINE
  5
4A
330
28F
100
AcDbEntity
  8
0
100
AcDbLine
 10
309.3038557042349
 20
236.8123520119272
 30
0.0
 11
483.7679300357057
 21
411.2764263433982
 31
0.0
  0
LINE
  5
4B
330
28F
100
AcDbEntity
  8
0
100
AcDbLine
 10
316.3749235161004
 20
229.7412842000617
 30
0.0
 11
490.8389978475711
 21
404.2053585315327
 31
0.0
  0
LINE
  5
4D
330
28F
100
AcDbEntity
  8
0
100
AcDbLine
 10
310.1065361850596
 20
236.2008189303787
 30
0.0
 11
484.4864025190698
 21
410.5806852643893
 31
0.0
  0
LINE
  5
4E
330
28F
100
AcDbEntity
  8
0
100
AcDbLine
 10
315.763390434552
 20
230.5439646808863
 30
0.0
 11
490.1432567685622
 21
404.9238310148969
 31
0.0
  0
ARC
  5
4F
330
28F
100
AcDbEntity
  8
0
100
AcDbCircle
 10
289.345134993347
 20
209.7825634891737
 30
0.0
 40
277.4498765820315
100
AcDbArc
 50
73.35106389807164
 51
102.5447932009495
  0
LINE
  5
50
330
28F
100
AcDbEntity
  8
0
100
AcDbLine
 10
262.926879552142
 20
230.5439646808862
 30
0.0
 11
88.5470132181315
 21
404.9238310148965
 31
0.0
  0
LINE
  5
51
330
28F
100
AcDbEntity
  8
0
100
AcDbLine
 10
262.3153464705935
 20
229.7412842000616
 30
0.0
 11
87.85127213912261
 21
404.2053585315324
 31
0.0
  0
LINE
  5
52
330
28F
100
AcDbEntity
  8
0
100
AcDbLine
 10
268.5837338016344
 20
236.2008189303786
 30
0.0
 11
94.20386746762392
 21
410.580685264389
 31
0.0
  0
LINE
  5
53
330
28F
100
AcDbEntity
  8
0
100
AcDbLine
 10
269.386414282459
 20
236.8123520119271
 30
0.0
 11
94.92233995098809
 21
411.2764263433978
 31
0.0
  0
LINE
  5
54
330
28F
100
AcDbEntity
  8
0
100
AcDbLine
 10
268.5837338016345
 20
183.3643080479687
 30
0.0
 11
94.20386746762415
 21
8.984441713958233
 31
0.0
  0
LINE
  5
55
330
28F
100
AcDbEntity
  8
0
100
AcDbLine
 10
269.3864142824591
 20
182.7527749664202
 30
0.0
 11
94.92233995098837
 21
8.28870063494935
 31
0.0
  0
LINE
  5
56
330
28F
100
AcDbEntity
  8
0
100
AcDbLine
 10
262.9268795521421
 20
189.0211622974611
 30
0.0
 11
88.54701321813178
 21
14.64129596345066
 31
0.0
  0
LINE
  5
57
330
28F
100
AcDbEntity
  8
0
100
AcDbLine
 10
262.3153464705936
 20
189.8238427782857
 30
0.0
 11
87.8512721391229
 21
15.35976844681483
 31
0.0
  0
LINE
  5
58
330
28F
100
AcDbEntity
  8
0
100
AcDbLine
 10
315.763390434552
 20
189.0211622974612
 30
0.0
 11
490.1432567685624
 21
14.64129596345072
 31
0.0
  0
LINE
  5
59
330
28F
100
AcDbEntity
  8
0
100
AcDbLine
 10
316.3749235161005
 20
189.8238427782858
 30
0.0
 11
490.8389978475713
 21
15.35976844681494
 31
0.0
  0
LINE
  5
5A
330
28F
100
AcDbEntity
  8
0
100
AcDbLine
 10
310.1065361850596
 20
183.3643080479687
 30
0.0
 11
484.48640251907
 21
8.984441713958347
 31
0.0
  0
LINE
  5
5B
330
28F
100
AcDbEntity
  8
0
100
AcDbLine
 10
309.303855704235
 20
182.7527749664203
 30
0.0
 11
483.7679300357058
 21
8.288700634949464
 31
0.0
  0
LINE
  5
5C
330
28F
100
AcDbEntity
  8
0
100
AcDbLine
 10
288.4435144550691
 20
243.3704642929595
 30
0.0
 11
288.4435144550691
 21
259.6455727307128
 31
0.0
  0
LINE
  5
5D
330
28F
100
AcDbEntity
  8
0
100
AcDbLine
 10
288.4435144550691
 20
259.6455727307128
 30
0.0
 11
289.345134993347
 21
259.6455727307128
 31
0.0
  0
LINE
  5
5E
330
28F
100
AcDbEntity
  8
0
100
AcDbLine
 10
290.2467555316249
 20
243.3704642929595
 30
0.0
 11
290.2467555316249
 21
259.6455727307128
 31
0.0
  0
LINE
  5
5F
330
28F
100
AcDbEntity
  8
0
100
AcDbLine
 10
290.2467555316249
 20
259.6455727307128
 30
0.0
 11
289.345134993347
 21
259.6455727307128
 31
0.0
  0
LINE
  5
60
330
28F
100
AcDbEntity
  8
0
100
AcDbLine
 10
281.9081644572385
 20
242.5491847560217
 30
0.0
 11
278.7330483112697
 21
258.5115715487365
 31
0.0
  0
LINE
  5
61
330
28F
100
AcDbEntity
  8
0
100
AcDbLine
 10
283.6767567621429
 20
242.9009796383197
 30
0.0
 11
280.5016406161742
 21
258.8633664310346
 31
0.0
  0
LINE
  5
62
330
28F
100
AcDbEntity
  8
0
100
AcDbLine
 10
280.5016406161742
 20
258.8633664310346
 30
0.0
 11
279.617344463722
 21
258.6874689898855
 31
0.0
  0
LINE
  5
63
330
28F
100
AcDbEntity
  8
0
100
AcDbLine
 10
278.7330483112697
 20
258.5115715487365
 30
0.0
 11
279.617344463722
 21
258.6874689898855
 31
0.0
  0
LINE
  5
64
330
28F
100
AcDbEntity
  8
0
100
AcDbLine
 10
275.6586130664093
 20
240.4687023395317
 30
0.0
 11
269.4303987073359
 21
255.5049419145738
 31
0.0
  0
LINE
  5
65
330
28F
100
AcDbEntity
  8
0
100
AcDbLine
 10
277.3245905892229
 20
241.1587728240899
 30
0.0
 11
271.0963762301495
 21
256.1950123991318
 31
0.0
  0
LINE
  5
66
330
28F
100
AcDbEntity
  8
0
100
AcDbLine
 10
271.0963762301495
 20
256.1950123991318
 30
0.0
 11
270.2633874687427
 21
255.8499771568528
 31
0.0
  0
LINE
  5
67
330
28F
100
AcDbEntity
  8
0
100
AcDbLine
 10
269.4303987073359
 20
255.5049419145738
 30
0.0
 11
270.2633874687427
 21
255.8499771568528
 31
0.0
  0
LINE
  5
68
330
28F
100
AcDbEntity
  8
0
100
AcDbLine
 10
269.9350270377425
 20
237.2089688160076
 30
0.0
 11
260.8930612505606
 21
250.7412269189281
 31
0.0
  0
LINE
  5
69
330
28F
100
AcDbEntity
  8
0
100
AcDbLine
 10
271.4343671965544
 20
238.2107958811002
 30
0.0
 11
262.3924014093725
 21
251.7430539840208
 31
0.0
  0
LINE
  5
6A
330
28F
100
AcDbEntity
  8
0
100
AcDbLine
 10
262.3924014093725
 20
251.7430539840208
 30
0.0
 11
261.6427313299666
 21
251.2421404514744
 31
0.0
  0
LINE
  5
6B
330
28F
100
AcDbEntity
  8
0
100
AcDbLine
 10
260.8930612505606
 20
250.7412269189281
 30
0.0
 11
261.6427313299666
 21
251.2421404514744
 31
0.0
  0
LINE
  5
6C
330
28F
100
AcDbEntity
  8
0
100
AcDbLine
 10
264.9573605724956
 20
232.8952539166784
 30
0.0
 11
253.4491210316138
 21
244.4034934575601
 31
0.0
  0
LINE
  5
6D
330
28F
100
AcDbEntity
  8
0
100
AcDbLine
 10
266.2324445658423
 20
234.1703379100251
 30
0.0
 11
254.7242050249606
 21
245.6785774509068
 31
0.0
  0
LINE
  5
6E
330
28F
100
AcDbEntity
  8
0
100
AcDbLine
 10
254.7242050249606
 20
245.6785774509068
 30
0.0
 11
254.0866630282872
 21
245.0410354542335
 31
0.0
  0
LINE
  5
6F
330
28F
100
AcDbEntity
  8
0
100
AcDbLine
 10
253.4491210316138
 20
244.4034934575601
 30
0.0
 11
254.0866630282872
 21
245.0410354542335
 31
0.0
  0
LINE
  5
70
330
28F
100
AcDbEntity
  8
0
100
AcDbLine
 10
260.9169026014205
 20
227.6933312859663
 30
0.0
 11
247.3846444984999
 21
236.7352970731482
 31
0.0
  0
LINE
  5
71
330
28F
100
AcDbEntity
  8
0
100
AcDbLine
 10
261.9187296665131
 20
229.1926714447783
 30
0.0
 11
248.3864715635926
 21
238.2346372319601
 31
0.0
  0
LINE
  5
72
330
28F
100
AcDbEntity
  8
0
100
AcDbLine
 10
248.3864715635926
 20
238.2346372319601
 30
0.0
 11
247.8855580310463
 21
237.4849671525542
 31
0.0
  0
LINE
  5
73
330
28F
100
AcDbEntity
  8
0
100
AcDbLine
 10
247.3846444984999
 20
236.7352970731482
 30
0.0
 11
247.8855580310463
 21
237.4849671525542
 31
0.0
  0
LINE
  5
74
330
28F
100
AcDbEntity
  8
0
100
AcDbLine
 10
257.9689256584308
 20
221.8031078932979
 30
0.0
 11
242.9326860833888
 21
228.0313222523713
 31
0.0
  0
LINE
  5
75
330
28F
100
AcDbEntity
  8
0
100
AcDbLine
 10
258.6589961429889
 20
223.4690854161114
 30
0.0
 11
243.622756567947
 21
229.6972997751849
 31
0.0
  0
LINE
  5
76
330
28F
100
AcDbEntity
  8
0
100
AcDbLine
 10
243.622756567947
 20
229.6972997751849
 30
0.0
 11
243.2777213256679
 21
228.8643110137781
 31
0.0
  0
LINE
  5
77
330
28F
100
AcDbEntity
  8
0
100
AcDbLine
 10
242.9326860833888
 20
228.0313222523713
 30
0.0
 11
243.2777213256679
 21
228.8643110137781
 31
0.0
  0
LINE
  5
78
330
28F
100
AcDbEntity
  8
0
100
AcDbLine
 10
256.226718844201
 20
215.4509417203778
 30
0.0
 11
240.2643320514862
 21
218.6260578663465
 31
0.0
  0
LINE
  5
79
330
28F
100
AcDbEntity
  8
0
100
AcDbLine
 10
256.578513726499
 20
217.2195340252823
 30
0.0
 11
240.6161269337842
 21
220.394650171251
 31
0.0
  0
LINE
  5
7A
330
28F
100
AcDbEntity
  8
0
100
AcDbLine
 10
240.6161269337842
 20
220.394650171251
 30
0.0
 11
240.4402294926352
 21
219.5103540187987
 31
0.0
  0
LINE
  5
7B
330
28F
100
AcDbEntity
  8
0
100
AcDbLine
 10
240.2643320514862
 20
218.6260578663465
 30
0.0
 11
240.4402294926352
 21
219.5103540187987
 31
0.0
  0
LINE
  5
7C
330
28F
100
AcDbEntity
  8
0
100
AcDbLine
 10
255.7572341895612
 20
208.8809429508958
 30
0.0
 11
239.4821257518079
 21
208.8809429508958
 31
0.0
  0
LINE
  5
7D
330
28F
100
AcDbEntity
  8
0
100
AcDbLine
 10
255.7572341895612
 20
210.6841840274516
 30
0.0
 11
239.4821257518079
 21
210.6841840274516
 31
0.0
  0
LINE
  5
7E
330
28F
100
AcDbEntity
  8
0
100
AcDbLine
 10
239.4821257518079
 20
210.6841840274516
 30
0.0
 11
239.4821257518079
 21
209.7825634891737
 31
0.0
  0
LINE
  5
7F
330
28F
100
AcDbEntity
  8
0
100
AcDbLine
 10
239.4821257518079
 20
208.8809429508958
 30
0.0
 11
239.4821257518079
 21
209.7825634891737
 31
0.0
  0
LINE
  5
80
330
28F
100
AcDbEntity
  8
0
100
AcDbLine
 10
256.578513726499
 20
202.3455929530651
 30
0.0
 11
240.6161269337842
 21
199.1704768070964
 31
0.0
  0
LINE
  5
81
330
28F
100
AcDbEntity
  8
0
100
AcDbLine
 10
256.226718844201
 20
204.1141852579696
 30
0.0
 11
240.2643320514862
 21
200.9390691120009
 31
0.0
  0
LINE
  5
82
330
28F
100
AcDbEntity
  8
0
100
AcDbLine
 10
240.2643320514862
 20
200.9390691120009
 30
0.0
 11
240.4402294926352
 21
200.0547729595487
 31
0.0
  0
LINE
  5
83
330
28F
100
AcDbEntity
  8
0
100
AcDbLine
 10
240.6161269337842
 20
199.1704768070964
 30
0.0
 11
240.4402294926352
 21
200.0547729595487
 31
0.0
  0
LINE
  5
84
330
28F
100
AcDbEntity
  8
0
100
AcDbLine
 10
258.6589961429889
 20
196.096041562236
 30
0.0
 11
243.6227565679469
 21
189.8678272031625
 31
0.0
  0
LINE
  5
85
330
28F
100
AcDbEntity
  8
0
100
AcDbLine
 10
257.9689256584308
 20
197.7620190850496
 30
0.0
 11
242.9326860833888
 21
191.5338047259761
 31
0.0
  0
LINE
  5
86
330
28F
100
AcDbEntity
  8
0
100
AcDbLine
 10
242.9326860833888
 20
191.5338047259761
 30
0.0
 11
243.2777213256678
 21
190.7008159645693
 31
0.0
  0
LINE
  5
87
330
28F
100
AcDbEntity
  8
0
100
AcDbLine
 10
243.6227565679469
 20
189.8678272031625
 30
0.0
 11
243.2777213256678
 21
190.7008159645693
 31
0.0
  0
LINE
  5
88
330
28F
100
AcDbEntity
  8
0
100
AcDbLine
 10
261.9187296665132
 20
190.3724555335691
 30
0.0
 11
248.3864715635926
 21
181.3304897463872
 31
0.0
  0
LINE
  5
89
330
28F
100
AcDbEntity
  8
0
100
AcDbLine
 10
260.9169026014205
 20
191.8717956923811
 30
0.0
 11
247.3846444984999
 21
182.8298299051992
 31
0.0
  0
LINE
  5
8A
330
28F
100
AcDbEntity
  8
0
100
AcDbLine
 10
247.3846444984999
 20
182.8298299051992
 30
0.0
 11
247.8855580310463
 21
182.0801598257932
 31
0.0
  0
LINE
  5
8B
330
28F
100
AcDbEntity
  8
0
100
AcDbLine
 10
248.3864715635926
 20
181.3304897463872
 30
0.0
 11
247.8855580310463
 21
182.0801598257932
 31
0.0
  0
LINE
  5
8C
330
28F
100
AcDbEntity
  8
0
100
AcDbLine
 10
266.2324445658423
 20
185.3947890683222
 30
0.0
 11
254.7242050249606
 21
173.8865495274406
 31
0.0
  0
LINE
  5
8D
330
28F
100
AcDbEntity
  8
0
100
AcDbLine
 10
264.9573605724956
 20
186.669873061669
 30
0.0
 11
253.4491210316139
 21
175.1616335207873
 31
0.0
  0
LINE
  5
8E
330
28F
100
AcDbEntity
  8
0
100
AcDbLine
 10
253.4491210316139
 20
175.1616335207873
 30
0.0
 11
254.0866630282872
 21
174.5240915241139
 31
0.0
  0
LINE
  5
8F
330
28F
100
AcDbEntity
  8
0
100
AcDbLine
 10
254.7242050249606
 20
173.8865495274406
 30
0.0
 11
254.0866630282872
 21
174.5240915241139
 31
0.0
  0
LINE
  5
90
330
28F
100
AcDbEntity
  8
0
100
AcDbLine
 10
271.4343671965544
 20
181.3543310972472
 30
0.0
 11
262.3924014093726
 21
167.8220729943266
 31
0.0
  0
LINE
  5
91
330
28F
100
AcDbEntity
  8
0
100
AcDbLine
 10
269.9350270377425
 20
182.3561581623399
 30
0.0
 11
260.8930612505606
 21
168.8239000594193
 31
0.0
  0
LINE
  5
92
330
28F
100
AcDbEntity
  8
0
100
AcDbLine
 10
260.8930612505606
 20
168.8239000594193
 30
0.0
 11
261.6427313299666
 21
168.322986526873
 31
0.0
  0
LINE
  5
93
330
28F
100
AcDbEntity
  8
0
100
AcDbLine
 10
262.3924014093726
 20
167.8220729943266
 30
0.0
 11
261.6427313299666
 21
168.322986526873
 31
0.0
  0
LINE
  5
94
330
28F
100
AcDbEntity
  8
0
100
AcDbLine
 10
277.3245905892229
 20
178.4063541542574
 30
0.0
 11
271.0963762301494
 21
163.3701145792155
 31
0.0
  0
LINE
  5
95
330
28F
100
AcDbEntity
  8
0
100
AcDbLine
 10
275.6586130664093
 20
179.0964246388156
 30
0.0
 11
269.4303987073358
 21
164.0601850637736
 31
0.0
  0
LINE
  5
96
330
28F
100
AcDbEntity
  8
0
100
AcDbLine
 10
269.4303987073358
 20
164.0601850637736
 30
0.0
 11
270.2633874687426
 21
163.7151498214945
 31
0.0
  0
LINE
  5
97
330
28F
100
AcDbEntity
  8
0
100
AcDbLine
 10
271.0963762301494
 20
163.3701145792155
 30
0.0
 11
270.2633874687426
 21
163.7151498214945
 31
0.0
  0
LINE
  5
98
330
28F
100
AcDbEntity
  8
0
100
AcDbLine
 10
283.6767567621428
 20
176.6641473400277
 30
0.0
 11
280.5016406161742
 21
160.7017605473129
 31
0.0
  0
LINE
  5
99
330
28F
100
AcDbEntity
  8
0
100
AcDbLine
 10
281.9081644572383
 20
177.0159422223257
 30
0.0
 11
278.7330483112697
 21
161.0535554296109
 31
0.0
  0
LINE
  5
9A
330
28F
100
AcDbEntity
  8
0
100
AcDbLine
 10
278.7330483112697
 20
161.0535554296109
 30
0.0
 11
279.6173444637219
 21
160.8776579884619
 31
0.0
  0
LINE
  5
9B
330
28F
100
AcDbEntity
  8
0
100
AcDbLine
 10
280.5016406161742
 20
160.7017605473129
 30
0.0
 11
279.6173444637219
 21
160.8776579884619
 31
0.0
  0
LINE
  5
9C
330
28F
100
AcDbEntity
  8
0
100
AcDbLine
 10
290.2467555316249
 20
176.1946626853879
 30
0.0
 11
290.2467555316248
 21
159.9195542476346
 31
0.0
  0
LINE
  5
9D
330
28F
100
AcDbEntity
  8
0
100
AcDbLine
 10
288.443514455069
 20
176.1946626853879
 30
0.0
 11
288.4435144550689
 21
159.9195542476346
 31
0.0
  0
LINE
  5
9E
330
28F
100
AcDbEntity
  8
0
100
AcDbLine
 10
288.4435144550689
 20
159.9195542476346
 30
0.0
 11
289.3451349933469
 21
159.9195542476346
 31
0.0
  0
LINE
  5
9F
330
28F
100
AcDbEntity
  8
0
100
AcDbLine
 10
290.2467555316248
 20
159.9195542476346
 30
0.0
 11
289.3451349933469
 21
159.9195542476346
 31
0.0
  0
LINE
  5
A0
330
28F
100
AcDbEntity
  8
0
100
AcDbLine
 10
296.7821055294555
 20
177.0159422223257
 30
0.0
 11
299.9572216754241
 21
161.0535554296109
 31
0.0
  0
LINE
  5
A1
330
28F
100
AcDbEntity
  8
0
100
AcDbLine
 10
295.013513224551
 20
176.6641473400277
 30
0.0
 11
298.1886293705197
 21
160.7017605473129
 31
0.0
  0
LINE
  5
A2
330
28F
100
AcDbEntity
  8
0
100
AcDbLine
 10
298.1886293705197
 20
160.7017605473129
 30
0.0
 11
299.0729255229719
 21
160.8776579884619
 31
0.0
  0
LINE
  5
A3
330
28F
100
AcDbEntity
  8
0
100
AcDbLine
 10
299.9572216754241
 20
161.0535554296109
 30
0.0
 11
299.0729255229719
 21
160.8776579884619
 31
0.0
  0
LINE
  5
A4
330
28F
100
AcDbEntity
  8
0
100
AcDbLine
 10
303.0316569202847
 20
179.0964246388156
 30
0.0
 11
309.2598712793581
 21
164.0601850637736
 31
0.0
  0
LINE
  5
A5
330
28F
100
AcDbEntity
  8
0
100
AcDbLine
 10
301.3656793974711
 20
178.4063541542575
 30
0.0
 11
307.5938937565445
 21
163.3701145792155
 31
0.0
  0
LINE
  5
A6
330
28F
100
AcDbEntity
  8
0
100
AcDbLine
 10
307.5938937565445
 20
163.3701145792155
 30
0.0
 11
308.4268825179513
 21
163.7151498214945
 31
0.0
  0
LINE
  5
A7
330
28F
100
AcDbEntity
  8
0
100
AcDbLine
 10
309.2598712793581
 20
164.0601850637736
 30
0.0
 11
308.4268825179513
 21
163.7151498214945
 31
0.0
  0
LINE
  5
A8
330
28F
100
AcDbEntity
  8
0
100
AcDbLine
 10
308.7552429489516
 20
182.3561581623398
 30
0.0
 11
317.7972087361335
 21
168.8239000594193
 31
0.0
  0
LINE
  5
A9
330
28F
100
AcDbEntity
  8
0
100
AcDbLine
 10
307.2559027901396
 20
181.3543310972472
 30
0.0
 11
316.2978685773215
 21
167.8220729943266
 31
0.0
  0
LINE
  5
AA
330
28F
100
AcDbEntity
  8
0
100
AcDbLine
 10
316.2978685773215
 20
167.8220729943266
 30
0.0
 11
317.0475386567275
 21
168.3229865268729
 31
0.0
  0
LINE
  5
AB
330
28F
100
AcDbEntity
  8
0
100
AcDbLine
 10
317.7972087361335
 20
168.8239000594193
 30
0.0
 11
317.0475386567275
 21
168.3229865268729
 31
0.0
  0
LINE
  5
AC
330
28F
100
AcDbEntity
  8
0
100
AcDbLine
 10
313.7329094141985
 20
186.669873061669
 30
0.0
 11
325.2411489550802
 21
175.1616335207872
 31
0.0
  0
LINE
  5
AD
330
28F
100
AcDbEntity
  8
0
100
AcDbLine
 10
312.4578254208516
 20
185.3947890683222
 30
0.0
 11
323.9660649617334
 21
173.8865495274404
 31
0.0
  0
LINE
  5
AE
330
28F
100
AcDbEntity
  8
0
100
AcDbLine
 10
323.9660649617334
 20
173.8865495274404
 30
0.0
 11
324.6036069584067
 21
174.5240915241138
 31
0.0
  0
LINE
  5
AF
330
28F
100
AcDbEntity
  8
0
100
AcDbLine
 10
325.2411489550802
 20
175.1616335207872
 30
0.0
 11
324.6036069584067
 21
174.5240915241138
 31
0.0
  0
LINE
  5
B0
330
28F
100
AcDbEntity
  8
0
100
AcDbLine
 10
317.7733673852735
 20
191.871795692381
 30
0.0
 11
331.305625488194
 21
182.8298299051991
 31
0.0
  0
LINE
  5
B1
330
28F
100
AcDbEntity
  8
0
100
AcDbLine
 10
316.7715403201808
 20
190.3724555335691
 30
0.0
 11
330.3037984231014
 21
181.3304897463872
 31
0.0
  0
LINE
  5
B2
330
28F
100
AcDbEntity
  8
0
100
AcDbLine
 10
330.3037984231014
 20
181.3304897463872
 30
0.0
 11
330.8047119556478
 21
182.0801598257931
 31
0.0
  0
LINE
  5
B3
330
28F
100
AcDbEntity
  8
0
100
AcDbLine
 10
331.305625488194
 20
182.8298299051991
 30
0.0
 11
330.8047119556478
 21
182.0801598257931
 31
0.0
  0
LINE
  5
B4
330
28F
100
AcDbEntity
  8
0
100
AcDbLine
 10
320.7213443282633
 20
197.7620190850494
 30
0.0
 11
335.7575839033052
 21
191.5338047259759
 31
0.0
  0
LINE
  5
B5
330
28F
100
AcDbEntity
  8
0
100
AcDbLine
 10
320.031273843705
 20
196.0960415622358
 30
0.0
 11
335.0675134187471
 21
189.8678272031624
 31
0.0
  0
LINE
  5
B6
330
28F
100
AcDbEntity
  8
0
100
AcDbLine
 10
335.0675134187471
 20
189.8678272031624
 30
0.0
 11
335.4125486610261
 21
190.7008159645691
 31
0.0
  0
LINE
  5
B7
330
28F
100
AcDbEntity
  8
0
100
AcDbLine
 10
335.7575839033052
 20
191.5338047259759
 30
0.0
 11
335.4125486610261
 21
190.7008159645691
 31
0.0
  0
LINE
  5
B8
330
28F
100
AcDbEntity
  8
0
100
AcDbLine
 10
322.463551142493
 20
204.1141852579695
 30
0.0
 11
338.4259379352079
 21
200.9390691120007
 31
0.0
  0
LINE
  5
B9
330
28F
100
AcDbEntity
  8
0
100
AcDbLine
 10
322.111756260195
 20
202.345592953065
 30
0.0
 11
338.0741430529099
 21
199.1704768070962
 31
0.0
  0
LINE
  5
BA
330
28F
100
AcDbEntity
  8
0
100
AcDbLine
 10
338.0741430529099
 20
199.1704768070962
 30
0.0
 11
338.2500404940589
 21
200.0547729595485
 31
0.0
  0
LINE
  5
BB
330
28F
100
AcDbEntity
  8
0
100
AcDbLine
 10
338.4259379352079
 20
200.9390691120007
 30
0.0
 11
338.2500404940589
 21
200.0547729595485
 31
0.0
  0
LINE
  5
BC
330
28F
100
AcDbEntity
  8
0
100
AcDbLine
 10
322.9330357971329
 20
210.6841840274515
 30
0.0
 11
339.2081442348861
 21
210.6841840274515
 31
0.0
  0
LINE
  5
BD
330
28F
100
AcDbEntity
  8
0
100
AcDbLine
 10
322.9330357971329
 20
208.8809429508957
 30
0.0
 11
339.2081442348861
 21
208.8809429508956
 31
0.0
  0
LINE
  5
BE
330
28F
100
AcDbEntity
  8
0
100
AcDbLine
 10
339.2081442348861
 20
208.8809429508956
 30
0.0
 11
339.2081442348861
 21
209.7825634891735
 31
0.0
  0
LINE
  5
BF
330
28F
100
AcDbEntity
  8
0
100
AcDbLine
 10
339.2081442348861
 20
210.6841840274515
 30
0.0
 11
339.2081442348861
 21
209.7825634891735
 31
0.0
  0
LINE
  5
C0
330
28F
100
AcDbEntity
  8
0
100
AcDbLine
 10
322.111756260195
 20
217.2195340252822
 30
0.0
 11
338.0741430529099
 21
220.3946501712509
 31
0.0
  0
LINE
  5
C1
330
28F
100
AcDbEntity
  8
0
100
AcDbLine
 10
322.463551142493
 20
215.4509417203777
 30
0.0
 11
338.4259379352079
 21
218.6260578663464
 31
0.0
  0
LINE
  5
C2
330
28F
100
AcDbEntity
  8
0
100
AcDbLine
 10
338.4259379352079
 20
218.6260578663464
 30
0.0
 11
338.2500404940589
 21
219.5103540187986
 31
0.0
  0
LINE
  5
C3
330
28F
100
AcDbEntity
  8
0
100
AcDbLine
 10
338.0741430529099
 20
220.3946501712509
 30
0.0
 11
338.2500404940589
 21
219.5103540187986
 31
0.0
  0
LINE
  5
C4
330
28F
100
AcDbEntity
  8
0
100
AcDbLine
 10
320.0312738437052
 20
223.4690854161113
 30
0.0
 11
335.0675134187472
 21
229.6972997751847
 31
0.0
  0
LINE
  5
C5
330
28F
100
AcDbEntity
  8
0
100
AcDbLine
 10
320.7213443282633
 20
221.8031078932977
 30
0.0
 11
335.7575839033053
 21
228.0313222523711
 31
0.0
  0
LINE
  5
C6
330
28F
100
AcDbEntity
  8
0
100
AcDbLine
 10
335.7575839033053
 20
228.0313222523711
 30
0.0
 11
335.4125486610262
 21
228.8643110137779
 31
0.0
  0
LINE
  5
C7
330
28F
100
AcDbEntity
  8
0
100
AcDbLine
 10
335.0675134187472
 20
229.6972997751847
 30
0.0
 11
335.4125486610262
 21
228.8643110137779
 31
0.0
  0
LINE
  5
C8
330
28F
100
AcDbEntity
  8
0
100
AcDbLine
 10
316.7715403201809
 20
229.1926714447782
 30
0.0
 11
330.3037984231015
 21
238.2346372319601
 31
0.0
  0
LINE
  5
C9
330
28F
100
AcDbEntity
  8
0
100
AcDbLine
 10
317.7733673852736
 20
227.6933312859663
 30
0.0
 11
331.3056254881942
 21
236.7352970731481
 31
0.0
  0
LINE
  5
CA
330
28F
100
AcDbEntity
  8
0
100
AcDbLine
 10
331.3056254881942
 20
236.7352970731481
 30
0.0
 11
330.8047119556478
 21
237.4849671525541
 31
0.0
  0
LINE
  5
CB
330
28F
100
AcDbEntity
  8
0
100
AcDbLine
 10
330.3037984231015
 20
238.2346372319601
 30
0.0
 11
330.8047119556478
 21
237.4849671525541
 31
0.0
  0
LINE
  5
CC
330
28F
100
AcDbEntity
  8
0
100
AcDbLine
 10
312.4578254208517
 20
234.1703379100251
 30
0.0
 11
323.9660649617335
 21
245.6785774509068
 31
0.0
  0
LINE
  5
CD
330
28F
100
AcDbEntity
  8
0
100
AcDbLine
 10
313.7329094141985
 20
232.8952539166783
 30
0.0
 11
325.2411489550803
 21
244.40349345756
 31
0.0
  0
LINE
  5
CE
330
28F
100
AcDbEntity
  8
0
100
AcDbLine
 10
325.2411489550803
 20
244.40349345756
 30
0.0
 11
324.6036069584068
 21
245.0410354542334
 31
0.0
  0
LINE
  5
CF
330
28F
100
AcDbEntity
  8
0
100
AcDbLine
 10
323.9660649617335
 20
245.6785774509068
 30
0.0
 11
324.6036069584068
 21
245.0410354542334
 31
0.0
  0
LINE
  5
D0
330
28F
100
AcDbEntity
  8
0
100
AcDbLine
 10
307.2559027901396
 20
238.2107958811002
 30
0.0
 11
316.2978685773215
 21
251.7430539840207
 31
0.0
  0
LINE
  5
D1
330
28F
100
AcDbEntity
  8
0
100
AcDbLine
 10
308.7552429489516
 20
237.2089688160075
 30
0.0
 11
317.7972087361335
 21
250.7412269189281
 31
0.0
  0
LINE
  5
D2
330
28F
100
AcDbEntity
  8
0
100
AcDbLine
 10
317.7972087361335
 20
250.7412269189281
 30
0.0
 11
317.0475386567275
 21
251.2421404514744
 31
0.0
  0
LINE
  5
D3
330
28F
100
AcDbEntity
  8
0
100
AcDbLine
 10
316.2978685773215
 20
251.7430539840207
 30
0.0
 11
317.0475386567275
 21
251.2421404514744
 31
0.0
  0
LINE
  5
D4
330
28F
100
AcDbEntity
  8
0
100
AcDbLine
 10
301.3656793974712
 20
241.1587728240899
 30
0.0
 11
307.5938937565447
 21
256.1950123991318
 31
0.0
  0
LINE
  5
D5
330
28F
100
AcDbEntity
  8
0
100
AcDbLine
 10
303.0316569202848
 20
240.4687023395318
 30
0.0
 11
309.2598712793583
 21
255.5049419145738
 31
0.0
  0
LINE
  5
D6
330
28F
100
AcDbEntity
  8
0
100
AcDbLine
 10
309.2598712793583
 20
255.5049419145738
 30
0.0
 11
308.4268825179515
 21
255.8499771568528
 31
0.0
  0
LINE
  5
D7
330
28F
100
AcDbEntity
  8
0
100
AcDbLine
 10
307.5938937565447
 20
256.1950123991318
 30
0.0
 11
308.4268825179515
 21
255.8499771568528
 31
0.0
  0
LINE
  5
D8
330
28F
100
AcDbEntity
  8
0
100
AcDbLine
 10
295.0135132245512
 20
242.9009796383197
 30
0.0
 11
298.1886293705199
 21
258.8633664310345
 31
0.0
  0
LINE
  5
D9
330
28F
100
AcDbEntity
  8
0
100
AcDbLine
 10
296.7821055294556
 20
242.5491847560217
 30
0.0
 11
299.9572216754244
 21
258.5115715487365
 31
0.0
  0
LINE
  5
DA
330
28F
100
AcDbEntity
  8
0
100
AcDbLine
 10
299.9572216754244
 20
258.5115715487365
 30
0.0
 11
299.0729255229721
 21
258.6874689898855
 31
0.0
  0
LINE
  5
DB
330
28F
100
AcDbEntity
  8
0
100
AcDbLine
 10
298.1886293705199
 20
258.8633664310345
 30
0.0
 11
299.0729255229721
 21
258.6874689898855
 31
0.0
  0
ARC
  5
DE
330
28F
100
AcDbEntity
  8
0
100
AcDbCircle
 10
-652.7892101106613
 20
122.2201553900482
 30
0.0
 40
941.1079819947811
100
AcDbArc
 50
8.696450527836767
 51
18.36798410946141
  0
ARC
  5
DF
330
28F
100
AcDbEntity
  8
0
100
AcDbCircle
 10
904.4015392584768
 20
571.9712954801277
 30
0.0
 40
681.4713990296439
100
AcDbArc
 50
187.7046495275852
 51
192.9907361569838
  0
ARC
  5
E0
330
28F
100
AcDbEntity
  8
0
100
AcDbCircle
 10
-306.3738822409435
 20
532.7601118133201
 30
0.0
 40
667.9091079150167
100
AcDbArc
 50
336.2330756256653
 51
349.9477636309709
  0
ARC
  5
E1
330
28F
100
AcDbEntity
  8
0
100
AcDbCircle
 10
1986.702018345069
 20
-34.64681558754778
 30
0.0
 40
1696.420420075649
100
AcDbArc
 50
162.4955872691233
 51
164.5883942888961
  0
ARC
  5
E2
330
28F
100
AcDbEntity
  8
0
100
AcDbCircle
 10
389.6559773548545
 20
916.474004581742
 30
0.0
 40
681.4713990296439
100
AcDbArc
 50
239.1332209561566
 51
244.4193075855552
  0
ARC
  5
E3
330
28F
100
AcDbEntity
  8
0
100
AcDbCircle
 10
1538.732425680163
 20
1384.430386748367
 30
0.0
 40
1696.420420075649
100
AcDbArc
 50
213.9241586976948
 51
216.0169657174676
  0
ARC
  5
E4
330
28F
100
AcDbEntity
  8
0
100
AcDbCircle
 10
-334.5936124356974
 20
-54.59611128006779
 30
0.0
 40
667.9091079150167
100
AcDbArc
 50
27.66164705423682
 51
41.37633505954235
  0
ARC
  5
E5
330
28F
100
AcDbEntity
  8
0
100
AcDbCircle
 10
-229.606973827249
 20
-581.4019967035367
 30
0.0
 40
941.1079819947811
100
AcDbArc
 50
60.12502195640819
 51
69.79655553803283
  0
ARC
  5
E6
330
28F
100
AcDbEntity
  8
0
100
AcDbCircle
 10
289.345134993347
 20
209.7825634891738
 30
0.0
 40
277.4498765820315
100
AcDbArc
 50
124.779635326643
 51
153.9733646295209
  0
ARC
  5
E7
330
28F
100
AcDbEntity
  8
0
100
AcDbCircle
 10
-200.6256948152648
 20
728.8236446623561
 30
0.0
 40
681.4713990296439
100
AcDbArc
 50
290.5617923847281
 51
295.8478790141267
  0
ARC
  5
E8
330
28F
100
AcDbEntity
  8
0
100
AcDbCircle
 10
149.9487202719107
 20
1918.973819721229
 30
0.0
 40
1696.420420075649
100
AcDbArc
 50
265.3527301262661
 51
267.445537146039
  0
ARC
  5
E9
330
28F
100
AcDbEntity
  8
0
100
AcDbCircle
 10
107.0252602145948
 20
-442.8697999300705
 30
0.0
 40
667.9091079150167
100
AcDbArc
 50
79.09021848280824
 51
92.80490648811367
  0
ARC
  5
EA
330
28F
100
AcDbEntity
  8
0
100
AcDbCircle
 10
584.3567850919046
 20
-689.2460377481856
 30
0.0
 40
941.1079819947811
100
AcDbArc
 50
111.5535933849796
 51
121.2251269666042
  0
ARC
  5
EB
330
28F
100
AcDbEntity
  8
0
100
AcDbCircle
 10
289.3451349933469
 20
209.7825634891737
 30
0.0
 40
277.4498765820315
100
AcDbArc
 50
176.2082067552144
 51
205.4019360580923
  0
ARC
  5
EC
330
28F
100
AcDbEntity
  8
0
100
AcDbCircle
 10
-421.9493385560217
 20
150.3247641110265
 30
0.0
 40
681.4713990296439
100
AcDbArc
 50
341.9903638132995
 51
347.2764504426981
  0
ARC
  5
ED
330
28F
100
AcDbEntity
  8
0
100
AcDbCircle
 10
-1133.866641682441
 20
1166.461375603589
 30
0.0
 40
1696.420420075649
100
AcDbArc
 50
316.7813015548376
 51
318.8741085746104
  0
ARC
  5
EE
330
28F
100
AcDbEntity
  8
0
100
AcDbCircle
 10
685.9347172209651
 20
-339.6829472433826
 30
0.0
 40
667.9091079150167
100
AcDbArc
 50
130.5187899113796
 51
144.2334779166851
  0
ARC
  5
EF
330
28F
100
AcDbEntity
  8
0
100
AcDbCircle
 10
1176.170754345878
 20
-120.103205219747
 30
0.0
 40
941.1079819947811
100
AcDbArc
 50
162.982164813551
 51
172.6536983951756
  0
ARC
  5
F0
330
28F
100
AcDbEntity
  8
0
100
AcDbCircle
 10
289.3451349933472
 20
209.7825634891736
 30
0.0
 40
277.4498765820315
100
AcDbArc
 50
227.6367781837858
 51
256.8305074866638
  0
ARC
  5
F1
330
28F
100
AcDbEntity
  8
0
100
AcDbCircle
 10
-107.6537359510575
 20
-383.4011807904835
 30
0.0
 40
681.4713990296439
100
AcDbArc
 50
33.41893524187094
 51
38.70502187126954
  0
ARC
  5
F2
330
28F
100
AcDbEntity
  8
0
100
AcDbCircle
 10
-1345.974507570423
 20
-306.4497267275504
 30
0.0
 40
1696.420420075649
100
AcDbArc
 50
8.209872983409062
 51
10.30268000318185
  0
ARC
  5
F3
330
28F
100
AcDbEntity
  8
0
100
AcDbCircle
 10
966.20412985677
 20
177.2626420787194
 30
0.0
 40
667.9091079150167
100
AcDbArc
 50
181.9473613399511
 51
195.6620493452566
  0
ARC
  5
F4
330
28F
100
AcDbEntity
  8
0
100
AcDbCircle
 10
1100.186944281506
 20
697.4503395898511
 30
0.0
 40
941.1079819947811
100
AcDbArc
 50
214.4107362421224
 51
224.0822698237471
  0
ARC
  5
F5
330
28F
100
AcDbEntity
  8
0
100
AcDbCircle
 10
289.345134993347
 20
209.7825634891737
 30
0.0
 40
277.4498765820315
100
AcDbArc
 50
279.0653496123573
 51
308.2590789152353
  0
ARC
  5
F6
330
28F
100
AcDbEntity
  8
0
100
AcDbCircle
 10
505.59011377618
 20
-470.4476675061695
 30
0.0
 40
681.4713990296439
100
AcDbArc
 50
84.84750667044234
 51
90.13359329984093
  0
ARC
  5
F7
330
28F
100
AcDbEntity
  8
0
100
AcDbCircle
 10
-326.6533281664265
 20
-1390.627385305853
 30
0.0
 40
1696.420420075649
100
AcDbArc
 50
59.63844441198045
 51
61.73125143175325
  0
ARC
  5
F8
330
28F
100
AcDbEntity
  8
0
100
AcDbCircle
 10
736.7849139531237
 20
718.6963955083983
 30
0.0
 40
667.9091079150167
100
AcDbArc
 50
233.3759327685224
 51
247.090620773828
  0
ARC
  5
F9
330
28F
100
AcDbEntity
  8
0
100
AcDbCircle
 10
413.6227136645194
 20
1147.780102385895
 30
0.0
 40
941.1079819947811
100
AcDbArc
 50
265.8393076706938
 51
275.5108412523184
  0
ARC
  5
FA
330
28F
100
AcDbEntity
  8
0
100
AcDbCircle
 10
289.3451349933471
 20
209.7825634891737
 30
0.0
 40
277.4498765820315
100
AcDbArc
 50
330.4939210409286
 51
359.6876503438065
  0
ARC
  5
FB
330
28F
100
AcDbEntity
  8
0
100
AcDbCircle
 10
955.9970838862611
 20
-45.26691611438337
 30
0.0
 40
681.4713990296439
100
AcDbArc
 50
136.2760780990137
 51
141.5621647284123
  0
ARC
  5
FC
330
28F
100
AcDbEntity
  8
0
100
AcDbCircle
 10
1156.527258075575
 20
-1269.663710028017
 30
0.0
 40
1696.420420075649
100
AcDbArc
 50
111.0670158405518
 51
113.1598228603246
  0
ARC
  5
FD
330
28F
100
AcDbEntity
  8
0
100
AcDbCircle
 10
170.4344183846175
 20
876.9076534772986
 30
0.0
 40
667.9091079150167
100
AcDbArc
 50
284.8045041970939
 51
298.5191922023994
  0
ARC
  5
FE
330
28F
100
AcDbEntity
  8
0
100
AcDbCircle
 10
-366.5250684924679
 20
891.7785867298903
 30
0.0
 40
941.1079819947811
100
AcDbArc
 50
317.2678790992652
 51
326.9394126808899
  0
ARC
  5
FF
330
28F
100
AcDbEntity
  8
0
100
AcDbCircle
 10
289.345134993347
 20
209.7825634891738
 30
0.0
 40
277.4498765820315
100
AcDbArc
 50
21.92249246950015
 51
51.11622177237801
  0
CIRCLE
  5
100
330
28F
100
AcDbEntity
  8
0
100
AcDbCircle
 10
289.345134993347
 20
209.7825634891737
 30
0.0
 40
134.7987267228694
  0
CIRCLE
  5
101
330
28F
100
AcDbEntity
  8
0
100
AcDbCircle
 10
289.345134993347
 20
209.7825634891737
 30
0.0
 40
217.2437851319648
  0
LINE
  5
102
330
28F
100
AcDbEntity
  8
0
100
AcDbLine
 10
-202.091052232889
 20
537.2825634891738
 30
0.0
 11
-207.091052232889
 21
537.2825634891738
 31
0.0
  0
LINE
  5
104
330
28F
100
AcDbEntity
  8
0
100
AcDbLine
 10
-202.091052232889
 20
489.7825634891737
 30
0.0
 11
-442.091052232889
 21
489.7825634891738
 31
0.0
  0
LINE
  5
106
330
28F
100
AcDbEntity
  8
0
100
AcDbLine
 10
-200.0666975639401
 20
519.7825634891738
 30
0.0
 11
-209.1888647891266
 21
519.7825634891738
 31
0.0
  0
LINE
  5
107
330
28F
100
AcDbEntity
  8
0
100
AcDbLine
 10
-202.091052232889
 20
537.2825634891738
 30
0.0
 11
-202.091052232889
 21
209.7825634891737
 31
0.0
  0
LINE
  5
109
330
28F
100
AcDbEntity
  8
0
100
AcDbLine
 10
-442.091052232889
 20
209.7825634891737
 30
0.0
 11
-442.091052232889
 21
537.2825634891738
 31
0.0
  0
LINE
  5
10A
330
28F
100
AcDbEntity
  8
0
100
AcDbLine
 10
-437.091052232889
 20
209.7825634891737
 30
0.0
 11
-437.0910522328891
 21
260.7825634891737
 31
0.0
  0
LINE
  5
10B
330
28F
100
AcDbEntity
  8
0
100
AcDbLine
 10
-207.091052232889
 20
537.2825634891738
 30
0.0
 11
-207.091052232889
 21
489.7825634891737
 31
0.0
  0
LWPOLYLINE
  5
10C
330
28F
100
AcDbEntity
  8
0
100
AcDbPolyline
 90
        6
 70
     1
 43
0.0
 10
-411.2694581112021
 20
489.7825634891738
 10
-276.5321024757752
 20
489.7825634891738
 10
-276.5321024757752
 20
531.8808127112166
 42
0.4142135623730951
 10
-281.5321024757752
 20
536.8808127112166
 10
-406.2694581112022
 20
536.8808127112166
 42
0.4142135623730951
 10
-411.2694581112021
 20
531.8808127112166
  0
LINE
  5
10D
330
28F
100
AcDbEntity
  8
0
100
AcDbLine
 10
-434.8701716897649
 20
519.7825634891738
 30
0.0
 11
-444.1117483255164
 21
519.7825634891738
 31
0.0
  0
LINE
  5
10E
330
28F
100
AcDbEntity
  8
0
100
AcDbLine
 10
-437.091052232889
 20
537.2825634891738
 30
0.0
 11
-442.091052232889
 21
537.2825634891738
 31
0.0
  0
CIRCLE
  5
111
330
28F
100
AcDbEntity
  8
0
100
AcDbCircle
 10
-322.091052232889
 20
519.7825634891738
 30
0.0
 40
6.0
  0
LINE
  5
112
330
28F
100
AcDbEntity
  8
0
100
AcDbLine
 10
-411.2694581112021
 20
489.7825634891738
 30
0.0
 11
-411.2694581112021
 21
295.2318995100948
 31
0.0
  0
LINE
  5
113
330
28F
100
AcDbEntity
  8
0
100
AcDbLine
 10
-395.717518370385
 20
209.7825634891737
 30
0.0
 11
-395.717518370385
 21
489.7825634891737
 31
0.0
  0
LINE
  5
114
330
28F
100
AcDbEntity
  8
0
100
AcDbLine
 10
-365.2132898756201
 20
275.4387654238708
 30
0.0
 11
-365.2132898756201
 21
209.7825634891737
 31
0.0
  0
LINE
  5
115
330
28F
100
AcDbEntity
  8
0
100
AcDbLine
 10
-238.3799217311991
 20
209.7825634891737
 30
0.0
 11
-238.3799217311992
 21
275.4387654238708
 31
0.0
  0
LINE
  5
116
330
28F
100
AcDbEntity
  8
0
100
AcDbLine
 10
-395.717518370385
 20
275.4387654238708
 30
0.0
 11
-238.3799217311991
 21
275.4387654238708
 31
0.0
  0
ARC
  5
117
330
28F
100
AcDbEntity
  8
0
100
AcDbCircle
 10
-268.6927286035735
 20
206.381518534678
 30
0.0
 40
66.68845778819512
100
AcDbArc
 50
2.923295847839206
 51
62.96443214281219
  0
LINE
  5
11B
330
28F
100
AcDbEntity
  8
0
100
AcDbLine
 10
-395.717518370385
 20
275.4387654238708
 30
0.0
 11
-411.2694581112021
 21
295.2318995100948
 31
0.0
  0
LWPOLYLINE
  5
11C
330
28F
100
AcDbEntity
  8
0
100
AcDbPolyline
 90
        4
 70
     1
 43
0.0
 10
-395.717518370385
 20
275.4387654238708
 10
-365.2786897348954
 20
275.4387654238708
 10
-365.2786897348954
 20
267.4852648960269
 10
-395.717518370385
 20
267.4852648960269
  0
LWPOLYLINE
  5
11D
330
28F
100
AcDbEntity
  8
0
100
AcDbPolyline
 90
        4
 70
     1
 43
0.0
 10
-395.717518370385
 20
267.4852648960269
 10
-365.2786897348954
 20
267.4852648960269
 10
-365.2786897348954
 20
259.531764368183
 10
-395.717518370385
 20
259.531764368183
  0
LWPOLYLINE
  5
11E
330
28F
100
AcDbEntity
  8
0
100
AcDbPolyline
 90
        4
 70
     1
 43
0.0
 10
-395.717518370385
 20
259.531764368183
 10
-365.2786897348954
 20
259.531764368183
 10
-365.2786897348954
 20
251.5782638403392
 10
-395.717518370385
 20
251.5782638403392
  0
LWPOLYLINE
  5
11F
330
28F
100
AcDbEntity
  8
0
100
AcDbPolyline
 90
        4
 70
     1
 43
0.0
 10
-395.717518370385
 20
251.5782638403392
 10
-365.2786897348954
 20
251.5782638403392
 10
-365.2786897348954
 20
243.6247633124953
 10
-395.717518370385
 20
243.6247633124953
  0
LWPOLYLINE
  5
120
330
28F
100
AcDbEntity
  8
0
100
AcDbPolyline
 90
        4
 70
     1
 43
0.0
 10
-395.717518370385
 20
243.6247633124953
 10
-365.2786897348954
 20
243.6247633124953
 10
-365.2786897348954
 20
235.6712627846515
 10
-395.717518370385
 20
235.6712627846515
  0
LWPOLYLINE
  5
121
330
28F
100
AcDbEntity
  8
0
100
AcDbPolyline
 90
        4
 70
     1
 43
0.0
 10
-395.717518370385
 20
235.6712627846515
 10
-365.2786897348954
 20
235.6712627846515
 10
-365.2786897348954
 20
227.7177622568076
 10
-395.717518370385
 20
227.7177622568076
  0
LWPOLYLINE
  5
122
330
28F
100
AcDbEntity
  8
0
100
AcDbPolyline
 90
        4
 70
     1
 43
0.0
 10
-395.717518370385
 20
227.7177622568076
 10
-365.2786897348954
 20
227.7177622568076
 10
-365.2786897348954
 20
219.7642617289637
 10
-395.717518370385
 20
219.7642617289637
  0
LWPOLYLINE
  5
123
330
28F
100
AcDbEntity
  8
0
100
AcDbPolyline
 90
        4
 70
     1
 43
0.0
 10
-395.717518370385
 20
219.7642617289637
 10
-365.2786897348954
 20
219.7642617289637
 10
-365.2786897348954
 20
211.8107612011199
 10
-395.717518370385
 20
211.8107612011199
  0
LINE
  5
126
330
28F
100
AcDbEntity
  8
0
100
AcDbLine
 10
-437.091052232889
 20
489.7825634891738
 30
0.0
 11
-437.091052232889
 21
537.2825634891738
 31
0.0
  0
ARC
  5
127
330
28F
100
AcDbEntity
  8
0
100
AcDbCircle
 10
-432.0910522328891
 20
260.7825634891737
 30
0.0
 40
5.0
100
AcDbArc
 50
90.0
 51
180.0
  0
LINE
  5
128
330
28F
100
AcDbEntity
  8
0
100
AcDbLine
 10
-395.717518370385
 20
265.7825634891737
 30
0.0
 11
-432.0910522328891
 21
265.7825634891737
 31
0.0
  0
ARC
  5
129
330
28F
100
AcDbEntity
  8
0
100
AcDbCircle
 10
1715.446007549974
 20
361.4558593470553
 30
0.0
 40
2072.02762913347
100
AcDbArc
 50
176.8332259456087
 51
182.3792313664039
  0
ARC
  5
12A
330
28F
100
AcDbEntity
  8
0
100
AcDbCircle
 10
-274.9860776565065
 20
87.58174150019561
 30
0.0
 40
396.1792246574093
100
AcDbArc
 50
85.51782484416125
 51
101.4182588090624
  0
ARC
  5
12B
330
28F
100
AcDbEntity
  8
0
100
AcDbCircle
 10
241.6791282434874
 20
404.1387388920801
 30
0.0
 40
491.9926890283981
100
AcDbArc
 50
170.8294669929314
 51
179.8881573412843
  0
ARC
  5
12C
330
28F
100
AcDbEntity
  8
0
100
AcDbCircle
 10
-863.2489151215631
 20
341.392049434552
 30
0.0
 40
616.2381750498596
100
AcDbArc
 50
353.8561151603087
 51
5.933873768502517
  0
ARC
  5
12D
330
28F
100
AcDbEntity
  8
0
100
AcDbCircle
 10
-863.2489151215638
 20
78.17307754379488
 30
0.0
 40
616.2381750498596
100
AcDbArc
 50
354.0661262314971
 51
6.143884839690954
  0
ARC
  5
12E
330
28F
100
AcDbEntity
  8
0
100
AcDbCircle
 10
1715.446007549974
 20
58.10926763127838
 30
0.0
 40
2072.02762913347
100
AcDbArc
 50
177.6207686335957
 51
183.166774054391
  0
LINE
  5
12F
330
28F
100
AcDbEntity
  8
0
100
AcDbLine
 10
-202.0910522328907
 20
-117.7174365108302
 30
0.0
 11
-202.091052232889
 21
209.7825634891697
 31
0.0
  0
LINE
  5
130
330
28F
100
AcDbEntity
  8
0
100
AcDbLine
 10
-395.7175183703853
 20
144.1263615544737
 30
0.0
 11
-411.2694581112026
 21
124.3332274682497
 31
0.0
  0
LINE
  5
131
330
28F
100
AcDbEntity
  8
0
100
AcDbLine
 10
-395.717518370385
 20
209.7825634891707
 30
0.0
 11
-395.7175183703864
 21
-70.21743651082917
 31
0.0
  0
LINE
  5
132
330
28F
100
AcDbEntity
  8
0
100
AcDbLine
 10
-442.091052232889
 20
209.782563489171
 30
0.0
 11
-442.0910522328907
 21
-117.7174365108289
 31
0.0
  0
LINE
  5
134
330
28F
100
AcDbEntity
  8
0
100
AcDbLine
 10
-395.7175183703853
 20
153.7825634891708
 30
0.0
 11
-432.0910522328894
 21
153.7825634891709
 31
0.0
  0
LINE
  5
136
330
28F
100
AcDbEntity
  8
0
100
AcDbLine
 10
-437.091052232889
 20
209.782563489171
 30
0.0
 11
-437.0910522328893
 21
158.7825634891709
 31
0.0
  0
ARC
  5
137
330
28F
100
AcDbEntity
  8
0
100
AcDbCircle
 10
-432.0910522328893
 20
158.7825634891709
 30
0.0
 40
5.0
100
AcDbArc
 50
179.9999999999997
 51
269.9999999999998
  0
LINE
  5
138
330
28F
100
AcDbEntity
  8
0
100
AcDbLine
 10
-395.7175183703853
 20
144.1263615544737
 30
0.0
 11
-238.3799217311995
 21
144.1263615544728
 31
0.0
  0
LWPOLYLINE
  5
13B
330
28F
100
AcDbEntity
  8
0
100
AcDbPolyline
 90
        4
 70
     1
 43
0.0
 10
-395.7175183703851
 20
199.8008652493807
 10
-365.2786897348955
 20
199.8008652493805
 10
-365.2786897348954
 20
207.7543657772244
 10
-395.717518370385
 20
207.7543657772245
  0
LINE
  5
13C
330
28F
100
AcDbEntity
  8
0
100
AcDbLine
 10
-365.2132898756204
 20
144.1263615544735
 30
0.0
 11
-365.2132898756201
 21
209.7825634891706
 31
0.0
  0
LWPOLYLINE
  5
13D
330
28F
100
AcDbEntity
  8
0
100
AcDbPolyline
 90
        4
 70
     1
 43
0.0
 10
-395.7175183703852
 20
167.9868631380053
 10
-365.2786897348956
 20
167.9868631380051
 10
-365.2786897348956
 20
175.940363665849
 10
-395.7175183703852
 20
175.9403636658491
  0
LWPOLYLINE
  5
13E
330
28F
100
AcDbEntity
  8
0
100
AcDbPolyline
 90
        4
 70
     1
 43
0.0
 10
-395.7175183703851
 20
191.8473647215368
 10
-365.2786897348955
 20
191.8473647215367
 10
-365.2786897348955
 20
199.8008652493805
 10
-395.7175183703851
 20
199.8008652493807
  0
LWPOLYLINE
  5
13F
330
28F
100
AcDbEntity
  8
0
100
AcDbPolyline
 90
        4
 70
     1
 43
0.0
 10
-395.7175183703851
 20
183.893864193693
 10
-365.2786897348955
 20
183.8938641936928
 10
-365.2786897348955
 20
191.8473647215367
 10
-395.7175183703851
 20
191.8473647215368
  0
LWPOLYLINE
  5
140
330
28F
100
AcDbEntity
  8
0
100
AcDbPolyline
 90
        4
 70
     1
 43
0.0
 10
-395.7175183703852
 20
175.9403636658491
 10
-365.2786897348956
 20
175.940363665849
 10
-365.2786897348955
 20
183.8938641936928
 10
-395.7175183703851
 20
183.893864193693
  0
LWPOLYLINE
  5
141
330
28F
100
AcDbEntity
  8
0
100
AcDbPolyline
 90
        4
 70
     1
 43
0.0
 10
-395.7175183703852
 20
160.0333626101614
 10
-365.2786897348956
 20
160.0333626101613
 10
-365.2786897348956
 20
167.9868631380051
 10
-395.7175183703852
 20
167.9868631380053
  0
LWPOLYLINE
  5
142
330
28F
100
AcDbEntity
  8
0
100
AcDbPolyline
 90
        4
 70
     1
 43
0.0
 10
-395.7175183703853
 20
152.0798620823176
 10
-365.2786897348957
 20
152.0798620823174
 10
-365.2786897348956
 20
160.0333626101613
 10
-395.7175183703852
 20
160.0333626101614
  0
LWPOLYLINE
  5
143
330
28F
100
AcDbEntity
  8
0
100
AcDbPolyline
 90
        4
 70
     1
 43
0.0
 10
-395.7175183703853
 20
144.1263615544737
 10
-365.2786897348958
 20
144.1263615544736
 10
-365.2786897348957
 20
152.0798620823174
 10
-395.7175183703853
 20
152.0798620823176
  0
LINE
  5
144
330
28F
100
AcDbEntity
  8
0
100
AcDbLine
 10
-238.3799217311991
 20
209.7825634891699
 30
0.0
 11
-238.3799217311995
 21
144.1263615544728
 31
0.0
  0
ARC
  5
145
330
28F
100
AcDbEntity
  8
0
100
AcDbCircle
 10
-268.6927286035735
 20
213.1836084436657
 30
0.0
 40
66.68845778819512
100
AcDbArc
 50
297.0355678571875
 51
357.0767041521605
  0
LINE
  5
148
330
28F
100
AcDbEntity
  8
0
100
AcDbLine
 10
-207.0910522328907
 20
-117.7174365108302
 30
0.0
 11
-207.0910522328904
 21
-70.21743651083011
 31
0.0
  0
LINE
  5
149
330
28F
100
AcDbEntity
  8
0
100
AcDbLine
 10
-437.0910522328904
 20
-70.21743651082909
 30
0.0
 11
-437.0910522328907
 21
-117.7174365108289
 31
0.0
  0
LINE
  5
14B
330
28F
100
AcDbEntity
  8
0
100
AcDbLine
 10
-202.0910522328904
 20
-70.21743651083023
 30
0.0
 11
-442.0910522328904
 21
-70.21743651082909
 31
0.0
  0
LINE
  5
14C
330
28F
100
AcDbEntity
  8
0
100
AcDbLine
 10
-434.8701716897665
 20
-100.2174365108289
 30
0.0
 11
-444.111748325518
 21
-100.2174365108289
 31
0.0
  0
LINE
  5
14D
330
28F
100
AcDbEntity
  8
0
100
AcDbLine
 10
-411.2694581112036
 20
-70.21743651082926
 30
0.0
 11
-411.2694581112026
 21
124.3332274682497
 31
0.0
  0
ARC
  5
14E
330
28F
100
AcDbEntity
  8
0
100
AcDbCircle
 10
-274.9860776565059
 20
331.9833854781482
 30
0.0
 40
396.1792246574093
100
AcDbArc
 50
258.5817411909372
 51
274.4821751558384
  0
ARC
  5
14F
330
28F
100
AcDbEntity
  8
0
100
AcDbCircle
 10
241.6791282434864
 20
15.42638808626105
 30
0.0
 40
491.9926890283981
100
AcDbArc
 50
180.1118426587153
 51
189.1705330070682
  0
LINE
  5
150
330
28F
100
AcDbEntity
  8
0
100
AcDbLine
 10
-200.0666975639417
 20
-100.2174365108302
 30
0.0
 11
-209.1888647891282
 21
-100.2174365108302
 31
0.0
  0
LINE
  5
151
330
28F
100
AcDbEntity
  8
0
100
AcDbLine
 10
-437.0910522328907
 20
-117.7174365108289
 30
0.0
 11
-442.0910522328907
 21
-117.7174365108289
 31
0.0
  0
LINE
  5
152
330
28F
100
AcDbEntity
  8
0
100
AcDbLine
 10
-202.0910522328907
 20
-117.7174365108302
 30
0.0
 11
-207.0910522328907
 21
-117.7174365108302
 31
0.0
  0
DIMENSION
  5
153
330
28F
100
AcDbEntity
  8
koty
100
AcDbDimension
  2
*D3
 10
-500.1994231494027
 20
-70.21743651082909
 30
0.0
 11
-516.4494231494027
 21
209.7825634891724
 31
0.0
 70
    32
 71
     0
 42
560.000000000003
  3
ISO-25
100
AcDbAlignedDimension
 13
-442.091052232889
 23
489.7825634891738
 33
0.0
 14
-442.0910522328904
 24
-70.21743651082909
 34
0.0
 50
90.0
100
AcDbRotatedDimension
  0
DIMENSION
  5
16C
330
28F
100
AcDbEntity
  8
koty
100
AcDbDimension
  2
*D4
 10
-567.0381727771601
 20
519.7825634891738
 30
0.0
 11
-583.2881727771601
 21
209.7825634891725
 31
0.0
 70
    32
 71
     0
 42
620.0000000000025
  3
ISO-25
100
AcDbAlignedDimension
 13
-442.0910522328906
 23
-100.2174365108289
 33
0.0
 14
-442.091052232889
 24
519.7825634891738
 34
0.0
 50
90.0
100
AcDbRotatedDimension
  0
DIMENSION
  5
184
330
28F
100
AcDbEntity
  8
koty
100
AcDbDimension
  2
*D5
 10
-633.9649631945067
 20
-117.7174365108289
 30
0.0
 11
-650.2149631945067
 21
209.7825634891725
 31
0.0
 70
    32
 71
     0
 42
655.0000000000026
  3
ISO-25
100
AcDbAlignedDimension
 13
-442.091052232889
 23
537.2825634891738
 33
0.0
 14
-442.0910522328907
 24
-117.7174365108289
 34
0.0
 50
90.0
100
AcDbRotatedDimension
  0
DIMENSION
  5
19C
330
28F
100
AcDbEntity
  8
koty
100
AcDbDimension
  2
*D6
 10
-202.0910522328907
 20
-170.8192419298866
 30
0.0
 11
-322.0910522328907
 21
-154.5692419298866
 31
0.0
 70
    32
 71
     0
 42
240.0000000000001
  3
ISO-25
100
AcDbAlignedDimension
 13
-442.0910522328907
 23
-117.7174365108289
 33
0.0
 14
-202.0910522328907
 24
-117.7174365108302
 34
0.0
100
AcDbRotatedDimension
  0
DIMENSION
  5
1B4
330
28F
100
AcDbEntity
  8
koty
100
AcDbDimension
  2
*D7
 10
283.3451455560208
 20
519.7713050712312
 30
0.0
 11
288.7187940843244
 21
556.2762325054432
 31
0.0
 70
   163
 71
     0
 42
11.99999999999999
  3
ISO-25
100
AcDbDiametricDimension
 15
295.3451244306731
 25
519.7938219071159
 35
0.0
 40
0.0
  0
TEXT
  5
1CE
330
28F
100
AcDbEntity
  8
popis
100
AcDbText
 10
-238.857925139268
 20
615.5952165948949
 30
0.0
 40
15.0
  1
TXBR/TXTR 560 axiální ventilátor
100
AcDbText
  0
LWPOLYLINE
  5
1D6
330
28F
100
AcDbEntity
  8
koty
100
AcDbPolyline
 90
        4
 70
     1
 43
0.0
 10
113.5851281100318
 20
-72.58686943540545
 10
128.345134993347
 20
-58.68531168400219
 10
118.8915796447202
 20
-76.62246314072911
 10
118.8915796447202
 20
-76.62246314072911
1001
VDEXTRAPARAM
1071
       65
1071
        0
1071
        0
1040
1.0
1000

1000

1040
0.0
1040
0.0
  0
HATCH
  5
2F6
330
28F
100
AcDbEntity
  8
koty
100
AcDbHatch
 10
0.0
 20
0.0
 30
0.0
210
0.0
220
0.0
230
1.0
  2
SOLID
 70
     1
 71
     0
 91
        1
 92
        2
 72
     0
 73
     1
 93
        3
 10
113.5851281100318
 20
-72.58686943540545
 10
128.345134993347
 20
-58.68531168400219
 10
118.8915796447202
 20
-76.62246314072911
 97
        0
 75
     0
 76
     1
 98
        1
 10
0.0
 20
0.0
1001
VDEXTRAPARAM
1071
       65
1071
        0
1071
        0
1040
1.0
1000

1000

1040
0.0
1040
0.0
1001
VD_TEMPHATCH
1000
VD_TEMPHATCH
  0
LWPOLYLINE
  5
1D7
330
28F
100
AcDbEntity
  8
koty
100
AcDbPolyline
 90
        3
 70
     0
 43
0.0
 10
116.238353877376
 20
-74.60466628806728
 10
80.94557260053898
 20
-121.0115761617837
 10
60.94557260053898
 20
-121.0115761617837
  0
TEXT
  5
1DC
330
28F
100
AcDbEntity
  8
koty
100
AcDbText
 10
3.267001171967552
 20
-131.0115761617837
 30
0.0
 40
20.0
  1
12x
  7
Proxy_1DC
100
AcDbText
  0
VIEWPORT
  5
2F7
330
28B
100
AcDbEntity
 67
     1
  8
0
 60
     1
100
AcDbViewport
 10
0.0
 20
0.0
 30
0.0
 40
10.0
 41
10.0
 69
     1
 12
0.0
 22
0.0
 13
0.0
 23
0.0
 14
1.0
 24
1.0
 15
0.0
 25
0.0
 16
0.0
 26
0.0
 36
1.0
 17
0.0
 27
0.0
 37
0.0
 42
0.0
 43
0.0
 44
0.0
 45
10.0
 50
0.0
 51
0.0000000000007958
 72
   100
 90
   163872
  1

281
     0
 71
     0
 74
     0
110
0.0
120
0.0
130
0.0
111
1.0
121
0.0
131
0.0
112
0.0
122
1.0
132
0.0
 79
     0
146
0.0
1001
VD_INVISIBLE_NOT_FOR_READ
1000
VD_INVISIBLE_NOT_FOR_READ
  0
VIEWPORT
  5
2F8
330
28B
100
AcDbEntity
 67
     1
  8
0
 60
     1
100
AcDbViewport
 10
0.0
 20
0.0
 30
0.0
 40
10.0
 41
10.0
 69
     2
 12
0.0
 22
0.0
 13
0.0
 23
0.0
 14
1.0
 24
1.0
 15
0.0
 25
0.0
 16
0.0
 26
0.0
 36
1.0
 17
0.0
 27
0.0
 37
0.0
 42
0.0
 43
0.0
 44
0.0
 45
10.0
 50
0.0
 51
0.0000000000007958
 72
   100
 90
   163872
  1

281
     0
 71
     0
 74
     0
110
0.0
120
0.0
130
0.0
111
1.0
121
0.0
131
0.0
112
0.0
122
1.0
132
0.0
 79
     0
146
0.0
1001
VD_INVISIBLE_NOT_FOR_READ
1000
VD_INVISIBLE_NOT_FOR_READ
  0
ENDSEC
  0
SECTION
  2
OBJECTS
  0
DICTIONARY
  5
27C
330
0
100
AcDbDictionary
281
     1
  3
ACAD_GROUP
350
27D
  3
ACAD_LAYOUT
350
28A
  3
ACAD_MLINESTYLE
350
287
  3
ACAD_PLOTSETTINGS
350
289
  3
ACAD_PLOTSTYLENAME
350
27E
  3
VECTORDRAW_OBJECTS
350
29F
  0
DICTIONARY
  5
27D
102
{ACAD_REACTORS
330
27C
102
}
330
27C
100
AcDbDictionary
281
     1
  0
DICTIONARY
  5
28A
102
{ACAD_REACTORS
330
27C
102
}
330
27C
100
AcDbDictionary
281
     1
  3
Model
350
292
  3
Rozvržení1
350
28E
  3
Rozvržení2
350
296
  0
DICTIONARY
  5
287
102
{ACAD_REACTORS
330
27C
102
}
330
27C
100
AcDbDictionary
281
     1
  3
Standard
350
288
  0
DICTIONARY
  5
289
102
{ACAD_REACTORS
330
27C
102
}
330
27C
100
AcDbDictionary
281
     1
  0
ACDBDICTIONARYWDFLT
  5
27E
102
{ACAD_REACTORS
330
27C
102
}
330
27C
100
AcDbDictionary
281
     1
  3
Normal
350
27F
100
AcDbDictionaryWithDefault
340
27F
  0
DICTIONARY
  5
29F
102
{ACAD_REACTORS
330
27C
102
}
330
27C
100
AcDbDictionary
281
     1
  3
SERIALNO
350
2A0
  0
LAYOUT
  5
292
102
{ACAD_REACTORS
330
28A
102
}
330
28A
100
AcDbPlotSettings
  1
VectorDraw Printer Drawing
  2

  4

  6

 40
0.0
 41
0.0
 42
0.0
 43
0.0
 44
0.0
 45
0.0
 46
0.0
 47
0.0
 48
0.0
 49
0.0
140
0.0
141
0.0
142
1.0
143
1.0
 70
  1712
 72
     0
 73
     0
 74
     0
  7

 75
     0
147
1.0
148
0.0
149
0.0
100
AcDbLayout
  1
Model
 70
     1
 71
     0
 10
0.0
 20
0.0
 11
12.0
 21
9.0
 12
0.0
 22
0.0
 32
0.0
 14
-666.3995785791221
 24
-183.3192419298866
 34
0.0
 15
616.8451349933469
 25
630.5952165948949
 35
0.0
146
0.0
 13
0.0
 23
0.0
 33
0.0
 16
1.0
 26
0.0
 36
0.0
 17
0.0
 27
1.0
 37
0.0
 76
     0
330
28F
  0
LAYOUT
  5
28E
102
{ACAD_REACTORS
330
28A
102
}
330
28A
100
AcDbPlotSettings
  1
VectorDraw Printer Drawing
  2

  4

  6

 40
0.0
 41
0.0
 42
0.0
 43
0.0
 44
0.0
 45
0.0
 46
0.0
 47
0.0
 48
0.0
 49
0.0
140
0.0
141
0.0
142
1.0
143
1.0
 70
   688
 72
     0
 73
     0
 74
     5
  7

 75
    16
147
1.0
148
0.0
149
0.0
100
AcDbLayout
  1
Rozvržení1
 70
     1
 71
     1
 10
0.0
 20
0.0
 11
12.0
 21
9.0
 12
0.0
 22
0.0
 32
0.0
 14
1.000000000000000E+20
 24
1.000000000000000E+20
 34
1.000000000000000E+20
 15
-1.000000000000000E+20
 25
-1.000000000000000E+20
 35
-1.000000000000000E+20
146
0.0
 13
0.0
 23
0.0
 33
0.0
 16
1.0
 26
0.0
 36
0.0
 17
0.0
 27
1.0
 37
0.0
 76
     0
330
28B
331
2F7
  0
LAYOUT
  5
296
102
{ACAD_REACTORS
330
28A
102
}
330
28A
100
AcDbPlotSettings
  1
VectorDraw Printer Drawing
  2

  4

  6

 40
0.0
 41
0.0
 42
0.0
 43
0.0
 44
0.0
 45
0.0
 46
0.0
 47
0.0
 48
0.0
 49
0.0
140
0.0
141
0.0
142
1.0
143
1.0
 70
   688
 72
     0
 73
     0
 74
     5
  7

 75
    16
147
1.0
148
0.0
149
0.0
100
AcDbLayout
  1
Rozvržení2
 70
     1
 71
     2
 10
0.0
 20
0.0
 11
12.0
 21
9.0
 12
0.0
 22
0.0
 32
0.0
 14
0.0
 24
0.0
 34
0.0
 15
0.0
 25
0.0
 35
0.0
146
0.0
 13
0.0
 23
0.0
 33
0.0
 16
1.0
 26
0.0
 36
0.0
 17
0.0
 27
1.0
 37
0.0
 76
     0
330
293
331
2F9
  0
MLINESTYLE
  5
288
102
{ACAD_REACTORS
330
287
102
}
330
287
100
AcDbMlineStyle
  2
Standard
 70
     0
  3

 62
   256
 51
90.0
 52
90.0
 71
     2
 49
0.5
 62
   256
  6
BYLAYER
 49
-0.5
 62
   256
  6
BYLAYER
  0
ACDBPLACEHOLDER
  5
27F
102
{ACAD_REACTORS
330
27E
102
}
330
27E
  0
XRECORD
  5
2A0
102
{ACAD_REACTORS
330
29F
102
}
330
29F
100
AcDbXrecord
280
     1
1000
rInJVR9YY4Q8hfPWdUq5j5319
1070
     4
1070
     6
  0
ENDSEC
  0
EOF
